Today is a free download without charge Download

(Melodic Rock/AOR) Lionville - Дискография 2011-2012 (Японские издания, 2 альбома), FLAC (image+.cue), lossless

Reply to topic
 
Author
Message

Omen ®

Longevity: 7 years 1 month

Posts: 181090

Торрент-статистика

Post 26-Jun-2013 21:04

[Quote]

Дискография 2011-2012Жанр: Melodic Rock/AOR
Страна-производитель дисков: Japan
Годы издания: 2011-2013
Издатель (лейбл): Rubicon
Страна: Italy
Аудиокодек: FLAC (*.flac)
Тип рипа: image+.cue
Битрейт аудио: lossless
Продолжительность: 2 часа 8 минут
Источник (релизер): собственные рипы с личных CD
Наличие сканов в содержимом раздачи: да

2011 (11-7-27) – Lionville (RBNCD-1053)

Продолжительность: 62:00
Треклист:
1. Here By My Side - 4:14
2. With You - 4:58
3. Centre Of My Universe - 4:23
4. Thunder In Your Heart - 3:35
5. The World Without Your Love - 5:00
6. Power Of My Dreams - 4:56
7. No End In Sight - 4:26
8. The Chosen Ones - 4:27
9. Over And Over Again - 3:38
10. Dreamhunter - 4:08
11. Say Goodbye - 4:29
bonus tracks for Japan:
12. The World Without Your Love (Avenue AOR Version) 5:00
13. No End In Sight (Aiternative Version) 4:09
14. Say Goodbye (Acoustic Version) 4:32
Lionville это:
Stefano Lionetti - guitars, backing vocals, lead vocals on tracks 3, 6, 9
вместе с
Lars Säfsund - lead & backing vocals
Alessandro Del Vecchio - keyboards & backing vocals
Pierpaolo "Zorro11" Monti - drums & percussions
и
Anna Portalupi - bass
Mario Percudani - guitars on tracks 4, 8, 10
Andrea Maddalone - guitars on tracks 1, 2, 6
Amos Monti - bass on tracks 6, 9
специальные гости:
Tommy Denander - guitar solos on track 8
Arabella Vitanc - lead & backing vocals on track 8
Bruce Gaitsch - acoustic & electric guitars on tracks 1, 3, 5, 9, 11
Sven Larsson - guitars on tracks 7, 9
Erik Mårtesson - backing vocals on track 3

Лог создания рипа

Exact Audio Copy V1.0 beta 3 from 29. August 2011
EAC extraction logfile from 25. June 2013, 23:56
Lionville / Lionville
Used drive : SlimtypeDVD A DS8A5SH Adapter: 0 ID: 1
Read mode : SecureUtilize accurate stream : YesDefeat audio cache : YesMake use of C2 pointers : No
Read offset correction : 6Overread into Lead-In and Lead-Out : NoFill up missing offset samples with silence : YesDelete leading and trailing silent blocks : NoNull samples used in CRC calculations : YesUsed interface : Native Win32 interface for Win NT & 2000
Used output format : User Defined EncoderSelected bitrate : 320 kBit/sQuality : HighAdd ID3 tag : NoCommand line compressor : C:\Program Files (x86)\Exact Audio Copy\Flac\flac.exeAdditional command line options : -V -8 -T "Date=%year%" -T "Genre=%genre%" %source%
TOC of the extracted CD
Track | Start | Length | Start sector | End sector --------------------------------------------------------- 1 | 0:00.00 | 4:14.73 | 0 | 19122 2 | 4:14.73 | 4:58.09 | 19123 | 41481 3 | 9:13.07 | 4:23.11 | 41482 | 61217 4 | 13:36.18 | 3:35.66 | 61218 | 77408 5 | 17:12.09 | 5:00.01 | 77409 | 99909 6 | 22:12.10 | 4:56.70 | 99910 | 122179 7 | 27:09.05 | 4:26.06 | 122180 | 142135 8 | 31:35.11 | 4:27.42 | 142136 | 162202 9 | 36:02.53 | 3:38.24 | 162203 | 178576 10 | 39:41.02 | 4:08.47 | 178577 | 197223 11 | 43:49.49 | 4:29.59 | 197224 | 217457 12 | 48:19.33 | 5:00.05 | 217458 | 239962 13 | 53:19.38 | 4:09.34 | 239963 | 258671 14 | 57:28.72 | 4:31.28 | 258672 | 279024
Range status and errors
Selected range
Filename D:\My Music\Lionville - 2011 Lionville\Lionville - Lionville.wav
Peak level 98.8 % Extraction speed 1.9 X Range quality 100.0 % Test CRC 00A63D72 Copy CRC 00A63D72 Copy OK
No errors occurred
AccurateRip summary
Track 1 not present in databaseTrack 2 not present in databaseTrack 3 not present in databaseTrack 4 not present in databaseTrack 5 not present in databaseTrack 6 not present in databaseTrack 7 not present in databaseTrack 8 not present in databaseTrack 9 not present in databaseTrack 10 not present in databaseTrack 11 not present in databaseTrack 12 not present in databaseTrack 13 not present in databaseTrack 14 not present in database
None of the tracks are present in the AccurateRip database
End of status report
==== Log checksum F9913050C0671F71A7F92CE4607677874B0AA861C3BEAC84A2AAE0959316E791 ====

2012 (13-1-30) – II (RBNCD-1123)

Продолжительность: 65:44
Треклист:
1. All We Need - 4:42
2. The Only Way is Up - 4:16
3. Another Day - 4:44
4. Higher - 5:08
5. No Turning Back - 5:10
6. All This Time - 4:32
7. Next to Me - 4:28
8. Waiting for a Star to Fall (Boys Meets Girl cover) - 4:56
9. Don't Walk Away - 4:18
10. One In a Million - 4:08
11. Shining Over Me - 4:54
12. Open Your Heart - 4:47
bonus tracks for Japan:
13. Another Day (Alternative Mix) - 4:29
14. Higher (Alternative Mix) - 5:05
Lionville это:
Stefano Lionetti - guitars, backing vocals, keyboards, lead vocals on tracks 4, 12
вместе с
Lars Säfsund - lead & backing vocals
Alessandro Del Vecchio - keyboards & backing vocals
Pierpaolo "Zorro11" Monti - drums & percussions
Anna Portalupi - bass
Mario Percudani - guitars
Bruce Gaitch - acoustic & electric guitars
специальные гости:
Bill Champlin - lead & backing vocals on track 4
Tamara Champlin - backing vocals on track 4
Robert Säll - guitars & keyboards on track 6
Sven Larsson - guitars on track 10
Peter Friestedt - guitars on track 3
Joe La Viola - saxophone on track 8
Herman Furin - percussions on track 12

Лог создания рипа

Exact Audio Copy V1.0 beta 3 from 29. August 2011
EAC extraction logfile from 26. June 2013, 0:56
Lionville / II
Used drive : SlimtypeDVD A DS8A5SH Adapter: 0 ID: 1
Read mode : SecureUtilize accurate stream : YesDefeat audio cache : YesMake use of C2 pointers : No
Read offset correction : 6Overread into Lead-In and Lead-Out : NoFill up missing offset samples with silence : YesDelete leading and trailing silent blocks : NoNull samples used in CRC calculations : YesUsed interface : Native Win32 interface for Win NT & 2000
Used output format : User Defined EncoderSelected bitrate : 320 kBit/sQuality : HighAdd ID3 tag : NoCommand line compressor : C:\Program Files (x86)\Exact Audio Copy\Flac\flac.exeAdditional command line options : -V -8 -T "Date=%year%" -T "Genre=%genre%" %source%
TOC of the extracted CD
Track | Start | Length | Start sector | End sector --------------------------------------------------------- 1 | 0:00.00 | 4:42.51 | 0 | 21200 2 | 4:42.51 | 4:16.51 | 21201 | 40451 3 | 8:59.27 | 4:44.69 | 40452 | 61820 4 | 13:44.21 | 5:08.53 | 61821 | 84973 5 | 18:52.74 | 5:10.14 | 84974 | 108237 6 | 24:03.13 | 4:32.21 | 108238 | 128658 7 | 28:35.34 | 4:28.44 | 128659 | 148802 8 | 33:04.03 | 4:56.05 | 148803 | 171007 9 | 38:00.08 | 4:18.68 | 171008 | 190425 10 | 42:19.01 | 4:08.39 | 190426 | 209064 11 | 46:27.40 | 4:54.42 | 209065 | 231156 12 | 51:22.07 | 4:47.68 | 231157 | 252749 13 | 56:10.00 | 4:29.23 | 252750 | 272947 14 | 60:39.23 | 5:04.53 | 272948 | 295800
Range status and errors
Selected range
Filename D:\My Music\Lionville - 2012 II\Lionville - II.wav
Peak level 98.8 % Extraction speed 2.0 X Range quality 100.0 % Test CRC 3B1B4028 Copy CRC 3B1B4028 Copy OK
No errors occurred
AccurateRip summary
Track 1 not present in databaseTrack 2 not present in databaseTrack 3 not present in databaseTrack 4 not present in databaseTrack 5 not present in databaseTrack 6 not present in databaseTrack 7 not present in databaseTrack 8 not present in databaseTrack 9 not present in databaseTrack 10 not present in databaseTrack 11 not present in databaseTrack 12 not present in databaseTrack 13 not present in databaseTrack 14 not present in database
None of the tracks are present in the AccurateRip database
End of status report
==== Log checksum BACDDFA9146ABC8889AF3E0057318A6D97CEF631C795AEAC2B498328F5586A85 ====
Other forum [Profile] [PM]

Dracula

Longevity: 6 years 1 month

Posts: 10692

Торрент-статистика

Post 27-Jun-2013 04:54 (after 7 hours)

Топик был перенесен из форума Rock в форум Rock


p2000s
 
Display posts from previous:    
Reply to topic

The time now is: Today 08:04

All times are GMT + 3 Hours



You cannot post new topics in this forum
You cannot reply to topics in this forum
You cannot edit your posts in this forum
You cannot delete your posts in this forum
You cannot vote in polls in this forum
You cannot attach files in this forum
You cannot download files in this forum