Today is a free download without charge Download

(Art-Rock / Orchestral Rock / Experimental) The Red Paintings - Коллекция (11 релизов: 7 CD, 4 WEB-релиза) - 2000-2013, FLAC (tracks+.cue, tracks), lossless

Reply to topic
 
Author
Message

Omen ®

Longevity: 7 years 1 month

Posts: 181090

Торрент-статистика

Post 24-Jun-2013 22:08

[Quote]

-The Red Paintings / Коллекция (11 релизов)-
-The Red paintings - это группа из Лос-Анджелеса, штат Калифорния, играющая арт-рок; образовалась в Джелонг, штат Виктория, но уже в течении многих лет базируется в австралийском городе Брисбен. Состав группы: гитарист/фронтмен/композитор Trash McSweeney, Ellen Stancombe (скрипка, вокал), Mike Langdale (бас-гитара), Andy Davis (барабаны) и David Sue Yek (виолончель). Группа известна своими уникальными, насыщенными действием, представлениями, включающими в себя элементы театра... Их музыкальный стиль часто характеризуют как "оркестровый научно-фантастический арт-рок". Музыканты часто одеваются в детализированные тематические костюмы: от нарядов гейши и костюмов пришельцев до морских созданий. На сцене используется сложный и эксцентричный реквизит, начиная от статуи Девы Марии и детских игрушек, заканчивая гигантскими роботами и деталями оформления, так или иначе связанными с фильмами Тима Бёртона. Они часто приглашают зрителей рисовать на пустых холстах во время шоу. У Red Paintings большое сообщество поклонников в Австралии и США - их первый студийный альбом был выпущен почти исключительно на пожертвования фанатов...-Жанр: Art-Rock / Orchestral Rock / Experimental
Год издания: 2000-2013
Страна: Australia
Аудиокодек: FLAC (*.flac)
Тип рипа: tracks+.cue, tracks
Битрейт аудио: lossless
Источник (релизер): funeral_meat, whalefx, Fojhiz, Protoman, aznblur, theredpaintings.bandcamp.com
Наличие сканов в содержимом раздачи: нет

2000 - Reality (Ahead Of Schedule) {EP} [21:50]

Tracklist:
01. Reality (5:05)
02. Insane Me (3:22)
03. Angel Flummox (5:38)
04. Seeds (7:45)

Лог создания рипа

Exact Audio Copy V0.99 prebeta 4 from 23. January 2008
EAC extraction logfile from 9. December 2008, 9:46
The Red Paintings / Reality [Ahead Of Schedule]
Used drive : ASUS DRW-20B1LT Adapter: 3 ID: 2
Read mode : SecureUtilize accurate stream : YesDefeat audio cache : YesMake use of C2 pointers : No
Read offset correction : 6Overread into Lead-In and Lead-Out : NoFill up missing offset samples with silence : YesDelete leading and trailing silent blocks : NoNull samples used in CRC calculations : YesUsed interface : Native Win32 interface for Win NT & 2000Gap handling : Appended to previous track
Used output format : User Defined EncoderSelected bitrate : 192 kBit/sQuality : HighAdd ID3 tag : NoCommand line compressor : C:\Program Files\FLAC\flac.exeAdditional command line options : -V -8 -T "artist=%a" -T "title=%t" -T "album=%g" -T "date=%y" -T "tracknumber=%n" -T "genre=%m" %s
TOC of the extracted CD
Track | Start | Length | Start sector | End sector --------------------------------------------------------- 1 | 0:00.00 | 5:04.72 | 0 | 22871 2 | 5:04.72 | 3:22.18 | 22872 | 38039 3 | 8:27.15 | 5:38.07 | 38040 | 63396 4 | 14:05.22 | 7:45.00 | 63397 | 98271
Track 1
Filename L:\CD Audio\The Red Paintings - Reality [Ahead Of Schedule]\The Red Paintings - Reality [Ahead Of Schedule] - 01 - Reality.wav
Pre-gap length 0:00:02.00
Peak level 100.0 % Track quality 100.0 % Test CRC 0CF5BC4E Copy CRC 0CF5BC4E Track not present in AccurateRip database Copy OK
Track 2
Filename L:\CD Audio\The Red Paintings - Reality [Ahead Of Schedule]\The Red Paintings - Reality [Ahead Of Schedule] - 02 - Insane Me.wav
Peak level 100.0 % Track quality 99.9 % Test CRC 7072F689 Copy CRC 7072F689 Track not present in AccurateRip database Copy OK
Track 3
Filename L:\CD Audio\The Red Paintings - Reality [Ahead Of Schedule]\The Red Paintings - Reality [Ahead Of Schedule] - 03 - Angel Flummox.wav
Peak level 100.0 % Track quality 100.0 % Test CRC 9EACACF3 Copy CRC 9EACACF3 Track not present in AccurateRip database Copy OK
Track 4
Filename L:\CD Audio\The Red Paintings - Reality [Ahead Of Schedule]\The Red Paintings - Reality [Ahead Of Schedule] - 04 - Seeds.wav
Pre-gap length 0:00:38.57
Peak level 100.0 % Track quality 100.0 % Test CRC 94DD82AF Copy CRC 94DD82AF Track not present in AccurateRip database Copy OK
None of the tracks are present in the AccurateRip database
No errors occurred
End of status report

Содержание индексной карты (.CUE)

REM DATE 2000REM DISCID 2C051E04REM COMMENT "ExactAudioCopy v0.99pb4"PERFORMER "The Red Paintings"TITLE "Reality [Ahead Of Schedule]"FILE "The Red Paintings - Reality [Ahead Of Schedule] - 01 - Reality.wav" WAVE TRACK 01 AUDIO TITLE "Reality" PERFORMER "The Red Paintings" INDEX 01 00:00:00FILE "The Red Paintings - Reality [Ahead Of Schedule] - 02 - Insane Me.wav" WAVE TRACK 02 AUDIO TITLE "Insane Me" PERFORMER "The Red Paintings" INDEX 01 00:00:00FILE "The Red Paintings - Reality [Ahead Of Schedule] - 03 - Angel Flummox.wav" WAVE TRACK 03 AUDIO TITLE "Angel Flummox" PERFORMER "The Red Paintings" INDEX 01 00:00:00 TRACK 04 AUDIO TITLE "Seeds" PERFORMER "The Red Paintings" INDEX 00 04:59:25FILE "The Red Paintings - Reality [Ahead Of Schedule] - 04 - Seeds.wav" WAVE INDEX 01 00:00:00

Лог проверки качества

-----------------------
DON'T MODIFY THIS FILE
-----------------------
PERFORMER: auCDtect Task Manager, ver. 1.5.1RC4 build 1.5.1.5Copyright (c) 2008-2010 y-soft. All rights reservedhttp://y-soft.org
ANALYZER: auCDtect: CD records authenticity detector, version 0.8.2Copyright (c) 2004 Oleg Berngardt. All rights reserved.Copyright (c) 2004 Alexander Djourik. All rights reserved.
FILE: The Red Paintings - Reality [Ahead Of Schedule] - 04 - Seeds.flac Size: 59915163 Hash: 262563D16B03404AFE25E4C283E6BE56 Accuracy: -m0 Conclusion: CDDA 100% Signature: 94770C9BCC2EBEB6C9846D3D9E65E7D668CAB363FILE: The Red Paintings - Reality [Ahead Of Schedule] - 03 - Angel Flummox.flac Size: 41731630 Hash: 07C6B8274694EB82EEAD009EA72B7175 Accuracy: -m0 Conclusion: CDDA 99% Signature: C5FA1391D121335363331DF1A122EB4BD929E606FILE: The Red Paintings - Reality [Ahead Of Schedule] - 02 - Insane Me.flac Size: 26100597 Hash: FD3E4E45C95AC723B33EF35F5AFA2998 Accuracy: -m0 Conclusion: CDDA 99% Signature: 4DE2BBC4811501B3196616CD3775A07EE13529BEFILE: The Red Paintings - Reality [Ahead Of Schedule] - 01 - Reality.flac Size: 37839580 Hash: 49E6C87484F115E084054DF20AD52193 Accuracy: -m0 Conclusion: CDDA 100% Signature: A0C5F10E9F50725D677D18CA6EB9F9C141E81219

2002 - Cinema Love (EP) - WEB [25:24]

Tracklist:
01. Cinema Love (2:03)
02. The Cell (3:08)
03. Stackhat (6:28)
04. The Chase (3:46)
05. Redneck (4:15)
06. Bottomless Pit (5:45)

Лог проверки качества

-----------------------
DON'T MODIFY THIS FILE
-----------------------
PERFORMER: auCDtect Task Manager, ver. 1.5.1RC4 build 1.5.1.5Copyright (c) 2008-2010 y-soft. All rights reservedhttp://y-soft.org
ANALYZER: auCDtect: CD records authenticity detector, version 0.8.2Copyright (c) 2004 Oleg Berngardt. All rights reserved.Copyright (c) 2004 Alexander Djourik. All rights reserved.
FILE: The Red Paintings - Cinema Love EP - 06 Bottomless Pit.flac Size: 32786260 Hash: C1A0D22228F0E4E17194BFCE0B72778A Accuracy: -m0 Conclusion: CDDA 99% Signature: A503DE1E80C61BFD8C76344466CDEE728E84A622FILE: The Red Paintings - Cinema Love EP - 05 Redneck.flac Size: 30656567 Hash: 7766D39C110523B988396DE21432C28E Accuracy: -m0 Conclusion: CDDA 100% Signature: F7611CC85609CD95F94DC7DE2CC56D2EFAA53BE8FILE: The Red Paintings - Cinema Love EP - 04 The Chase.flac Size: 27624977 Hash: B8D630AB3E3658D6490545A93D7B6F6B Accuracy: -m0 Conclusion: CDDA 100% Signature: 63B14F9ED86CA18B882E49281CB4B561D8ACC3F8FILE: The Red Paintings - Cinema Love EP - 03 Stackhat.flac Size: 43913301 Hash: C1BD9FF153C4B42BC6D343E52DE872EC Accuracy: -m0 Conclusion: CDDA 100% Signature: 705923A65B08767BA2AD3D9AAD75E6ABF2457A7FFILE: The Red Paintings - Cinema Love EP - 02 The Cell.flac Size: 19777688 Hash: FD1519FF1093E02C3FF55BA5C58FC06D Accuracy: -m0 Conclusion: CDDA 100% Signature: A6648DC0741F8DE4DCF56AD78B703453B5DCE0FFFILE: The Red Paintings - Cinema Love EP - 01 Cinema Love.flac Size: 13080207 Hash: F7B489A70740A377118B05352E332BC5 Accuracy: -m0 Conclusion: CDDA 100% Signature: 81261F77B8F4C84170DBCBBBDD1DC7828E232C9A

2004 - The Virgin Mary Australian Tour Acoustic - Strings Album (Your Tears Are Warning Signs) [47:53]

Tracklist:
01. 01 - Dead Children (6:05)
02. 02 - The World's About to End, Don't Forget to Wear Your Stackhat (5:50)
03. 03 - Redneck (3:32)
04. 04 - The Fall of Rome (6:52)
05. 05 - Cimema Love (2:59)
06. 06 - Your Tears Are Warning Signs (3:00)
07. 07 - Tables In Iceland (3:03)
08. 08 - Rain (Mothers Remix) (4:05)
09. 09 - The Revolution Is Never Coming (4:58)
10. 10 - The Cancer Song (3:31)
11. 11 - Bottomless Pit (3:57)

Лог создания рипа

Exact Audio Copy V0.99 prebeta 3 from 28. July 2007
EAC extraction logfile from 4. July 2009, 17:04
The Red Paintings / Your Tears Are Warning Signs
Used drive : HL-DT-STDVDRAM GSA-T50N Adapter: 1 ID: 0
Read mode : SecureUtilize accurate stream : YesDefeat audio cache : YesMake use of C2 pointers : No
Read offset correction : 667Overread into Lead-In and Lead-Out : NoFill up missing offset samples with silence : YesDelete leading and trailing silent blocks : NoNull samples used in CRC calculations : NoUsed interface : Native Win32 interface for Win NT & 2000Gap handling : Appended to previous track
Used output format : User Defined EncoderSelected bitrate : 768 kBit/sQuality : HighAdd ID3 tag : NoCommand line compressor : C:\Program Files (x86)\Exact Audio Copy\FLAC\FLAC.EXEAdditional command line options : -6 -V -T "ARTIST=%a" -T "TITLE=%t" -T "ALBUM=%g" -T "DATE=%y" -T "TRACKNUMBER=%n" -T "GENRE=%m" -T "COMMENT=%e" %s -o %d
TOC of the extracted CD
Track | Start | Length | Start sector | End sector --------------------------------------------------------- 1 | 0:00.00 | 6:05.35 | 0 | 27409 2 | 6:05.35 | 5:50.10 | 27410 | 53669 3 | 11:55.45 | 3:32.37 | 53670 | 69606 4 | 15:28.07 | 6:51.54 | 69607 | 100485 5 | 22:19.61 | 2:58.64 | 100486 | 113899 6 | 25:18.50 | 2:59.70 | 113900 | 127394 7 | 28:18.45 | 3:03.18 | 127395 | 141137 8 | 31:21.63 | 4:05.20 | 141138 | 159532 9 | 35:27.08 | 4:58.19 | 159533 | 181901 10 | 40:25.27 | 3:31.14 | 181902 | 197740 11 | 43:56.41 | 3:56.49 | 197741 | 215489
Track 1
Filename F:\Torrents\The Red Paintings\(2004) The Red Paintings - Your Tears Are Warning Signs [FLAC]\01 - Dead Children.wav
Pre-gap length 0:00:02.00
Peak level 99.9 % Track quality 100.0 % Test CRC AFFCA0A2 Copy CRC AFFCA0A2 Accurately ripped (confidence 2) [B5126A49] Copy OK
Track 2
Filename F:\Torrents\The Red Paintings\(2004) The Red Paintings - Your Tears Are Warning Signs [FLAC]\02 - The World's About to End, Don't Forget to Wear Your Stackhat.wav
Peak level 99.9 % Track quality 100.0 % Test CRC A18E7801 Copy CRC A18E7801 Accurately ripped (confidence 2) [B2A8327D] Copy OK
Track 3
Filename F:\Torrents\The Red Paintings\(2004) The Red Paintings - Your Tears Are Warning Signs [FLAC]\03 - Redneck.wav
Peak level 99.9 % Track quality 99.9 % Test CRC 70B6AC34 Copy CRC 70B6AC34 Accurately ripped (confidence 2) [B654659A] Copy OK
Track 4
Filename F:\Torrents\The Red Paintings\(2004) The Red Paintings - Your Tears Are Warning Signs [FLAC]\04 - The Fall of Rome.wav
Peak level 99.9 % Track quality 100.0 % Test CRC 1E261989 Copy CRC 1E261989 Accurately ripped (confidence 2) [C00C57DE] Copy OK
Track 5
Filename F:\Torrents\The Red Paintings\(2004) The Red Paintings - Your Tears Are Warning Signs [FLAC]\05 - Cimema Love.wav
Peak level 99.9 % Track quality 100.0 % Test CRC AC7E87CD Copy CRC AC7E87CD Accurately ripped (confidence 2) [188E72B1] Copy OK
Track 6
Filename F:\Torrents\The Red Paintings\(2004) The Red Paintings - Your Tears Are Warning Signs [FLAC]\06 - Your Tears Are Warning Signs.wav
Peak level 99.9 % Track quality 100.0 % Test CRC 9D2F1104 Copy CRC 9D2F1104 Accurately ripped (confidence 2) [D58B16DA] Copy OK
Track 7
Filename F:\Torrents\The Red Paintings\(2004) The Red Paintings - Your Tears Are Warning Signs [FLAC]\07 - Tables In Iceland.wav
Peak level 99.9 % Track quality 100.0 % Test CRC 74B62E8D Copy CRC 74B62E8D Accurately ripped (confidence 2) [1F340D67] Copy OK
Track 8
Filename F:\Torrents\The Red Paintings\(2004) The Red Paintings - Your Tears Are Warning Signs [FLAC]\08 - Rain (Mothers Remix).wav
Peak level 99.9 % Track quality 100.0 % Test CRC ABD665A6 Copy CRC ABD665A6 Accurately ripped (confidence 2) [44D699B7] Copy OK
Track 9
Filename F:\Torrents\The Red Paintings\(2004) The Red Paintings - Your Tears Are Warning Signs [FLAC]\09 - The Revolution Is Never Coming.wav
Peak level 99.9 % Track quality 100.0 % Test CRC 327B01F5 Copy CRC 327B01F5 Accurately ripped (confidence 2) [D5660725] Copy OK
Track 10
Filename F:\Torrents\The Red Paintings\(2004) The Red Paintings - Your Tears Are Warning Signs [FLAC]\10 - The Cancer Song.wav
Peak level 99.9 % Track quality 99.9 % Test CRC 81C36093 Copy CRC 81C36093 Accurately ripped (confidence 2) [ADE915DA] Copy OK
Track 11
Filename F:\Torrents\The Red Paintings\(2004) The Red Paintings - Your Tears Are Warning Signs [FLAC]\11 - Bottomless Pit.wav
Peak level 99.0 % Track quality 100.0 % Test CRC 2067CD47 Copy CRC 2067CD47 Accurately ripped (confidence 2) [1F0CB726] Copy OK
All tracks accurately ripped
No errors occurred
End of status report

Содержание индексной карты (.CUE)

REM GENRE AlternativeREM DATE 2004REM DISCID 8A0B390BREM COMMENT "ExactAudioCopy v0.99pb3"PERFORMER "The Red Paintings"TITLE "Your Tears Are Warning Signs"FILE "01 - Dead Children.wav" WAVE TRACK 01 AUDIO TITLE "01 - Dead Children" PERFORMER "The Red Paintings" INDEX 01 00:00:00FILE "02 - The World's About to End, Don't Forget to Wear Your Stackhat.wav" WAVE TRACK 02 AUDIO TITLE "02 - The World's About to End, Don't Forget to Wear Your Stackhat" PERFORMER "The Red Paintings" INDEX 01 00:00:00FILE "03 - Redneck.wav" WAVE TRACK 03 AUDIO TITLE "03 - Redneck" PERFORMER "The Red Paintings" INDEX 01 00:00:00FILE "04 - The Fall of Rome.wav" WAVE TRACK 04 AUDIO TITLE "04 - The Fall of Rome" PERFORMER "The Red Paintings" INDEX 01 00:00:00FILE "05 - Cimema Love.wav" WAVE TRACK 05 AUDIO TITLE "05 - Cimema Love" PERFORMER "The Red Paintings" INDEX 01 00:00:00FILE "06 - Your Tears Are Warning Signs.wav" WAVE TRACK 06 AUDIO TITLE "06 - Your Tears Are Warning Signs" PERFORMER "The Red Paintings" INDEX 01 00:00:00FILE "07 - Tables In Iceland.wav" WAVE TRACK 07 AUDIO TITLE "07 - Tables In Iceland" PERFORMER "The Red Paintings" INDEX 01 00:00:00FILE "08 - Rain (Mothers Remix).wav" WAVE TRACK 08 AUDIO TITLE "08 - Rain (Mothers Remix)" PERFORMER "The Red Paintings" INDEX 01 00:00:00FILE "09 - The Revolution Is Never Coming.wav" WAVE TRACK 09 AUDIO TITLE "09 - The Revolution Is Never Coming" PERFORMER "The Red Paintings" INDEX 01 00:00:00FILE "10 - The Cancer Song.wav" WAVE TRACK 10 AUDIO TITLE "10 - The Cancer Song" PERFORMER "The Red Paintings" INDEX 01 00:00:00FILE "11 - Bottomless Pit.wav" WAVE TRACK 11 AUDIO TITLE "11 - Bottomless Pit" PERFORMER "The Red Paintings" INDEX 01 00:00:00

Лог проверки качества

-----------------------
DON'T MODIFY THIS FILE
-----------------------
PERFORMER: auCDtect Task Manager, ver. 1.5.1RC4 build 1.5.1.5Copyright (c) 2008-2010 y-soft. All rights reservedhttp://y-soft.org
ANALYZER: auCDtect: CD records authenticity detector, version 0.8.2Copyright (c) 2004 Oleg Berngardt. All rights reserved.Copyright (c) 2004 Alexander Djourik. All rights reserved.
FILE: 11 - Bottomless Pit.flac Size: 19657545 Hash: 5EB72E5FF0231385E76EC7506B804A89 Accuracy: -m0 Conclusion: CDDA 100% Signature: EBD2917D08533D54C39BAD719745B2E074717393FILE: 10 - The Cancer Song.flac Size: 21973304 Hash: 47EF5B68B6E1A56D3EF4B088CC2C8AC6 Accuracy: -m0 Conclusion: CDDA 100% Signature: 45DF7C76F523777F719219DBFC7EB2DB8B815022FILE: 09 - The Revolution Is Never Coming.flac Size: 29238387 Hash: 9A831BD440393E66966CECC44E0278C2 Accuracy: -m0 Conclusion: CDDA 99% Signature: 5B7C8A139C5CD176C37D42D4EEC814BEA45D196BFILE: 08 - Rain (Mothers Remix).flac Size: 24017229 Hash: 88375DAFE49D0E5EDE37BB8D47F45806 Accuracy: -m0 Conclusion: CDDA 100% Signature: 05D7B76E3D154A1B4A759374BFA0D0211342505BFILE: 07 - Tables In Iceland.flac Size: 16319343 Hash: 4FC4AFE36D805BB19BAF34C7C12CB50B Accuracy: -m0 Conclusion: CDDA 99% Signature: 068051F9318A22D4AB52174BA54E35621AFE910AFILE: 06 - Your Tears Are Warning Signs.flac Size: 16811803 Hash: BCB92F39059C80A1343ED6D76AC5A83F Accuracy: -m0 Conclusion: CDDA 100% Signature: 9EB75E1F69F41E4576DA38859B1AC65E1D711445FILE: 05 - Cimema Love.flac Size: 18324936 Hash: DE2A23CF6DACD6D827A8324B30B7EDB3 Accuracy: -m0 Conclusion: CDDA 100% Signature: B3AFB22B56CDF383F6B2D6B69E4A3F58457D3D08FILE: 04 - The Fall of Rome.flac Size: 41508921 Hash: 6EF3370295049ADD97C11367CE876978 Accuracy: -m0 Conclusion: CDDA 100% Signature: FA5AC454547357ECE47C8C4E683519EB55829877FILE: 03 - Redneck.flac Size: 21170931 Hash: 6B4E153386768996E00FD14149CF898E Accuracy: -m0 Conclusion: CDDA 100% Signature: 152D7109927484F55101F1531FDD01FD3B4C71E3FILE: 02 - The World's About to End, Don't Forget to Wear Your Stackhat.flac Size: 34762418 Hash: DF77FA7799010B669774AF73654AAFD9 Accuracy: -m0 Conclusion: CDDA 100% Signature: 2B724A45F7CF06E29CFC9297DB9AC3C02F37CDECFILE: 01 - Dead Children.flac Size: 34334854 Hash: 6148DFAB1C23C45DFB7973598A69EAAA Accuracy: -m0 Conclusion: CDDA 100% Signature: FDFF26ACD5777B4E0B6BD14D45F540D7F9560D5D

2005 - Rain (EP) [16:00]

Tracklist:
01. Rain (4:06)
02. The Cancer Song (3:32)
03. Just People & Leaves (4:18)
04. Rain (Mothers Remix) (4:03)

Лог создания рипа

Exact Audio Copy V1.0 beta 3 from 29. August 2011
EAC extraction logfile from 12. February 2012, 21:07
The Red Paintings / Rain
Used drive : TSSTcorpDVD+-RW TS-L632H Adapter: 0 ID: 0
Read mode : SecureUtilize accurate stream : YesDefeat audio cache : YesMake use of C2 pointers : No
Read offset correction : 6Overread into Lead-In and Lead-Out : NoFill up missing offset samples with silence : YesDelete leading and trailing silent blocks : NoNull samples used in CRC calculations : YesUsed interface : Native Win32 interface for Win NT & 2000Gap handling : Appended to previous track
Used output format : User Defined EncoderSelected bitrate : 1024 kBit/sQuality : HighAdd ID3 tag : NoCommand line compressor : C:\Program Files (x86)\FLAC\flac.exeAdditional command line options : -8 -V -T "ARTIST=%artist%" -T "TITLE=%title%" -T "ALBUM=%albumtitle%" -T "DATE=%year%" -T "TRACKNUMBER=%tracknr%" -T "GENRE=%genre%" -T "PERFORMER=%albuminterpret%" -T "COMPOSER=%composer%" %haslyrics%--tag-from-file=LYRICS="%lyricsfile%"%haslyrics% -T "ALBUMARTIST=%albumartist%" -T "DISCNUMBER=%cdnumber%" -T "TOTALDISCS=%totalcds%" -T "TOTALTRACKS=%numtracks%" -T "COMMENT=%comment%" %source% -o %dest%
TOC of the extracted CD
Track | Start | Length | Start sector | End sector --------------------------------------------------------- 1 | 0:00.00 | 4:06.30 | 0 | 18479 2 | 4:06.30 | 3:32.00 | 18480 | 34379 3 | 7:38.30 | 4:18.36 | 34380 | 53765 4 | 11:56.66 | 4:03.23 | 53766 | 72013
Track 1
Filename G:\Music\EACRips\New Rips\01 - Rain.wav
Pre-gap length 0:00:02.00
Peak level 91.1 % Extraction speed 2.6 X Track quality 100.0 % Test CRC 47ED2617 Copy CRC 47ED2617 Accurately ripped (confidence 3) [6938D2B8] (AR v1) Copy OK
Track 2
Filename G:\Music\EACRips\New Rips\02 - The Cancer Song.wav
Peak level 91.1 % Extraction speed 2.7 X Track quality 100.0 % Test CRC 91B23C10 Copy CRC 91B23C10 Accurately ripped (confidence 3) [FEEFA8D2] (AR v1) Copy OK
Track 3
Filename G:\Music\EACRips\New Rips\03 - Just People & Leaves.wav
Peak level 91.1 % Extraction speed 3.0 X Track quality 100.0 % Test CRC 6A0602A4 Copy CRC 6A0602A4 Accurately ripped (confidence 3) [7F109CCB] (AR v1) Copy OK
Track 4
Filename G:\Music\EACRips\New Rips\04 - Rain (Mothers Remix).wav
Peak level 91.1 % Extraction speed 3.2 X Track quality 100.0 % Test CRC 2665DFA5 Copy CRC 2665DFA5 Accurately ripped (confidence 3) [1B500F78] (AR v1) Copy OK
All tracks accurately ripped
No errors occurred
End of status report
==== Log checksum 5324CCC198299312A259B2F55011652059C6124A32EF0B304D8C30BCE8F9D3BF ====

Содержание индексной карты (.CUE)

REM GENRE "Art Rock"REM DATE 2005REM DISCID 2A03C004REM COMMENT "ExactAudioCopy v1.0b3"PERFORMER "The Red Paintings"TITLE "Rain"FILE "01 - Rain.wav" WAVE TRACK 01 AUDIO TITLE "Rain" PERFORMER "The Red Paintings" ISRC DPPDD0000000 INDEX 01 00:00:00FILE "02 - The Cancer Song.wav" WAVE TRACK 02 AUDIO TITLE "The Cancer Song" PERFORMER "The Red Paintings" ISRC DPPDD0000000 INDEX 01 00:00:00FILE "03 - Just People & Leaves.wav" WAVE TRACK 03 AUDIO TITLE "Just People & Leaves" PERFORMER "The Red Paintings" ISRC DPPDD0000000 INDEX 01 00:00:00FILE "04 - Rain (Mothers Remix).wav" WAVE TRACK 04 AUDIO TITLE "Rain (Mothers Remix)" PERFORMER "The Red Paintings" ISRC DPPDD0000000 INDEX 01 00:00:00

Лог проверки качества

-----------------------
DON'T MODIFY THIS FILE
-----------------------
PERFORMER: auCDtect Task Manager, ver. 1.5.1RC4 build 1.5.1.5Copyright (c) 2008-2010 y-soft. All rights reservedhttp://y-soft.org
ANALYZER: auCDtect: CD records authenticity detector, version 0.8.2Copyright (c) 2004 Oleg Berngardt. All rights reserved.Copyright (c) 2004 Alexander Djourik. All rights reserved.
FILE: 04 - Rain (Mothers Remix).flac Size: 25003975 Hash: 85572E3456172620279EAD2359BA6EBC Accuracy: -m0 Conclusion: CDDA 100% Signature: 326A9968BA6DE226084EFE96E88AD87118A8EAABFILE: 03 - Just People & Leaves.flac Size: 26942481 Hash: 40721836F696A1013C746807DF875979 Accuracy: -m0 Conclusion: CDDA 100% Signature: F081FE1406173C352E60BC4B1029D4D3FBF21A90FILE: 02 - The Cancer Song.flac Size: 24325825 Hash: E40ECFA0A18C4403788BBE12E18A6158 Accuracy: -m0 Conclusion: CDDA 100% Signature: D3B744DB6ABB46BC09B2E430A51B666E80373A63FILE: 01 - Rain.flac Size: 27163081 Hash: C648F27C78967A064985BDC0C5D23323 Accuracy: -m0 Conclusion: CDDA 100% Signature: 2675254667BA8E3879502D524DEC3D7AA551FCCF

2006 - Destroy The Robots (EP) [23:52]

Tracklist:
01. Destroy The Robots (3:42)
02. Pickles (3:50)
03. It Is As It Was (5:09)
04. I'll Sell You Suicide (3:08)
05. Futureless (2:47)
06. Destroy The Humans (5:16)

Лог создания рипа

Exact Audio Copy V0.99 prebeta 4 from 23. January 2008
EAC extraction logfile from 18. April 2009, 16:47
The Red Paintings / Destroy The Robots
Used drive : PIONEER DVD-RW DVR-110D Adapter: 5 ID: 0
Read mode : SecureUtilize accurate stream : YesDefeat audio cache : YesMake use of C2 pointers : No
Read offset correction : 48Overread into Lead-In and Lead-Out : NoFill up missing offset samples with silence : YesDelete leading and trailing silent blocks : NoNull samples used in CRC calculations : YesUsed interface : Native Win32 interface for Win NT & 2000Gap handling : Appended to previous track
Used output format : User Defined EncoderSelected bitrate : 128 kBit/sQuality : HighAdd ID3 tag : NoCommand line compressor : C:\Program Files\Exact Audio Copy\Flac\flac.exeAdditional command line options : -V -8 -T "artist=%a" -T "title=%t" -T "album=%g" -T "date=%y" -T "tracknumber=%n" -T "genre=%m" %s
TOC of the extracted CD
Track | Start | Length | Start sector | End sector --------------------------------------------------------- 1 | 0:00.00 | 3:41.67 | 0 | 16641 2 | 3:41.67 | 3:50.29 | 16642 | 33920 3 | 7:32.21 | 5:08.65 | 33921 | 57085 4 | 12:41.11 | 3:07.56 | 57086 | 71166 5 | 15:48.67 | 2:46.70 | 71167 | 83686 6 | 18:35.62 | 5:15.74 | 83687 | 107385
Track 1
Filename C:\EAC Rips\The Red Paintings\Destroy The Robots\01 - Destroy The Robots.wav
Pre-gap length 0:00:02.00
Peak level 95.9 % Track quality 100.0 % Test CRC CC6AE6FE Copy CRC CC6AE6FE Track not present in AccurateRip database Copy OK
Track 2
Filename C:\EAC Rips\The Red Paintings\Destroy The Robots\02 - Pickles.wav
Pre-gap length 0:00:01.22
Peak level 95.9 % Track quality 100.0 % Test CRC 43F7B72D Copy CRC 43F7B72D Track not present in AccurateRip database Copy OK
Track 3
Filename C:\EAC Rips\The Red Paintings\Destroy The Robots\03 - It Is As It Was.wav
Pre-gap length 0:00:01.27
Peak level 95.9 % Track quality 100.0 % Test CRC 44EBA75C Copy CRC 44EBA75C Track not present in AccurateRip database Copy OK
Track 4
Filename C:\EAC Rips\The Red Paintings\Destroy The Robots\04 - I'll Sell You Suicide.wav
Pre-gap length 0:00:01.01
Peak level 96.0 % Track quality 100.0 % Test CRC AFE9FEDD Copy CRC AFE9FEDD Track not present in AccurateRip database Copy OK
Track 5
Filename C:\EAC Rips\The Red Paintings\Destroy The Robots\05 - Futureless.wav
Peak level 96.0 % Track quality 100.0 % Test CRC 2D53C17E Copy CRC 2D53C17E Track not present in AccurateRip database Copy OK
Track 6
Filename C:\EAC Rips\The Red Paintings\Destroy The Robots\06 - Destroy The Humans.wav
Peak level 99.9 % Track quality 100.0 % Test CRC BC2CA3BA Copy CRC BC2CA3BA Track not present in AccurateRip database Copy OK
None of the tracks are present in the AccurateRip database
No errors occurred
End of status report

Содержание индексной карты (.CUE)

REM GENRE AlternativeREM DATE 2006REM DISCID 3E059706REM COMMENT "ExactAudioCopy v0.99pb4"PERFORMER "The Red Paintings"TITLE "Destroy The Robots"FILE "The Red Paintings\Destroy The Robots\01 - Destroy The Robots.wav" WAVE TRACK 01 AUDIO TITLE "Destroy The Robots" PERFORMER "The Red Paintings" INDEX 01 00:00:00 TRACK 02 AUDIO TITLE "Pickles" PERFORMER "The Red Paintings" INDEX 00 03:40:45FILE "The Red Paintings\Destroy The Robots\02 - Pickles.wav" WAVE INDEX 01 00:00:00 TRACK 03 AUDIO TITLE "It Is As It Was" PERFORMER "The Red Paintings" INDEX 00 03:49:02FILE "The Red Paintings\Destroy The Robots\03 - It Is As It Was.wav" WAVE INDEX 01 00:00:00 TRACK 04 AUDIO TITLE "I'll Sell You Suicide" PERFORMER "The Red Paintings" INDEX 00 05:07:64FILE "The Red Paintings\Destroy The Robots\04 - I'll Sell You Suicide.wav" WAVE INDEX 01 00:00:00FILE "The Red Paintings\Destroy The Robots\05 - Futureless.wav" WAVE TRACK 05 AUDIO TITLE "Futureless" PERFORMER "The Red Paintings" INDEX 01 00:00:00FILE "The Red Paintings\Destroy The Robots\06 - Destroy The Humans.wav" WAVE TRACK 06 AUDIO TITLE "Destroy The Humans" PERFORMER "The Red Paintings" INDEX 01 00:00:00 INDEX 02 03:32:44

Лог проверки качества

-----------------------
DON'T MODIFY THIS FILE
-----------------------
PERFORMER: auCDtect Task Manager, ver. 1.5.1RC4 build 1.5.1.5Copyright (c) 2008-2010 y-soft. All rights reservedhttp://y-soft.org
ANALYZER: auCDtect: CD records authenticity detector, version 0.8.2Copyright (c) 2004 Oleg Berngardt. All rights reserved.Copyright (c) 2004 Alexander Djourik. All rights reserved.
FILE: 06 - Destroy The Humans.flac Size: 7040371 Hash: 65CB01FF87DF0CDC45F62BD7EC5AA12A Accuracy: -m0 Conclusion: MPEG 100% Signature: 4F9180368AE04B22E986EFF10DDB1450AB0CD00BFILE: 05 - Futureless.flac Size: 19217597 Hash: 55718D9D4FBC3C9A247D13A2CBA08792 Accuracy: -m0 Conclusion: CDDA 100% Signature: 71AA211546DB830C7D6010EC7110E1D238EF4B4CFILE: 04 - I'll Sell You Suicide.flac Size: 25857884 Hash: 724D2ECD16EFEA813130823724A70193 Accuracy: -m0 Conclusion: CDDA 99% Signature: 21C9B1E07BC8B2D4952CF37D696FE5E5FB54D7FDFILE: 03 - It Is As It Was.flac Size: 37137499 Hash: DE7C00EBF2D4C3F035C7D950F5214876 Accuracy: -m0 Conclusion: CDDA 100% Signature: B13435BF090F2C9C956FF21E2FCB8087055D7A3AFILE: 02 - Pickles.flac Size: 29674189 Hash: 0475C6B71D3FADFED8F29F4EBA02EED2 Accuracy: -m0 Conclusion: CDDA 100% Signature: 9FD97F304545782689B034AA00343826BD47A04FFILE: 01 - Destroy The Robots.flac Size: 27827814 Hash: 7F7523218E54E5E657A45EC1A7EC7773 Accuracy: -m0 Conclusion: CDDA 100% Signature: 80E78F25C2EFB660676B22B804D193E931588615

2006 - Walls (EP) [34:10]

Tracklist:
01. Walls (3:04)
02. The Streets Fell Into My Window (5:38)
03. Dead Adults (7:03)
04. Mad World (4:53)
05. Portrait Of A Dead Soul (4:28)
06. Walls (Alternate Ending) (4:22)
07. Signals From The Frontier (4:42)

Лог создания рипа

Exact Audio Copy V0.99 prebeta 4 from 23. January 2008
EAC extraction logfile from 26. December 2008, 22:08
The Red Paintings / Walls
Used drive : ASUS DRW-20B1LT Adapter: 3 ID: 2
Read mode : SecureUtilize accurate stream : YesDefeat audio cache : YesMake use of C2 pointers : No
Read offset correction : 6Overread into Lead-In and Lead-Out : NoFill up missing offset samples with silence : YesDelete leading and trailing silent blocks : NoNull samples used in CRC calculations : YesUsed interface : Native Win32 interface for Win NT & 2000Gap handling : Appended to previous track
Used output format : User Defined EncoderSelected bitrate : 192 kBit/sQuality : HighAdd ID3 tag : NoCommand line compressor : C:\Program Files\FLAC\flac.exeAdditional command line options : -V -8 -T "artist=%a" -T "title=%t" -T "album=%g" -T "date=%y" -T "tracknumber=%n" -T "genre=%m" %s
TOC of the extracted CD
Track | Start | Length | Start sector | End sector --------------------------------------------------------- 1 | 0:00.00 | 3:04.03 | 0 | 13802 2 | 3:04.03 | 5:38.15 | 13803 | 39167 3 | 8:42.18 | 7:02.56 | 39168 | 70873 4 | 15:44.74 | 4:52.54 | 70874 | 92827 5 | 20:37.53 | 4:28.01 | 92828 | 112928 6 | 25:05.54 | 4:22.34 | 112929 | 132612 7 | 29:28.13 | 4:41.72 | 132613 | 153759
Track 1
Filename L:\CD Audio\The Red Paintings - Walls\The Red Paintings - Walls - 01 - Walls.wav
Pre-gap length 0:00:02.00
Peak level 98.8 % Track quality 100.0 % Test CRC 82442B97 Copy CRC 82442B97 Copy OK
Track 2
Filename L:\CD Audio\The Red Paintings - Walls\The Red Paintings - Walls - 02 - The Streets Fell Into My Window.wav
Pre-gap length 0:00:02.07
Peak level 98.8 % Track quality 100.0 % Test CRC F93765E1 Copy CRC F93765E1 Copy OK
Track 3
Filename L:\CD Audio\The Red Paintings - Walls\The Red Paintings - Walls - 03 - Dead Adults.wav
Pre-gap length 0:00:00.74
Peak level 98.8 % Track quality 100.0 % Test CRC 6C4F1264 Copy CRC 6C4F1264 Copy OK
Track 4
Filename L:\CD Audio\The Red Paintings - Walls\The Red Paintings - Walls - 04 - Mad World.wav
Pre-gap length 0:00:01.50
Peak level 81.5 % Track quality 100.0 % Test CRC 53FA79B0 Copy CRC 53FA79B0 Copy OK
Track 5
Filename L:\CD Audio\The Red Paintings - Walls\The Red Paintings - Walls - 05 - Portrait Of A Dead Soul.wav
Pre-gap length 0:00:02.59
Peak level 86.9 % Track quality 100.0 % Test CRC 155E7576 Copy CRC 155E7576 Copy OK
Track 6
Filename L:\CD Audio\The Red Paintings - Walls\The Red Paintings - Walls - 06 - Walls (Alternate Ending).wav
Pre-gap length 0:00:01.47
Peak level 98.8 % Track quality 100.0 % Test CRC 6C944537 Copy CRC 6C944537 Copy OK
Track 7
Filename L:\CD Audio\The Red Paintings - Walls\The Red Paintings - Walls - 07 - Signals From The Frontier.wav
Pre-gap length 0:00:13.07
Peak level 99.8 % Track quality 100.0 % Test CRC 07A75A5A Copy CRC 07A75A5A Copy OK
No errors occurred
End of status report

Содержание индексной карты (.CUE)

REM GENRE "Progressive Rock"REM DATE 2005REM DISCID 5A080207REM COMMENT "ExactAudioCopy v0.99pb4"PERFORMER "The Red Paintings"TITLE "Walls"FILE "The Red Paintings - Walls - 01 - Walls.wav" WAVE TRACK 01 AUDIO TITLE "Walls" PERFORMER "The Red Paintings" FLAGS DCP INDEX 01 00:00:00 TRACK 02 AUDIO TITLE "The Streets Fell Into My Window" PERFORMER "The Red Paintings" FLAGS DCP INDEX 00 03:01:71FILE "The Red Paintings - Walls - 02 - The Streets Fell Into My Window.wav" WAVE INDEX 01 00:00:00 TRACK 03 AUDIO TITLE "Dead Adults" PERFORMER "The Red Paintings" FLAGS DCP INDEX 00 05:37:16FILE "The Red Paintings - Walls - 03 - Dead Adults.wav" WAVE INDEX 01 00:00:00 TRACK 04 AUDIO TITLE "Mad World" PERFORMER "The Red Paintings" FLAGS DCP INDEX 00 07:01:06FILE "The Red Paintings - Walls - 04 - Mad World.wav" WAVE INDEX 01 00:00:00 TRACK 05 AUDIO TITLE "Portrait Of A Dead Soul" PERFORMER "The Red Paintings" FLAGS DCP INDEX 00 04:49:70FILE "The Red Paintings - Walls - 05 - Portrait Of A Dead Soul.wav" WAVE INDEX 01 00:00:00 TRACK 06 AUDIO TITLE "Walls (Alternate Ending)" PERFORMER "The Red Paintings" FLAGS DCP INDEX 00 04:26:29FILE "The Red Paintings - Walls - 06 - Walls (Alternate Ending).wav" WAVE INDEX 01 00:00:00 TRACK 07 AUDIO TITLE "Signals From The Frontier" PERFORMER "The Red Paintings" FLAGS DCP INDEX 00 04:09:27FILE "The Red Paintings - Walls - 07 - Signals From The Frontier.wav" WAVE INDEX 01 00:00:00

Лог проверки качества

-----------------------
DON'T MODIFY THIS FILE
-----------------------
PERFORMER: auCDtect Task Manager, ver. 1.5.1RC4 build 1.5.1.5Copyright (c) 2008-2010 y-soft. All rights reservedhttp://y-soft.org
ANALYZER: auCDtect: CD records authenticity detector, version 0.8.2Copyright (c) 2004 Oleg Berngardt. All rights reserved.Copyright (c) 2004 Alexander Djourik. All rights reserved.
FILE: The Red Paintings - Walls - 07 - Signals From The Frontier.flac Size: 26165122 Hash: 1D2482A6F029325FBF48F2081544EB82 Accuracy: -m0 Conclusion: CDDA 100% Signature: 4149CD84C92D60E9B0A0413DDA076C4989A5EBE7FILE: The Red Paintings - Walls - 06 - Walls (Alternate Ending).flac Size: 30197948 Hash: 53D7FA9D4DFCAFFC4B2B956700D5B5F0 Accuracy: -m0 Conclusion: CDDA 99% Signature: 151AD56F9CD8B7E19E1F331E006ECC8AD0B9862DFILE: The Red Paintings - Walls - 05 - Portrait Of A Dead Soul.flac Size: 29718639 Hash: AD84E671CDDF840EF524814A0FD4A928 Accuracy: -m0 Conclusion: CDDA 100% Signature: 7434757FAE3E2035065463BF1457FBC0C374FB89FILE: The Red Paintings - Walls - 04 - Mad World.flac Size: 32529125 Hash: 7BFAB8D551FC42FBDEFE3914B9E823C3 Accuracy: -m0 Conclusion: CDDA 100% Signature: 88FE83765883D229CBAAC76CF7BFF917E5B7B043FILE: The Red Paintings - Walls - 03 - Dead Adults.flac Size: 38967176 Hash: 1EAEF08487B421B616825CD67B986E3C Accuracy: -m0 Conclusion: CDDA 99% Signature: A2FD08272ACE9FE245495E8D933DF2D0D10C08C3FILE: The Red Paintings - Walls - 02 - The Streets Fell Into My Window.flac Size: 36909213 Hash: C9F563B0DE2A369E67265E8B600968A0 Accuracy: -m0 Conclusion: CDDA 100% Signature: 2DC43BC1870B19DEB0D89448BAB33A0E13334556FILE: The Red Paintings - Walls - 01 - Walls.flac Size: 21354388 Hash: D790ED9C2231E1903D3497E79D6350C3 Accuracy: -m0 Conclusion: CDDA 100% Signature: D874E14ACC4B38F003BFB6C716EA99DA7E3CE1CA

2007 - Feed The Wolf (EP) [37:01]

Tracklist:
01. Feed the Wolf (5:33)
02. Sing (5:23)
03. We Belong in the Sea (3:46)
04. Mercy Seat (5:23)
05. Feed The Wolf (radio edit) (3:54)
06. Destroy the Humans (13:03)

Лог создания рипа

Exact Audio Copy V1.0 beta 1 from 15. November 2010
EAC extraction logfile from 21. April 2011, 20:24
The Red Paintings / Feed the Wolf
Used drive : TSSTcorpCDDVDW TS-L633L Adapter: 1 ID: 0
Read mode : SecureUtilize accurate stream : YesDefeat audio cache : YesMake use of C2 pointers : No
Read offset correction : 6Overread into Lead-In and Lead-Out : NoFill up missing offset samples with silence : YesDelete leading and trailing silent blocks : NoNull samples used in CRC calculations : YesUsed interface : Native Win32 interface for Win NT & 2000Gap handling : Appended to previous track
Used output format : User Defined EncoderSelected bitrate : 320 kBit/sQuality : HighAdd ID3 tag : NoCommand line compressor : C:\Program Files\Exact Audio Copy\Flac\flac.exeAdditional command line options : -V -8 -T "artist=%a" -T "title=%t" -T "album=%g" -T "date=%y" -T "tracknumber=%n" -T "genre=%m" %s
TOC of the extracted CD
Track | Start | Length | Start sector | End sector --------------------------------------------------------- 1 | 0:00.00 | 5:33.14 | 0 | 24988 2 | 5:33.14 | 5:22.45 | 24989 | 49183 3 | 10:55.59 | 3:46.11 | 49184 | 66144 4 | 14:41.70 | 5:22.41 | 66145 | 90335 5 | 20:04.36 | 3:54.33 | 90336 | 107918 6 | 23:58.69 | 13:02.41 | 107919 | 166609
Track 1
Filename C:\Program Files\Exact Audio Copy\EACRips\The Red Paintings - Feed the Wolf 01.wav
Pre-gap length 0:00:02.00
Peak level 100.0 % Extraction speed 2.3 X Track quality 100.0 % Test CRC 344C8DA9 Copy CRC 344C8DA9 Accurately ripped (confidence 3) [602A8B3D] Copy OK
Track 2
Filename C:\Program Files\Exact Audio Copy\EACRips\The Red Paintings - Sing 02.wav
Peak level 100.0 % Extraction speed 2.6 X Track quality 100.0 % Test CRC 919F2150 Copy CRC 919F2150 Accurately ripped (confidence 3) [B06A4A43] Copy OK
Track 3
Filename C:\Program Files\Exact Audio Copy\EACRips\The Red Paintings - We Belong in the Sea 03.wav
Pre-gap length 0:05:22.60
Peak level 100.0 % Extraction speed 2.2 X Track quality 99.9 % Test CRC 16A02727 Copy CRC 16A02727 Accurately ripped (confidence 3) [56E08946] Copy OK
Track 4
Filename C:\Program Files\Exact Audio Copy\EACRips\The Red Paintings - Mercy Seat 04.wav
Pre-gap length 0:09:08.74
Peak level 100.0 % Extraction speed 3.1 X Track quality 100.0 % Test CRC 9D742FC5 Copy CRC 9D742FC5 Accurately ripped (confidence 3) [191C441E] Copy OK
Track 5
Filename C:\Program Files\Exact Audio Copy\EACRips\The Red Paintings - Feed The Wolf (radio edit) 05.wav
Pre-gap length 0:14:31.29
Peak level 100.0 % Extraction speed 2.6 X Track quality 99.9 % Test CRC 63361C46 Copy CRC 63361C46 Accurately ripped (confidence 3) [37C5CEAA] Copy OK
Track 6
Filename C:\Program Files\Exact Audio Copy\EACRips\The Red Paintings - Destroy the Humans 06.wav
Pre-gap length 0:18:25.73
Peak level 100.0 % Extraction speed 3.9 X Track quality 100.0 % Test CRC CE6F2A7D Copy CRC CE6F2A7D Accurately ripped (confidence 3) [C2F729CC] Copy OK
All tracks accurately ripped
No errors occurred
End of status report
==== Log checksum 1A2E2E84E48608F27812EF2BA98D1680BCE4FE2DACE3B8D7FA12F2F268759D4E ====

Содержание индексной карты (.CUE)

REM GENRE "Alternative Rock"REM DATE 2007REM DISCID 4408AD06REM COMMENT "ExactAudioCopy v1.0b1"FILE "The Red Paintings - Feed the Wolf 01.wav" WAVE TRACK 01 AUDIO FLAGS DCP INDEX 01 00:00:00FILE "The Red Paintings - Sing 02.wav" WAVE TRACK 02 AUDIO FLAGS DCP INDEX 01 00:00:00 TRACK 03 AUDIO FLAGS DCP INDEX 00 00:00:00FILE "The Red Paintings - We Belong in the Sea 03.wav" WAVE INDEX 01 00:00:00 TRACK 04 AUDIO FLAGS DCP INDEX 00 05:38:30FILE "The Red Paintings - Mercy Seat 04.wav" WAVE INDEX 01 00:00:00 TRACK 05 AUDIO FLAGS DCP INDEX 00 01:52:19FILE "The Red Paintings - Feed The Wolf (radio edit) 05.wav" WAVE INDEX 01 00:00:00 TRACK 06 AUDIO FLAGS DCP INDEX 00 96:29:53FILE "The Red Paintings - Destroy the Humans 06.wav" WAVE INDEX 01 00:00:00

Лог проверки качества

-----------------------
DON'T MODIFY THIS FILE
-----------------------
PERFORMER: auCDtect Task Manager, ver. 1.5.1RC4 build 1.5.1.5Copyright (c) 2008-2010 y-soft. All rights reservedhttp://y-soft.org
ANALYZER: auCDtect: CD records authenticity detector, version 0.8.2Copyright (c) 2004 Oleg Berngardt. All rights reserved.Copyright (c) 2004 Alexander Djourik. All rights reserved.
FILE: The Red Paintings - We Belong in the Sea 03.flac Size: 21614191 Hash: BC8488173EAC00E8B8D074CB5F98D276 Accuracy: -m0 Conclusion: CDDA 99% Signature: 5D2C7482C5CDD68CA44073A3B0118B1E8592464DFILE: The Red Paintings - Sing 02.flac Size: 35166544 Hash: BC09ABB26DD7B92C6305DD2A2A7609B2 Accuracy: -m0 Conclusion: CDDA 100% Signature: EB8B3FB7A8DFA098581FE3D1CECEF7399B997CA9FILE: The Red Paintings - Mercy Seat 04.flac Size: 32008753 Hash: CAAD1B89A818CF05AA2E8E8AC0D3A482 Accuracy: -m0 Conclusion: CDDA 100% Signature: E15B67AE4BE3D693CE71B0993C8247BEFA87FA86FILE: The Red Paintings - Feed the Wolf 01.flac Size: 38307949 Hash: 11EC6FC7BB38593B636382DB894A4814 Accuracy: -m0 Conclusion: CDDA 100% Signature: 30583765BFB221CE9A0A6FFFA342EDDA2577E453FILE: The Red Paintings - Feed The Wolf (radio edit) 05.flac Size: 27691648 Hash: B64E6EDF4AB28C56093D5D9E3476B353 Accuracy: -m0 Conclusion: CDDA 100% Signature: 377066BA73B626DF8076288F876C10FE4649054BFILE: The Red Paintings - Destroy the Humans 06.flac Size: 48498638 Hash: 91CA13A5C773D091BDB69DF05462196C Accuracy: -m0 Conclusion: CDDA 100% Signature: 5B85F53F56CF157A7FCB76894547003B82629E0D

2007 - We Belong In The Sea (CDs) - WEB [7:05]

Tracklist:
01. We Belong in the Sea (3:48)
02. Injecting Chemicals Into the Eyes of God (3:17)

Лог проверки качества

-----------------------
DON'T MODIFY THIS FILE
-----------------------
PERFORMER: auCDtect Task Manager, ver. 1.5.1RC4 build 1.5.1.5Copyright (c) 2008-2010 y-soft. All rights reservedhttp://y-soft.org
ANALYZER: auCDtect: CD records authenticity detector, version 0.8.2Copyright (c) 2004 Oleg Berngardt. All rights reserved.Copyright (c) 2004 Alexander Djourik. All rights reserved.
FILE: The Red Paintings - We Belong In The Sea - 02 Injecting Chemicals Into the Eyes of God.flac Size: 17826881 Hash: 9623E2ECAF5E1A515E36F34145525CE7 Accuracy: -m0 Conclusion: CDDA 100% Signature: 897D378C3A305F4E526FA8D3AD9A07293886B7A6FILE: The Red Paintings - We Belong In The Sea - 01 We Belong in the Sea.flac Size: 21729692 Hash: C165CEA48E73CA8D9C0F0FD2DE5AC1EE Accuracy: -m0 Conclusion: CDDA 99% Signature: C75D00B032D3CD6EEEF6D9806DB189C4F89F34B0

2009 - Whales are Dying (CDs) - WEB [4:11]

Tracklist:
01. Whales Are Dying (4:11)

Лог проверки качества

-----------------------
DON'T MODIFY THIS FILE
-----------------------
PERFORMER: auCDtect Task Manager, ver. 1.5.1RC4 build 1.5.1.5Copyright (c) 2008-2010 y-soft. All rights reservedhttp://y-soft.org
ANALYZER: auCDtect: CD records authenticity detector, version 0.8.2Copyright (c) 2004 Oleg Berngardt. All rights reserved.Copyright (c) 2004 Alexander Djourik. All rights reserved.
FILE: The Red Paintings - Whales Are Dying.flac Size: 28793435 Hash: 019B3F024C198A2F090A244C5711CD50 Accuracy: -m0 Conclusion: CDDA 99% Signature: 90F50B397EB3F2AA56A12D758EF15B8D69948356

2012 - Streets Fell Into My Window (CDs) - WEB [3:29]

Tracklist:
01. Streets Fell Into My Window (New album radio ver.) (3:39)

Лог проверки качества

-----------------------
DON'T MODIFY THIS FILE
-----------------------
PERFORMER: auCDtect Task Manager, ver. 1.5.1RC4 build 1.5.1.5Copyright (c) 2008-2010 y-soft. All rights reservedhttp://y-soft.org
ANALYZER: auCDtect: CD records authenticity detector, version 0.8.2Copyright (c) 2004 Oleg Berngardt. All rights reserved.Copyright (c) 2004 Alexander Djourik. All rights reserved.
FILE: The Red Paintings - Streets Fell Into My Window - 01 Streets Fell Into My Window (New album radio ver.).flac Size: 24630795 Hash: 20E645951E8F1F77198BF11EEF200D02 Accuracy: -m0 Conclusion: CDDA 100% Signature: C378F24FF330AD9BF3CCABA513E0BD27B7812DFE

2013 - You're Not One Of Them (EP) [26:19]

Tracklist:
01. You're Not One Of Them (4:37)
02. Destroy The Robots (3:44)
03. Sing (5:25)
04. We Belong In The Sea (3:48)
05. Pickles (3:52)
06. Mad World (4:53)

Лог создания рипа

Exact Audio Copy V1.0 beta 3 from 29. August 2011
EAC extraction logfile from 5. May 2013, 15:31
The Red Paintings / You're Not One Of Them
Used drive : Optiarc DVD RW AD-7201S6 Adapter: 0 ID: 0
Read mode : SecureUtilize accurate stream : YesDefeat audio cache : YesMake use of C2 pointers : No
Read offset correction : 48Overread into Lead-In and Lead-Out : NoFill up missing offset samples with silence : YesDelete leading and trailing silent blocks : NoNull samples used in CRC calculations : YesUsed interface : Native Win32 interface for Win NT & 2000Gap handling : Appended to previous track
Used output format : Internal WAV RoutinesSample format : 44.100 Hz; 16 Bit; Stereo
TOC of the extracted CD
Track | Start | Length | Start sector | End sector --------------------------------------------------------- 1 | 0:00.00 | 4:37.07 | 0 | 20781 2 | 4:37.07 | 3:43.67 | 20782 | 37573 3 | 8:20.74 | 5:24.45 | 37574 | 61918 4 | 13:45.44 | 3:48.11 | 61919 | 79029 5 | 17:33.55 | 3:52.29 | 79030 | 96458 6 | 21:26.09 | 4:52.54 | 96459 | 118412
Track 1
Filename C:\Users\Protoman\Music\The Red Paintings - You're Not One Of Them [FLAC] (2013)\01 - You're Not One Of Them.wav
Pre-gap length 0:00:02.00
Peak level 97.7 % Extraction speed 2.3 X Track quality 100.0 % Test CRC 9A0A2D10 Copy CRC 9A0A2D10 Track not present in AccurateRip database Copy OK
Track 2
Filename C:\Users\Protoman\Music\The Red Paintings - You're Not One Of Them [FLAC] (2013)\02 - Destroy The Robots.wav
Pre-gap length 0:00:02.00
Peak level 95.9 % Extraction speed 2.5 X Track quality 100.0 % Test CRC B841F88B Copy CRC B841F88B Track not present in AccurateRip database Copy OK
Track 3
Filename C:\Users\Protoman\Music\The Red Paintings - You're Not One Of Them [FLAC] (2013)\03 - Sing.wav
Pre-gap length 0:00:02.00
Peak level 100.0 % Extraction speed 2.9 X Track quality 100.0 % Test CRC 177AF8DB Copy CRC 177AF8DB Track not present in AccurateRip database Copy OK
Track 4
Filename C:\Users\Protoman\Music\The Red Paintings - You're Not One Of Them [FLAC] (2013)\04 - We Belong In The Sea.wav
Pre-gap length 0:00:02.00
Peak level 100.0 % Extraction speed 3.0 X Track quality 100.0 % Test CRC DED9F632 Copy CRC DED9F632 Track not present in AccurateRip database Copy OK
Track 5
Filename C:\Users\Protoman\Music\The Red Paintings - You're Not One Of Them [FLAC] (2013)\05 - Pickles.wav
Pre-gap length 0:00:02.00
Peak level 95.9 % Extraction speed 1.4 X Track quality 99.9 % Test CRC 4EDCA3B8 Copy CRC 4EDCA3B8 Track not present in AccurateRip database Copy OK
Track 6
Filename C:\Users\Protoman\Music\The Red Paintings - You're Not One Of Them [FLAC] (2013)\06 - Mad World.wav
Pre-gap length 0:00:02.00
Peak level 81.5 % Extraction speed 1.8 X Track quality 100.0 % Test CRC C616F6F5 Copy CRC C616F6F5 Track not present in AccurateRip database Copy OK
None of the tracks are present in the AccurateRip database
No errors occurred
End of status report
---- CUETools DB Plugin V2.1.3
[CTDB TOCID: jXzcaFPaFMt6nPFNBqdRKbIvfTk-] found, Submit result: already submitted[ceb720fa] (1/1) Accurately ripped
==== Log checksum B5D9FD4F6E566DE78315D7E1D9DF5141763DC85ACAF6E0B73BEDA45CB0F2A35A ====

Содержание индексной карты (.CUE)

REM GENRE AlternativeREM DATE 2013REM DISCID 4A062A06REM COMMENT "ExactAudioCopy v1.0b3"PERFORMER "The Red Paintings"TITLE "You're Not One Of Them"FILE "01 - You're Not One Of Them.wav" WAVE TRACK 01 AUDIO TITLE "You're Not One Of Them" PERFORMER "The Red Paintings" INDEX 01 00:00:00 TRACK 02 AUDIO TITLE "Destroy The Robots" PERFORMER "The Red Paintings" INDEX 00 04:35:07FILE "02 - Destroy The Robots.wav" WAVE INDEX 01 00:00:00 TRACK 03 AUDIO TITLE "Sing" PERFORMER "The Red Paintings" INDEX 00 03:41:67FILE "03 - Sing.wav" WAVE INDEX 01 00:00:00 TRACK 04 AUDIO TITLE "We Belong In The Sea" PERFORMER "The Red Paintings" INDEX 00 05:22:45FILE "04 - We Belong In The Sea.wav" WAVE INDEX 01 00:00:00 TRACK 05 AUDIO TITLE "Pickles" PERFORMER "The Red Paintings" INDEX 00 03:46:11FILE "05 - Pickles.wav" WAVE INDEX 01 00:00:00 TRACK 06 AUDIO TITLE "Mad World" PERFORMER "The Red Paintings" INDEX 00 03:50:29FILE "06 - Mad World.wav" WAVE INDEX 01 00:00:00

Лог проверки качества

-----------------------
DON'T MODIFY THIS FILE
-----------------------
PERFORMER: auCDtect Task Manager, ver. 1.5.1RC4 build 1.5.1.5Copyright (c) 2008-2010 y-soft. All rights reservedhttp://y-soft.org
ANALYZER: auCDtect: CD records authenticity detector, version 0.8.2Copyright (c) 2004 Oleg Berngardt. All rights reserved.Copyright (c) 2004 Alexander Djourik. All rights reserved.
FILE: 06 - Mad World.flac Size: 32527889 Hash: 96EB9D6FE272A3A42078FE410C09AF60 Accuracy: -m0 Conclusion: CDDA 100% Signature: D2287413EA24235E3E3FF2F9B8A8EDF290CF0290FILE: 05 - Pickles.flac Size: 29518753 Hash: CAE5CCCFC51725079DC66C00D80DDE59 Accuracy: -m0 Conclusion: CDDA 100% Signature: 6E8A207A5C87532820F020983E35FA2471BC422BFILE: 04 - We Belong In The Sea.flac Size: 21612829 Hash: 1414F160E60638C1AD2BA690B38A5B44 Accuracy: -m0 Conclusion: CDDA 100% Signature: 362C6C2448BBF8E2B6F6B018589FCF4C56BD6F22FILE: 03 - Sing.flac Size: 35168991 Hash: 8B84E4103D54FE63AB06BFF4A963249D Accuracy: -m0 Conclusion: CDDA 100% Signature: 36E5AD7D0F7C4E2FAE8E5CA7784F43E4332CA82AFILE: 02 - Destroy The Robots.flac Size: 27671697 Hash: E789E801842954FA0B2FB12E628D0DD9 Accuracy: -m0 Conclusion: CDDA 100% Signature: A2A5A5E2B2844C8E601BE022F824B7DC2A271A0EFILE: 01 - You're Not One Of Them.flac Size: 33966025 Hash: 7F9848D42709FCB9CEECD30283BEC36D Accuracy: -m0 Conclusion: CDDA 100% Signature: 9C63CD09F4F8E0FE37B61EC338D552E37467205A
Other forum [Profile] [PM]

Dracula

Longevity: 6 years 1 month

Posts: 11044

Торрент-статистика

Post 25-Jun-2013 07:07 (after 8 hours)

Топик был перенесен из форума Rock в форум Rock


p2000s
 
Display posts from previous:    
Reply to topic

The time now is: Today 03:24

All times are GMT + 3 Hours



You cannot post new topics in this forum
You cannot reply to topics in this forum
You cannot edit your posts in this forum
You cannot delete your posts in this forum
You cannot vote in polls in this forum
You cannot attach files in this forum
You cannot download files in this forum