Today is a free download without charge Download

Год Змеи - 8 альбомов (2006-2013) [FLAC|Lossless]

Reply to topic
 
Author
Message

UndegraundMen ®

Longevity: 6 years 9 months

Posts: 25145

Торрент-статистика

Post 16-Jun-2013 03:01

[Quote]

Год Змеи - 8 альбомов (2006-2013)- Год: 2006-2013
Жанр: Пост-гранж, Альтернативный рок
Продолжительность: 06:32:49
Кодек: FLAC
Битрейт: Lossless
Год Змеи — российская рок-группа. На заре своего творчества коллектив исполнял композиции в стиле пост-гранж, позднее песни стали всё более и более походить на поп-рок. Выпустила тринадцать студийных альбомов и четыре видео-DVD.
Сами музыканты описывают своё творчество, как «порой жесткие и бескомпромиссные, порой — лиричные и задушевные песни, искренний драйв, волна мощной положительной энергии со сцены»
Текущий состав
Алексей Марковников — вокал, музыка, тексты, гитара, программирование (2001-)
Павел Сагитов — бас-гитара (2008-)
Сергей Печищев — ударные (2005-)
Андрей Водяницкий — гитара (2012-)
Андрей Арямнов — звукорежиссёр (2001-)

2006 - Код Доступа В Небеса

Треклист:
01. Здравствуй (4:03)
02. Адреналин (4:21)
03. 2000 Баксов (3:48)
04. Код Доступа (3:32)
05. Крестик (3:19)
06. PRO Любовь (3:09)
07. Счастье (3:07)
08. Чингачгук (4:28)
09. Сказка (3:41)
10. Свободная Зона (2:57)
11. До Свидания (3:08)
12. Романс (4:50)
Продолжительность: 00:44:16

Отчёт ЕАС:

Код:
Exact Audio Copy V0.99 prebeta 5 from 4. May 2009
EAC extraction logfile from 14. November 2010, 19:39
Год Змеи / Код доступа в небеса
Used drive  : _NEC    DVD_RW ND-4571A   Adapter: 0  ID: 0
Read mode               : Secure
Utilize accurate stream : Yes
Defeat audio cache      : Yes
Make use of C2 pointers : No
Read offset correction                      : 48
Overread into Lead-In and Lead-Out          : No
Fill up missing offset samples with silence : Yes
Delete leading and trailing silent blocks   : No
Null samples used in CRC calculations       : Yes
Used interface                              : Native Win32 interface for Win NT & 2000
Gap handling                                : Appended to previous track
Used output format              : User Defined Encoder
Selected bitrate                : 768 kBit/s
Quality                         : High
Add ID3 tag                     : No
Command line compressor         : C:\Program Files (x86)\Exact Audio Copy\FLAC\FLAC.EXE
Additional command line options : -8 -V -T "ARTIST=%a" -T "TITLE=%t" -T "ALBUM=%g" -T "DATE=%y" -T "TRACKNUMBER=%n" -T "GENRE=%m" -T "COMMENT=EAC FLAC -8" %s
TOC of the extracted CD
     Track |   Start  |  Length  | Start sector | End sector
    ---------------------------------------------------------
        1  |  0:00.00 |  4:02.27 |         0    |    18176
        2  |  4:02.27 |  4:20.16 |     18177    |    37692
        3  |  8:22.43 |  3:46.74 |     37693    |    54716
        4  | 12:09.42 |  3:31.55 |     54717    |    70596
        5  | 15:41.22 |  3:18.65 |     70597    |    85511
        6  | 19:00.12 |  3:08.55 |     85512    |    99666
        7  | 22:08.67 |  3:06.62 |     99667    |   113678
        8  | 25:15.54 |  4:27.20 |    113679    |   133723
        9  | 29:42.74 |  3:40.14 |    133724    |   150237
       10  | 33:23.13 |  2:56.30 |    150238    |   163467
       11  | 36:19.43 |  3:07.09 |    163468    |   177501
       12  | 39:26.52 |  4:49.26 |    177502    |   199202
Track  1
     Filename E:\Год змеи\Код Доступа В Небеса\FLAC\01. Год Змеи – Здравствуй.wav
     Pre-gap length  0:00:02.00
     Peak level 99.4 %
     Track quality 100.0 %
     Test CRC FE37E45F
     Copy CRC FE37E45F
     Copy OK
Track  2
     Filename E:\Год змеи\Код Доступа В Небеса\FLAC\02. Год Змеи – Адреналин.wav
     Peak level 99.2 %
     Track quality 100.0 %
     Test CRC AFEB7DF9
     Copy CRC AFEB7DF9
     Copy OK
Track  3
     Filename E:\Год змеи\Код Доступа В Небеса\FLAC\03. Год Змеи – 2000$.wav
     Peak level 96.8 %
     Track quality 100.0 %
     Test CRC 20AE8A91
     Copy CRC 20AE8A91
     Copy OK
Track  4
     Filename E:\Год змеи\Код Доступа В Небеса\FLAC\04. Год Змеи – Код доступа.wav
     Peak level 100.0 %
     Track quality 100.0 %
     Test CRC 9B162E9F
     Copy CRC 9B162E9F
     Copy OK
Track  5
     Filename E:\Год змеи\Код Доступа В Небеса\FLAC\05. Год Змеи – Крестик.wav
     Peak level 99.4 %
     Track quality 100.0 %
     Test CRC 8A5D2D4A
     Copy CRC 8A5D2D4A
     Copy OK
Track  6
     Filename E:\Год змеи\Код Доступа В Небеса\FLAC\06. Год Змеи – Pro любовь.wav
     Peak level 99.0 %
     Track quality 100.0 %
     Test CRC E175BBD2
     Copy CRC E175BBD2
     Copy OK
Track  7
     Filename E:\Год змеи\Код Доступа В Небеса\FLAC\07. Год Змеи – Счастье.wav
     Peak level 97.6 %
     Track quality 100.0 %
     Test CRC C898F383
     Copy CRC C898F383
     Copy OK
Track  8
     Filename E:\Год змеи\Код Доступа В Небеса\FLAC\08. Год Змеи – Чингачгук.wav
     Peak level 99.0 %
     Track quality 100.0 %
     Test CRC C3BAD9FB
     Copy CRC C3BAD9FB
     Copy OK
Track  9
     Filename E:\Год змеи\Код Доступа В Небеса\FLAC\09. Год Змеи – Сказка.wav
     Peak level 98.9 %
     Track quality 100.0 %
     Test CRC 03651BF7
     Copy CRC 03651BF7
     Copy OK
Track 10
     Filename E:\Год змеи\Код Доступа В Небеса\FLAC\10. Год Змеи – Свободная зона.wav
     Peak level 99.4 %
     Track quality 100.0 %
     Test CRC 86602A5B
     Copy CRC 86602A5B
     Copy OK
Track 11
     Filename E:\Год змеи\Код Доступа В Небеса\FLAC\11. Год Змеи – До свидания.wav
     Peak level 98.6 %
     Track quality 100.0 %
     Test CRC 221640B7
     Copy CRC 221640B7
     Copy OK
Track 12
     Filename E:\Год змеи\Код Доступа В Небеса\FLAC\12. Год Змеи – Романс.wav
     Peak level 98.7 %
     Track quality 100.0 %
     Test CRC 66B6CEA3
     Copy CRC 66B6CEA3
     Copy OK
No errors occurred
End of status report

Отчёт auCDtect Task manager:

Код:
-----------------------
DON'T MODIFY THIS FILE
-----------------------
PERFORMER: auCDtect Task Manager, ver. 1.6.0 RC1 build 1.6.0.1
Copyright (c) 2008-2010 y-soft. All rights reserved
http://y-soft.org
ANALYZER: auCDtect: CD records authenticity detector, version 0.8.2
Copyright (c) 2004 Oleg Berngardt. All rights reserved.
Copyright (c) 2004 Alexander Djourik. All rights reserved.
FILE: 12. Год Змеи – Романс.flac
  Size: 30542375 Hash: 1AC46F23B38A801AB83B005CB78DE07D Accuracy: -m0
  Conclusion: CDDA 100%
  Signature: 663DF52DB336A5B67340CBE386D486C2F059FB7E
FILE: 11. Год Змеи – До свидания.flac
  Size: 21459502 Hash: 624F8B93529EBC7B3AB996657D3751E4 Accuracy: -m0
  Conclusion: CDDA 100%
  Signature: 952FFD536653A80CEAB6D3876A1ED92262A09408
FILE: 10. Год Змеи – Свободная зона.flac
  Size: 21474080 Hash: 3F6EC1F9B3CD5E4C235D0FD8E7CE84C7 Accuracy: -m0
  Conclusion: CDDA 100%
  Signature: 389857D451CA6B3A23312C182C50547AB9ACB894
FILE: 09. Год Змеи – Сказка.flac
  Size: 22755962 Hash: 39126CAA529D8D3F4B685B7C80ECCB4E Accuracy: -m0
  Conclusion: CDDA 100%
  Signature: E9045B89254C8C02F8D3588F33DB00ED62345071
FILE: 08. Год Змеи – Чингачгук.flac
  Size: 32065527 Hash: BEC572A1AE326E5173FC339655100395 Accuracy: -m0
  Conclusion: CDDA 100%
  Signature: 97812AC5EA2CD67646AA74B3B18965775FA2AC4F
FILE: 07. Год Змеи – Счастье.flac
  Size: 21676936 Hash: 234B705CE9FAE5475A5A699A1F90AA4F Accuracy: -m0
  Conclusion: CDDA 100%
  Signature: 12A1C0B9108F8EF69D0E57BF9E7486540966A1A3
FILE: 06. Год Змеи – Pro любовь.flac
  Size: 22497691 Hash: 7C3DC72DBB8E03FC19C3A35335982E63 Accuracy: -m0
  Conclusion: CDDA 100%
  Signature: 53C91BCA81A74C2FF7F845599AB9A62F22532580
FILE: 05. Год Змеи – Крестик.flac
  Size: 25347054 Hash: A88D543766267A0C4F761B96A02AF15B Accuracy: -m0
  Conclusion: CDDA 100%
  Signature: BBEEF2C89EDDD0BAA913ECF1F21E807F0EB7EB08
FILE: 04. Год Змеи – Код доступа.flac
  Size: 26274695 Hash: 94DB5419AF0C9D105550614762B0C660 Accuracy: -m0
  Conclusion: CDDA 100%
  Signature: 79AF3B6125A56CE119DD16C4E3C976CBC3848DF7
FILE: 03. Год Змеи – 2000$.flac
  Size: 27674384 Hash: C40FF7F56A997F1F7B2EEF4D331F02B1 Accuracy: -m0
  Conclusion: CDDA 100%
  Signature: 2567755C90C368F2C836D24080D2FF930E99DC63
FILE: 02. Год Змеи – Адреналин.flac
  Size: 33593443 Hash: D978C74B92413A52CDAC4D617005085A Accuracy: -m0
  Conclusion: CDDA 100%
  Signature: 9FC6A78AC840E0AB6C46D2011689CEC7CD1CDB6C
FILE: 01. Год Змеи – Здравствуй.flac
  Size: 30093394 Hash: E44225C9728EFAC1311AF0700E44508B Accuracy: -m0
  Conclusion: CDDA 99%
  Signature: 1D2C9CE3077B63B010EE9F91442A0FF5FB8BBD2A

Содержание индексной карты (.CUE)

Код:
REM GENRE Rock
REM DATE 2006
REM DISCID 870A600C
REM COMMENT "ExactAudioCopy v0.99pb5"
PERFORMER "Год Змеи"
TITLE "Код доступа в небеса"
FILE "01. Год Змеи – Здравствуй.wav" WAVE
  TRACK 01 AUDIO
    TITLE "Здравствуй"
    PERFORMER "Год Змеи"
    INDEX 01 00:00:00
FILE "02. Год Змеи – Адреналин.wav" WAVE
  TRACK 02 AUDIO
    TITLE "Адреналин"
    PERFORMER "Год Змеи"
    INDEX 01 00:00:00
FILE "03. Год Змеи – 2000$.wav" WAVE
  TRACK 03 AUDIO
    TITLE "2000$"
    PERFORMER "Год Змеи"
    INDEX 01 00:00:00
FILE "04. Год Змеи – Код доступа.wav" WAVE
  TRACK 04 AUDIO
    TITLE "Код доступа"
    PERFORMER "Год Змеи"
    INDEX 01 00:00:00
FILE "05. Год Змеи – Крестик.wav" WAVE
  TRACK 05 AUDIO
    TITLE "Крестик"
    PERFORMER "Год Змеи"
    INDEX 01 00:00:00
FILE "06. Год Змеи – Pro любовь.wav" WAVE
  TRACK 06 AUDIO
    TITLE "Pro любовь"
    PERFORMER "Год Змеи"
    INDEX 01 00:00:00
FILE "07. Год Змеи – Счастье.wav" WAVE
  TRACK 07 AUDIO
    TITLE "Счастье"
    PERFORMER "Год Змеи"
    INDEX 01 00:00:00
FILE "08. Год Змеи – Чингачгук.wav" WAVE
  TRACK 08 AUDIO
    TITLE "Чингачгук"
    PERFORMER "Год Змеи"
    INDEX 01 00:00:00
FILE "09. Год Змеи – Сказка.wav" WAVE
  TRACK 09 AUDIO
    TITLE "Сказка"
    PERFORMER "Год Змеи"
    INDEX 01 00:00:00
FILE "10. Год Змеи – Свободная зона.wav" WAVE
  TRACK 10 AUDIO
    TITLE "Свободная зона"
    PERFORMER "Год Змеи"
    INDEX 01 00:00:00
FILE "11. Год Змеи – До свидания.wav" WAVE
  TRACK 11 AUDIO
    TITLE "До свидания"
    PERFORMER "Год Змеи"
    INDEX 01 00:00:00
FILE "12. Год Змеи – Романс.wav" WAVE
  TRACK 12 AUDIO
    TITLE "Романс"
    PERFORMER "Год Змеи"
    INDEX 01 00:00:00

2006 - Слова...Осколки

Треклист:
01. C той стороны (4:44)
02. Малыш (2:50)
03. Секс и рок-н-рол (3:02)
04. Глюк (4:09)
05. Слова (2:22)
06. Осколки (2:50)
07. Гарри Поттер (3:59)
08. Иголочка (2:33)
09. Пингвины (3:12)
10. Доза (2:24)
11. Десять дней (3:46)
12. Не для прослушивания (0:35)
P.S
13. Кобель и предупреждение!!! (2:48)
14. Ангел (3:12)
15. Слово (2:51)
16. Тук-Тук (3:07)
Продолжительность:00:48:49

Отчёт ЕАС:

Код:
Exact Audio Copy V0.99 prebeta 5 from 4. May 2009
EAC extraction logfile from 23. November 2010, 14:28
Год змеи / Слова... Осколки
Used drive  : _NEC    DVD_RW ND-4571A   Adapter: 0  ID: 0
Read mode               : Secure
Utilize accurate stream : Yes
Defeat audio cache      : Yes
Make use of C2 pointers : No
Read offset correction                      : 48
Overread into Lead-In and Lead-Out          : No
Fill up missing offset samples with silence : Yes
Delete leading and trailing silent blocks   : No
Null samples used in CRC calculations       : Yes
Used interface                              : Native Win32 interface for Win NT & 2000
Gap handling                                : Appended to previous track
Used output format              : User Defined Encoder
Selected bitrate                : 768 kBit/s
Quality                         : High
Add ID3 tag                     : No
Command line compressor         : C:\Program Files (x86)\Exact Audio Copy\FLAC\FLAC.EXE
Additional command line options : -8 -V -T "ARTIST=%a" -T "TITLE=%t" -T "ALBUM=%g" -T "DATE=%y" -T "TRACKNUMBER=%n" -T "GENRE=%m" -T "COMMENT=EAC FLAC -8" %s
TOC of the extracted CD
     Track |   Start  |  Length  | Start sector | End sector
    ---------------------------------------------------------
        1  |  0:00.00 |  4:46.18 |         0    |    21467
        2  |  4:46.18 |  2:52.16 |     21468    |    34383
        3  |  7:38.34 |  3:04.20 |     34384    |    48203
        4  | 10:42.54 |  4:10.57 |     48204    |    67010
        5  | 14:53.36 |  2:23.49 |     67011    |    77784
        6  | 17:17.10 |  2:52.21 |     77785    |    90705
        7  | 20:09.31 |  4:00.49 |     90706    |   108754
        8  | 24:10.05 |  2:34.51 |    108755    |   120355
        9  | 26:44.56 |  3:14.34 |    120356    |   134939
       10  | 29:59.15 |  2:25.67 |    134940    |   145881
       11  | 32:25.07 |  3:48.35 |    145882    |   163016
       12  | 36:13.42 |  0:35.70 |    163017    |   165711
       13  | 36:49.37 |  2:48.48 |    165712    |   178359
       14  | 39:38.10 |  3:12.30 |    178360    |   192789
       15  | 42:50.40 |  2:51.65 |    192790    |   205679
       16  | 45:42.30 |  3:07.15 |    205680    |   219719
Track  1
     Filename E:\Год змеи - EAC\Слова осколки\flac\01. Год змеи – С Той Стороны.wav
     Pre-gap length  0:00:02.00
     Peak level 98.0 %
     Track quality 99.9 %
     Test CRC 783F2CE2
     Copy CRC 783F2CE2
     Copy OK
Track  2
     Filename E:\Год змеи - EAC\Слова осколки\flac\02. Год змеи – Малыш.wav
     Pre-gap length  0:00:02.00
     Peak level 97.9 %
     Track quality 100.0 %
     Test CRC E86A8538
     Copy CRC E86A8538
     Copy OK
Track  3
     Filename E:\Год змеи - EAC\Слова осколки\flac\03. Год змеи – Секс И Рок'н'ролл.wav
     Pre-gap length  0:00:02.00
     Peak level 98.0 %
     Track quality 99.9 %
     Test CRC 7C896E20
     Copy CRC 7C896E20
     Copy OK
Track  4
     Filename E:\Год змеи - EAC\Слова осколки\flac\04. Год змеи – Глюк.wav
     Pre-gap length  0:00:02.00
     Peak level 98.0 %
     Track quality 100.0 %
     Test CRC 0338E585
     Copy CRC 0338E585
     Copy OK
Track  5
     Filename E:\Год змеи - EAC\Слова осколки\flac\05. Год змеи – Слова.wav
     Pre-gap length  0:00:02.00
     Peak level 98.0 %
     Track quality 100.0 %
     Test CRC EF7175B7
     Copy CRC EF7175B7
     Copy OK
Track  6
     Filename E:\Год змеи - EAC\Слова осколки\flac\06. Год змеи – Осколки.wav
     Pre-gap length  0:00:02.00
     Peak level 98.0 %
     Track quality 100.0 %
     Test CRC 9C29F222
     Copy CRC 9C29F222
     Copy OK
Track  7
     Filename E:\Год змеи - EAC\Слова осколки\flac\07. Год змеи – Гарри Поттер.wav
     Pre-gap length  0:00:02.00
     Peak level 98.0 %
     Track quality 100.0 %
     Test CRC 90176978
     Copy CRC 90176978
     Copy OK
Track  8
     Filename E:\Год змеи - EAC\Слова осколки\flac\08. Год змеи – Иголочка.wav
     Pre-gap length  0:00:02.00
     Peak level 98.0 %
     Track quality 100.0 %
     Test CRC 24103F6A
     Copy CRC 24103F6A
     Copy OK
Track  9
     Filename E:\Год змеи - EAC\Слова осколки\flac\09. Год змеи – Пингвины.wav
     Pre-gap length  0:00:02.00
     Peak level 98.0 %
     Track quality 100.0 %
     Test CRC 037B8278
     Copy CRC 037B8278
     Copy OK
Track 10
     Filename E:\Год змеи - EAC\Слова осколки\flac\10. Год змеи – Доза.wav
     Pre-gap length  0:00:02.00
     Peak level 98.0 %
     Track quality 100.0 %
     Test CRC 5131538D
     Copy CRC 5131538D
     Copy OK
Track 11
     Filename E:\Год змеи - EAC\Слова осколки\flac\11. Год змеи – Десять Дней.wav
     Pre-gap length  0:00:02.00
     Peak level 98.0 %
     Track quality 99.9 %
     Test CRC D0C58A73
     Copy CRC D0C58A73
     Copy OK
Track 12
     Filename E:\Год змеи - EAC\Слова осколки\flac\12. Год змеи – (Не Для Прослушивания).wav
     Pre-gap length  0:00:02.00
     Peak level 9.6 %
     Track quality 100.0 %
     Test CRC 5D260434
     Copy CRC 5D260434
     Copy OK
Track 13
     Filename E:\Год змеи - EAC\Слова осколки\flac\13. Год змеи – Кобель И предупреждение!!!.wav
     Pre-gap length  0:00:02.00
     Peak level 97.9 %
     Track quality 100.0 %
     Test CRC FC335139
     Copy CRC FC335139
     Copy OK
Track 14
     Filename E:\Год змеи - EAC\Слова осколки\flac\14. Год змеи – Ангел.wav
     Pre-gap length  0:00:02.00
     Peak level 97.8 %
     Track quality 100.0 %
     Test CRC E7E545FE
     Copy CRC E7E545FE
     Copy OK
Track 15
     Filename E:\Год змеи - EAC\Слова осколки\flac\15. Год змеи – Слово.wav
     Pre-gap length  0:00:02.00
     Peak level 97.5 %
     Track quality 100.0 %
     Test CRC 11D6E4CE
     Copy CRC 11D6E4CE
     Copy OK
Track 16
     Filename E:\Год змеи - EAC\Слова осколки\flac\16. Год змеи – Тук-Тук.wav
     Pre-gap length  0:00:02.00
     Peak level 97.8 %
     Track quality 100.0 %
     Test CRC 8A5DB6F8
     Copy CRC 8A5DB6F8
     Copy OK
No errors occurred
End of status report

Отчёт auCDtect Task manager:

Код:
-----------------------
DON'T MODIFY THIS FILE
-----------------------
PERFORMER: auCDtect Task Manager, ver. 1.6.0 RC1 build 1.6.0.1
Copyright (c) 2008-2010 y-soft. All rights reserved
http://y-soft.org
ANALYZER: auCDtect: CD records authenticity detector, version 0.8.2
Copyright (c) 2004 Oleg Berngardt. All rights reserved.
Copyright (c) 2004 Alexander Djourik. All rights reserved.
FILE: 16. Год змеи – Тук-Тук.flac
  Size: 23650164 Hash: 276FF5208AE0B61C478688D1CC440555 Accuracy: -m0
  Conclusion: CDDA 100%
  Signature: 629CF689C327813C0EB9655442DD37B985700B82
FILE: 15. Год змеи – Слово.flac
  Size: 19641919 Hash: 934211A70C590465337676F8E3CA1BC8 Accuracy: -m0
  Conclusion: CDDA 100%
  Signature: 792FB92967A82B97F75D09E5CF85E1445EAA8EC8
FILE: 14. Год змеи – Ангел.flac
  Size: 22737096 Hash: 6F82FE8A1B00CB5F2B64D677EB8B3894 Accuracy: -m0
  Conclusion: CDDA 100%
  Signature: 86B230FE5367FA2ACE2669E4DFDDC51DCBD72729
FILE: 13. Год змеи – Кобель И предупреждение!!!.flac
  Size: 19172091 Hash: 807B98266CECF6C312F078186D6B79DA Accuracy: -m0
  Conclusion: CDDA 100%
  Signature: 4DA02989C402CB8800B905086090411B111EDE55
FILE: 12. Год змеи – (Не Для Прослушивания).flac
  Size: 2427252 Hash: B10D2CAAF7E8F682853A66253A718663 Accuracy: -m0
  Conclusion: CDDA 100%
  Signature: 5681E43E68E69111021884D118CE2B14DF97EC62
FILE: 11. Год змеи – Десять Дней.flac
  Size: 28549678 Hash: DE0C06CFCFF199C93BD0FB7267E9F302 Accuracy: -m0
  Conclusion: CDDA 100%
  Signature: FB7A97C67DF48BBBF809FAB32152FAEFD5FF281B
FILE: 10. Год змеи – Доза.flac
  Size: 18848394 Hash: 3EFDC5B481D95792828C1CBA3FB34D1D Accuracy: -m0
  Conclusion: MPEG 95%
  Signature: 289F06D35B4C582F64FDC0D11CCC36D1F1E06490
FILE: 09. Год змеи – Пингвины.flac
  Size: 25001037 Hash: 46B7417A576E970EEA3927ACDD4AB9E4 Accuracy: -m0
  Conclusion: CDDA 100%
  Signature: 97A542042BECD90C90F44C7ACFD1886533F4A8E1
FILE: 08. Год змеи – Иголочка.flac
  Size: 19798132 Hash: 3B0DEEB1C966CA382313325BF7CF540D Accuracy: -m0
  Conclusion: CDDA 100%
  Signature: 144C3C58026CF4104B9B716C18D5313B0F694E57
FILE: 07. Год змеи – Гарри Поттер.flac
  Size: 28287944 Hash: A966FF994646319D63BB72862136645E Accuracy: -m0
  Conclusion: CDDA 100%
  Signature: 2FE3CE9AB477A70CFBA0B017BF16700EB9B8C8B9
FILE: 06. Год змеи – Осколки.flac
  Size: 21441495 Hash: 4AC90E3DE8D7E5257675393D706B8626 Accuracy: -m0
  Conclusion: CDDA 100%
  Signature: E9348E4449231EB06B2916CF60994EF70CAA276F
FILE: 05. Год змеи – Слова.flac
  Size: 18247097 Hash: 2253D967E52A2A1FBC049C881E045D76 Accuracy: -m0
  Conclusion: CDDA 100%
  Signature: 7C101FE50C71304DA1A4BA575287A20D55E529C3
FILE: 04. Год змеи – Глюк.flac
  Size: 32141059 Hash: BF1571E6ACFAE87C5F91F569176D505E Accuracy: -m0
  Conclusion: CDDA 100%
  Signature: 49DCDA18D7F8DB373C485E76EF02D12CB601E934
FILE: 03. Год змеи – Секс И Рок'н'ролл.flac
  Size: 23410277 Hash: B36105CF5C717C94865C1825541AA176 Accuracy: -m0
  Conclusion: MPEG 95%
  Signature: 63B77994B77626AB6F476818266FAFEE965DF9D4
FILE: 02. Год змеи – Малыш.flac
  Size: 19273878 Hash: 083D097B837038DA0C2180175484DB26 Accuracy: -m0
  Conclusion: CDDA 100%
  Signature: 09935C3553D8FB3270F407D835F2914DD0182661
FILE: 01. Год змеи – С Той Стороны.flac
  Size: 35291966 Hash: 1889B570DE10E140B0AF873AC5DAEA15 Accuracy: -m0
  Conclusion: CDDA 99%
  Signature: 96DBC6283C1A3979AC4B90C043FC9A589CF0A9B8

Содержание индексной карты (.CUE)

Код:
REM GENRE Rock
REM DATE 2006
REM DISCID CF0B7110
REM COMMENT "ExactAudioCopy v0.99pb5"
PERFORMER "Год змеи"
TITLE "Слова... Осколки"
FILE "01. Год змеи – С Той Стороны.flac" WAVE
  TRACK 01 AUDIO
    TITLE "С Той Стороны"
    PERFORMER "Год змеи"
    FLAGS DCP
    INDEX 01 00:00:00
  TRACK 02 AUDIO
    TITLE "Малыш"
    PERFORMER "Год змеи"
    FLAGS DCP
    INDEX 00 04:44:18
FILE "02. Год змеи – Малыш.flac" WAVE
    INDEX 01 00:00:00
  TRACK 03 AUDIO
    TITLE "Секс И Рок'н'ролл"
    PERFORMER "Год змеи"
    FLAGS DCP
    INDEX 00 02:50:16
FILE "03. Год змеи – Секс И Рок'н'ролл.flac" WAVE
    INDEX 01 00:00:00
  TRACK 04 AUDIO
    TITLE "Глюк"
    PERFORMER "Год змеи"
    FLAGS DCP
    INDEX 00 03:02:20
FILE "04. Год змеи – Глюк.flac" WAVE
    INDEX 01 00:00:00
  TRACK 05 AUDIO
    TITLE "Слова"
    PERFORMER "Год змеи"
    FLAGS DCP
    INDEX 00 04:08:57
FILE "05. Год змеи – Слова.flac" WAVE
    INDEX 01 00:00:00
  TRACK 06 AUDIO
    TITLE "Осколки"
    PERFORMER "Год змеи"
    FLAGS DCP
    INDEX 00 02:21:49
FILE "06. Год змеи – Осколки.flac" WAVE
    INDEX 01 00:00:00
  TRACK 07 AUDIO
    TITLE "Гарри Поттер"
    PERFORMER "Год змеи"
    FLAGS DCP
    INDEX 00 02:50:21
FILE "07. Год змеи – Гарри Поттер.flac" WAVE
    INDEX 01 00:00:00
  TRACK 08 AUDIO
    TITLE "Иголочка"
    PERFORMER "Год змеи"
    FLAGS DCP
    INDEX 00 03:58:49
FILE "08. Год змеи – Иголочка.flac" WAVE
    INDEX 01 00:00:00
  TRACK 09 AUDIO
    TITLE "Пингвины"
    PERFORMER "Год змеи"
    FLAGS DCP
    INDEX 00 02:32:51
FILE "09. Год змеи – Пингвины.flac" WAVE
    INDEX 01 00:00:00
  TRACK 10 AUDIO
    TITLE "Доза"
    PERFORMER "Год змеи"
    FLAGS DCP
    INDEX 00 03:12:34
FILE "10. Год змеи – Доза.flac" WAVE
    INDEX 01 00:00:00
  TRACK 11 AUDIO
    TITLE "Десять Дней"
    PERFORMER "Год змеи"
    FLAGS DCP
    INDEX 00 02:23:67
FILE "11. Год змеи – Десять Дней.flac" WAVE
    INDEX 01 00:00:00
  TRACK 12 AUDIO
    TITLE "(Не Для Прослушивания)"
    PERFORMER "Год змеи"
    FLAGS DCP
    INDEX 00 03:46:35
FILE "12. Год змеи – (Не Для Прослушивания).flac" WAVE
    INDEX 01 00:00:00
  TRACK 13 AUDIO
    TITLE "Кобель И предупреждение!!!"
    PERFORMER "Год змеи"
    FLAGS DCP
    INDEX 00 00:33:70
FILE "13. Год змеи – Кобель И предупреждение!!!.flac" WAVE
    INDEX 01 00:00:00
  TRACK 14 AUDIO
    TITLE "Ангел"
    PERFORMER "Год змеи"
    FLAGS DCP
    INDEX 00 02:46:48
FILE "14. Год змеи – Ангел.flac" WAVE
    INDEX 01 00:00:00
  TRACK 15 AUDIO
    TITLE "Слово"
    PERFORMER "Год змеи"
    FLAGS DCP
    INDEX 00 03:10:30
FILE "15. Год змеи – Слово.flac" WAVE
    INDEX 01 00:00:00
  TRACK 16 AUDIO
    TITLE "Тук-Тук"
    PERFORMER "Год змеи"
    FLAGS DCP
    INDEX 00 02:49:65
FILE "16. Год змеи – Тук-Тук.flac" WAVE
    INDEX 01 00:00:00

2008 - Distortion off. Песни подъездов, дворов и переходов

Треклист:
01. Первая... (3:04)
02. Другой (3:23)
03. Романс(Часть вторая) (3:40)
04. Все нормально (2:20)
05. Музыкант (2:20)
06. Там... (4:19)
07. Прости (4:07)
08. Как жаль (4:45)
09. Джульетта (3:29)
10. Осень (3:32)
11. По Любому (2:25)
12. Прогноз (2:55)
13. Шарик (2:30)
14. Лето(совместно с Ж.Фриске) (2:49)
15. Ёжики (3:50)
16. Последняя... (3:33)
Продолжительность:00:53:00

Отчёт ЕАС:

Код:
Exact Audio Copy V0.99 prebeta 5 from 4. May 2009
EAC extraction logfile from 22. November 2010, 23:59
Год Змеи / Distortion Off
Used drive  : _NEC    DVD_RW ND-4571A   Adapter: 0  ID: 0
Read mode               : Secure
Utilize accurate stream : Yes
Defeat audio cache      : Yes
Make use of C2 pointers : No
Read offset correction                      : 48
Overread into Lead-In and Lead-Out          : No
Fill up missing offset samples with silence : Yes
Delete leading and trailing silent blocks   : No
Null samples used in CRC calculations       : Yes
Used interface                              : Native Win32 interface for Win NT & 2000
Gap handling                                : Appended to previous track
Used output format              : User Defined Encoder
Selected bitrate                : 768 kBit/s
Quality                         : High
Add ID3 tag                     : No
Command line compressor         : C:\Program Files (x86)\Exact Audio Copy\FLAC\FLAC.EXE
Additional command line options : -8 -V -T "ARTIST=%a" -T "TITLE=%t" -T "ALBUM=%g" -T "DATE=%y" -T "TRACKNUMBER=%n" -T "GENRE=%m" -T "COMMENT=EAC FLAC -8" %s
TOC of the extracted CD
     Track |   Start  |  Length  | Start sector | End sector
    ---------------------------------------------------------
        1  |  0:00.00 |  3:03.43 |         0    |    13767
        2  |  3:03.43 |  3:23.37 |     13768    |    29029
        3  |  6:27.05 |  3:39.54 |     29030    |    45508
        4  | 10:06.59 |  2:20.02 |     45509    |    56010
        5  | 12:26.61 |  2:20.05 |     56011    |    66515
        6  | 14:46.66 |  4:19.24 |     66516    |    85964
        7  | 19:06.15 |  4:06.47 |     85965    |   104461
        8  | 23:12.62 |  4:45.11 |    104462    |   125847
        9  | 27:57.73 |  3:29.16 |    125848    |   141538
       10  | 31:27.14 |  3:31.52 |    141539    |   157415
       11  | 34:58.66 |  2:25.13 |    157416    |   168303
       12  | 37:24.04 |  2:55.01 |    168304    |   181429
       13  | 40:19.05 |  2:30.11 |    181430    |   192690
       14  | 42:49.16 |  2:48.64 |    192691    |   205354
       15  | 45:38.05 |  3:49.45 |    205355    |   222574
       16  | 49:27.50 |  3:33.12 |    222575    |   238561
Track  1
     Filename E:\Год змеи - EAC\DiStORTiON OFF\FLAC\01. Год Змеи – Первая....wav
     Pre-gap length  0:00:02.00
     Peak level 100.0 %
     Track quality 100.0 %
     Test CRC 542615A5
     Copy CRC 542615A5
     Copy OK
Track  2
     Filename E:\Год змеи - EAC\DiStORTiON OFF\FLAC\02. Год Змеи – Другой.wav
     Pre-gap length  0:00:02.00
     Peak level 100.0 %
     Track quality 100.0 %
     Test CRC 04B02517
     Copy CRC 04B02517
     Copy OK
Track  3
     Filename E:\Год змеи - EAC\DiStORTiON OFF\FLAC\03. Год Змеи – Романс (часть вторая).wav
     Pre-gap length  0:00:01.22
     Peak level 100.0 %
     Track quality 100.0 %
     Test CRC 2132CB4C
     Copy CRC 2132CB4C
     Copy OK
Track  4
     Filename E:\Год змеи - EAC\DiStORTiON OFF\FLAC\04. Год Змеи – Всё нормально.wav
     Pre-gap length  0:00:02.00
     Peak level 100.0 %
     Track quality 100.0 %
     Test CRC 140E3779
     Copy CRC 140E3779
     Copy OK
Track  5
     Filename E:\Год змеи - EAC\DiStORTiON OFF\FLAC\05. Год Змеи – Музыкант.wav
     Pre-gap length  0:00:00.36
     Peak level 100.0 %
     Track quality 100.0 %
     Test CRC 693E5C28
     Copy CRC 693E5C28
     Copy OK
Track  6
     Filename E:\Год змеи - EAC\DiStORTiON OFF\FLAC\06. Год Змеи – Там....wav
     Pre-gap length  0:00:02.00
     Peak level 100.0 %
     Track quality 99.9 %
     Test CRC BBA4D5CA
     Copy CRC BBA4D5CA
     Copy OK
Track  7
     Filename E:\Год змеи - EAC\DiStORTiON OFF\FLAC\07. Год Змеи – Прости.wav
     Pre-gap length  0:00:01.17
     Peak level 100.0 %
     Track quality 100.0 %
     Test CRC 7F6F8F04
     Copy CRC 7F6F8F04
     Copy OK
Track  8
     Filename E:\Год змеи - EAC\DiStORTiON OFF\FLAC\08. Год Змеи – Как жаль.wav
     Pre-gap length  0:00:01.74
     Peak level 100.0 %
     Track quality 100.0 %
     Test CRC 0A34C224
     Copy CRC 0A34C224
     Copy OK
Track  9
     Filename E:\Год змеи - EAC\DiStORTiON OFF\FLAC\09. Год Змеи – Джульета.wav
     Pre-gap length  0:00:01.39
     Peak level 100.0 %
     Track quality 99.9 %
     Test CRC B4DAD386
     Copy CRC B4DAD386
     Copy OK
Track 10
     Filename E:\Год змеи - EAC\DiStORTiON OFF\FLAC\10. Год Змеи – Осень.wav
     Pre-gap length  0:00:02.00
     Peak level 100.0 %
     Track quality 100.0 %
     Test CRC 3412BB26
     Copy CRC 3412BB26
     Copy OK
Track 11
     Filename E:\Год змеи - EAC\DiStORTiON OFF\FLAC\11. Год Змеи – По любому.wav
     Pre-gap length  0:00:01.06
     Peak level 100.0 %
     Track quality 100.0 %
     Test CRC D358D915
     Copy CRC 25CDB73E
     Copy OK
Track 12
     Filename E:\Год змеи - EAC\DiStORTiON OFF\FLAC\12. Год Змеи – Прогноз.wav
     Pre-gap length  0:00:00.52
     Peak level 100.0 %
     Track quality 100.0 %
     Test CRC D6B63A68
     Copy CRC D6B63A68
     Copy OK
Track 13
     Filename E:\Год змеи - EAC\DiStORTiON OFF\FLAC\13. Год Змеи – Шарик.wav
     Pre-gap length  0:00:00.73
     Peak level 100.0 %
     Track quality 100.0 %
     Test CRC 71495D56
     Copy CRC 71495D56
     Copy OK
Track 14
     Filename E:\Год змеи - EAC\DiStORTiON OFF\FLAC\14. Год Змеи – Лето (совместно с Жанной Фриске).wav
     Pre-gap length  0:00:01.10
     Peak level 100.0 %
     Track quality 100.0 %
     Test CRC 79362E39
     Copy CRC 79362E39
     Copy OK
Track 15
     Filename E:\Год змеи - EAC\DiStORTiON OFF\FLAC\15. Год Змеи – Ёжики.wav
     Pre-gap length  0:00:02.00
     Peak level 100.0 %
     Track quality 100.0 %
     Test CRC 1E42BDED
     Copy CRC 1E42BDED
     Copy OK
Track 16
     Filename E:\Год змеи - EAC\DiStORTiON OFF\FLAC\16. Год Змеи – Последняя....wav
     Pre-gap length  0:00:02.00
     Peak level 100.0 %
     Track quality 100.0 %
     Test CRC 533D4F67
     Copy CRC 533D4F67
     Copy OK
No errors occurred
End of status report

Отчёт auCDtect Task manager:

Код:
-----------------------
DON'T MODIFY THIS FILE
-----------------------
PERFORMER: auCDtect Task Manager, ver. 1.6.0 RC1 build 1.6.0.1
Copyright (c) 2008-2010 y-soft. All rights reserved
http://y-soft.org
ANALYZER: auCDtect: CD records authenticity detector, version 0.8.2
Copyright (c) 2004 Oleg Berngardt. All rights reserved.
Copyright (c) 2004 Alexander Djourik. All rights reserved.
FILE: 16. Год Змеи – Последняя....flac
  Size: 22766054 Hash: B1CC5AFF72517C785CCDC0DEBE30B7CF Accuracy: -m0
  Conclusion: CDDA 100%
  Signature: 9E569BF216DC3FFC0BF32B8E31D9017295110516
FILE: 15. Год Змеи – Ёжики.flac
  Size: 30518212 Hash: 7A0D05DA2D80B7BA168619F1C14AAB64 Accuracy: -m0
  Conclusion: CDDA 100%
  Signature: DD627A5597EEF5B2466315616D5693E2229EE497
FILE: 14. Год Змеи – Лето (совместно с Жанной Фриске).flac
  Size: 21704942 Hash: 3D1ECCEE2923188CBF5DE38AD08A3677 Accuracy: -m0
  Conclusion: CDDA 100%
  Signature: 0F05A81410CC8C12B11EAB5251788E4B7FD8C771
FILE: 13. Год Змеи – Шарик.flac
  Size: 20418774 Hash: 7CB6A32A0B54AD2B70378676859C6124 Accuracy: -m0
  Conclusion: CDDA 100%
  Signature: 966E98C796B0CA7381609C2663F33B05109C253C
FILE: 12. Год Змеи – Прогноз.flac
  Size: 22783929 Hash: A0C51C92E9B2C97C837A378B75B62109 Accuracy: -m0
  Conclusion: CDDA 100%
  Signature: 9649BA150248C047581273F68C87ECF80981F84B
FILE: 11. Год Змеи – По любому.flac
  Size: 19032041 Hash: 8C773FC76C2CF711CE89AF3210E26D08 Accuracy: -m0
  Conclusion: CDDA 100%
  Signature: C7C9A2667020F4BDFA6E44FA2319D6DF8C23B2C4
FILE: 10. Год Змеи – Осень.flac
  Size: 25637303 Hash: 4668964328090F44C8A091F27072895C Accuracy: -m0
  Conclusion: CDDA 100%
  Signature: EE582C97FFF7BA5152206A3A5E055D02DD4CE801
FILE: 09. Год Змеи – Джульета.flac
  Size: 26175119 Hash: E4879BB04A99DE19AE447BE4A1900F24 Accuracy: -m0
  Conclusion: CDDA 100%
  Signature: 05D10C1CDD12B7A20DA1E110CBE4B1540D865001
FILE: 08. Год Змеи – Как жаль.flac
  Size: 33509750 Hash: 7837637A521C156E53EE1757DA549BB1 Accuracy: -m0
  Conclusion: CDDA 99%
  Signature: CED75728DAC4331CACA321B841199131FD656E67
FILE: 07. Год Змеи – Прости.flac
  Size: 29672131 Hash: D96EA1002444258089EFE6BC2FFABFB0 Accuracy: -m0
  Conclusion: CDDA 100%
  Signature: C7A4CD5CCAF904365B441220AF9B4F3F13F16943
FILE: 06. Год Змеи – Там....flac
  Size: 32336752 Hash: E344AF9F8113114559A0DA94F60CCCC9 Accuracy: -m0
  Conclusion: CDDA 99%
  Signature: 0E286FEF313C1ABA2621823AB2276EB1155A8A56
FILE: 05. Год Змеи – Музыкант.flac
  Size: 17557786 Hash: D8F464AB9EB0DA5A47B959112F4C1331 Accuracy: -m0
  Conclusion: CDDA 99%
  Signature: 5B3C3E1321D69B522B9521665E63553BCC577546
FILE: 04. Год Змеи – Всё нормально.flac
  Size: 18117914 Hash: FD0087BA98455FCA32410B24C8C94076 Accuracy: -m0
  Conclusion: CDDA 100%
  Signature: 7CB8E389686BF662EBB6EC7D551A564A6D37AA9F
FILE: 03. Год Змеи – Романс (часть вторая).flac
  Size: 25361985 Hash: 1BE43C14015DDC3E67B8BB6860CF9479 Accuracy: -m0
  Conclusion: CDDA 100%
  Signature: C52B2997499B9A7221CB14322DCDB768F859BA6F
FILE: 02. Год Змеи – Другой.flac
  Size: 25146118 Hash: EE33A165E28EE2BA0D957C3B40B0D5EE Accuracy: -m0
  Conclusion: CDDA 100%
  Signature: 091DB0EACC3DC5CAE33BE7CAA9BC8AB69DEB7F1C
FILE: 01. Год Змеи – Первая....flac
  Size: 24741858 Hash: D3BE747A401AD0E4D59D6DDC28BF5617 Accuracy: -m0
  Conclusion: CDDA 100%
  Signature: AF6DBB7E776309387FE4D516D2DA93AD80886ACE

Содержание индексной карты (.CUE)

Код:
REM GENRE Rock
REM DATE 2008
REM DISCID FD0C6C10
REM COMMENT "ExactAudioCopy v0.99pb5"
PERFORMER "Год Змеи"
TITLE "Distortion Off"
FILE "01. Год Змеи – Первая....flac" WAVE
  TRACK 01 AUDIO
    TITLE "Первая..."
    PERFORMER "Год Змеи"
    INDEX 01 00:00:00
  TRACK 02 AUDIO
    TITLE "Другой"
    PERFORMER "Год Змеи"
    INDEX 00 03:01:43
FILE "02. Год Змеи – Другой.flac" WAVE
    INDEX 01 00:00:00
  TRACK 03 AUDIO
    TITLE "Романс (часть вторая)"
    PERFORMER "Год Змеи"
    INDEX 00 03:22:15
FILE "03. Год Змеи – Романс (часть вторая).flac" WAVE
    INDEX 01 00:00:00
  TRACK 04 AUDIO
    TITLE "Всё нормально"
    PERFORMER "Год Змеи"
    INDEX 00 03:37:54
FILE "04. Год Змеи – Всё нормально.flac" WAVE
    INDEX 01 00:00:00
  TRACK 05 AUDIO
    TITLE "Музыкант"
    PERFORMER "Год Змеи"
    INDEX 00 02:19:41
FILE "05. Год Змеи – Музыкант.flac" WAVE
    INDEX 01 00:00:00
  TRACK 06 AUDIO
    TITLE "Там..."
    PERFORMER "Год Змеи"
    INDEX 00 02:18:05
FILE "06. Год Змеи – Там....flac" WAVE
    INDEX 01 00:00:00
  TRACK 07 AUDIO
    TITLE "Прости"
    PERFORMER "Год Змеи"
    INDEX 00 04:18:07
FILE "07. Год Змеи – Прости.flac" WAVE
    INDEX 01 00:00:00
  TRACK 08 AUDIO
    TITLE "Как жаль"
    PERFORMER "Год Змеи"
    INDEX 00 04:04:48
FILE "08. Год Змеи – Как жаль.flac" WAVE
    INDEX 01 00:00:00
  TRACK 09 AUDIO
    TITLE "Джульета"
    PERFORMER "Год Змеи"
    INDEX 00 04:43:47
FILE "09. Год Змеи – Джульета.flac" WAVE
    INDEX 01 00:00:00
  TRACK 10 AUDIO
    TITLE "Осень"
    PERFORMER "Год Змеи"
    INDEX 00 03:27:16
FILE "10. Год Змеи – Осень.flac" WAVE
    INDEX 01 00:00:00
  TRACK 11 AUDIO
    TITLE "По любому"
    PERFORMER "Год Змеи"
    INDEX 00 03:30:46
FILE "11. Год Змеи – По любому.flac" WAVE
    INDEX 01 00:00:00
  TRACK 12 AUDIO
    TITLE "Прогноз"
    PERFORMER "Год Змеи"
    INDEX 00 02:24:36
FILE "12. Год Змеи – Прогноз.flac" WAVE
    INDEX 01 00:00:00
  TRACK 13 AUDIO
    TITLE "Шарик"
    PERFORMER "Год Змеи"
    INDEX 00 02:54:03
FILE "13. Год Змеи – Шарик.flac" WAVE
    INDEX 01 00:00:00
  TRACK 14 AUDIO
    TITLE "Лето (совместно с Жанной Фриске)"
    PERFORMER "Год Змеи"
    INDEX 00 02:29:01
FILE "14. Год Змеи – Лето (совместно с Жанной Фриске).flac" WAVE
    INDEX 01 00:00:00
  TRACK 15 AUDIO
    TITLE "Ёжики"
    PERFORMER "Год Змеи"
    INDEX 00 02:46:64
FILE "15. Год Змеи – Ёжики.flac" WAVE
    INDEX 01 00:00:00
  TRACK 16 AUDIO
    TITLE "Последняя..."
    PERFORMER "Год Змеи"
    INDEX 00 03:47:45
FILE "16. Год Змеи – Последняя....flac" WAVE
    INDEX 01 00:00:00

2009 - Кинич Ахау

Треклист:
01. Отсчет (2:48)
02. Оторваться (3:55)
03. Жить (2:29)
04. Узелки (3:10)
05. Возвращение (6:16)
06. Крысы (3:27)
07. 7 жизней (4:07)
08. Прячься (2:30)
09. Шторм (4:41)
10. Кинич Ахау (3:25)
11. Вирус (2:17)
12. Календарь (5:00)
13. 2012 (1:25)
Продолжительность:00:45:31

Отчёт ЕАС:

Код:
Exact Audio Copy V0.99 prebeta 5 from 4. May 2009
EAC extraction logfile from 23. November 2010, 18:58
Год Змеи / Кинич Ахау
Used drive  : _NEC    DVD_RW ND-4571A   Adapter: 0  ID: 0
Read mode               : Secure
Utilize accurate stream : Yes
Defeat audio cache      : Yes
Make use of C2 pointers : No
Read offset correction                      : 48
Overread into Lead-In and Lead-Out          : No
Fill up missing offset samples with silence : Yes
Delete leading and trailing silent blocks   : No
Null samples used in CRC calculations       : Yes
Used interface                              : Native Win32 interface for Win NT & 2000
Gap handling                                : Appended to previous track
Used output format              : User Defined Encoder
Selected bitrate                : 768 kBit/s
Quality                         : High
Add ID3 tag                     : No
Command line compressor         : C:\Program Files (x86)\Exact Audio Copy\FLAC\FLAC.EXE
Additional command line options : -8 -V -T "ARTIST=%a" -T "TITLE=%t" -T "ALBUM=%g" -T "DATE=%y" -T "TRACKNUMBER=%n" -T "GENRE=%m" -T "COMMENT=EAC FLAC -8" %s
TOC of the extracted CD
     Track |   Start  |  Length  | Start sector | End sector
    ---------------------------------------------------------
        1  |  0:00.00 |  2:48.33 |         0    |    12632
        2  |  2:48.33 |  3:54.53 |     12633    |    30235
        3  |  6:43.11 |  2:29.26 |     30236    |    41436
        4  |  9:12.37 |  3:09.62 |     41437    |    55673
        5  | 12:22.24 |  6:16.16 |     55674    |    83889
        6  | 18:38.40 |  3:26.62 |     83890    |    99401
        7  | 22:05.27 |  4:07.23 |     99402    |   117949
        8  | 26:12.50 |  2:30.29 |    117950    |   129228
        9  | 28:43.04 |  4:40.59 |    129229    |   150287
       10  | 33:23.63 |  3:25.06 |    150288    |   165668
       11  | 36:48.69 |  2:16.61 |    165669    |   175929
       12  | 39:05.55 |  5:00.07 |    175930    |   198436
       13  | 44:05.62 |  1:25.31 |    198437    |   204842
Track  1
     Filename E:\Год змеи - EAC\Кинич Ахау\Flac\01. Год Змеи – Отсчет.wav
     Pre-gap length  0:00:02.00
     Peak level 97.9 %
     Track quality 100.0 %
     Test CRC 10EC1638
     Copy CRC 10EC1638
     Copy OK
Track  2
     Filename E:\Год змеи - EAC\Кинич Ахау\Flac\02. Год Змеи – Оторваться.wav
     Pre-gap length  0:00:02.00
     Peak level 97.9 %
     Track quality 100.0 %
     Test CRC E65D5AA6
     Copy CRC E65D5AA6
     Copy OK
Track  3
     Filename E:\Год змеи - EAC\Кинич Ахау\Flac\03. Год Змеи – Жить.wav
     Pre-gap length  0:00:02.24
     Peak level 97.9 %
     Track quality 99.4 %
     Test CRC F16976A8
     Copy CRC F16976A8
     Copy OK
Track  4
     Filename E:\Год змеи - EAC\Кинич Ахау\Flac\04. Год Змеи – Узелки.wav
     Pre-gap length  0:00:02.00
     Peak level 97.9 %
     Track quality 100.0 %
     Test CRC 714807EC
     Copy CRC 714807EC
     Copy OK
Track  5
     Filename E:\Год змеи - EAC\Кинич Ахау\Flac\05. Год Змеи – Возвращение.wav
     Pre-gap length  0:00:02.00
     Peak level 98.7 %
     Track quality 99.9 %
     Test CRC 902F024C
     Copy CRC 902F024C
     Copy OK
Track  6
     Filename E:\Год змеи - EAC\Кинич Ахау\Flac\06. Год Змеи – Крысы.wav
     Pre-gap length  0:00:02.00
     Peak level 97.9 %
     Track quality 100.0 %
     Test CRC 4ACCD1CA
     Copy CRC 4ACCD1CA
     Copy OK
Track  7
     Filename E:\Год змеи - EAC\Кинич Ахау\Flac\07. Год Змеи – 7 жизней.wav
     Pre-gap length  0:00:02.00
     Peak level 98.7 %
     Track quality 100.0 %
     Test CRC A2DC3D85
     Copy CRC A2DC3D85
     Copy OK
Track  8
     Filename E:\Год змеи - EAC\Кинич Ахау\Flac\08. Год Змеи – Прячься.wav
     Pre-gap length  0:00:02.00
     Peak level 97.4 %
     Track quality 100.0 %
     Test CRC 5AC8CEA9
     Copy CRC 5AC8CEA9
     Copy OK
Track  9
     Filename E:\Год змеи - EAC\Кинич Ахау\Flac\09. Год Змеи – Шторм.wav
     Pre-gap length  0:00:02.00
     Peak level 97.9 %
     Track quality 100.0 %
     Test CRC C05AFC27
     Copy CRC C05AFC27
     Copy OK
Track 10
     Filename E:\Год змеи - EAC\Кинич Ахау\Flac\10. Год Змеи – Кинич Ахау.wav
     Pre-gap length  0:00:02.00
     Peak level 97.9 %
     Track quality 99.5 %
     Test CRC 37D79DFA
     Copy CRC 37D79DFA
     Copy OK
Track 11
     Filename E:\Год змеи - EAC\Кинич Ахау\Flac\11. Год Змеи – Вирус.wav
     Pre-gap length  0:00:02.00
     Peak level 97.7 %
     Track quality 99.7 %
     Test CRC DC1F18B8
     Copy CRC DC1F18B8
     Copy OK
Track 12
     Filename E:\Год змеи - EAC\Кинич Ахау\Flac\12. Год Змеи – Календарь.wav
     Pre-gap length  0:00:01.74
     Peak level 97.9 %
     Track quality 100.0 %
     Test CRC 1E713937
     Copy CRC 1E713937
     Copy OK
Track 13
     Filename E:\Год змеи - EAC\Кинич Ахау\Flac\13. Год Змеи – 2012.wav
     Pre-gap length  0:00:02.00
     Peak level 98.7 %
     Track quality 100.0 %
     Test CRC 634A5E9B
     Copy CRC 634A5E9B
     Copy OK
No errors occurred
End of status report

Отчёт auCDtect Task manager:

Код:
-----------------------
DON'T MODIFY THIS FILE
-----------------------
PERFORMER: auCDtect Task Manager, ver. 1.6.0 RC1 build 1.6.0.1
Copyright (c) 2008-2010 y-soft. All rights reserved
http://y-soft.org
ANALYZER: auCDtect: CD records authenticity detector, version 0.8.2
Copyright (c) 2004 Oleg Berngardt. All rights reserved.
Copyright (c) 2004 Alexander Djourik. All rights reserved.
FILE: 13. Год Змеи – 2012.flac
  Size: 7861173 Hash: CFEA3EE9CB414B249E74FB36377BACBE Accuracy: -m0
  Conclusion: CDDA 100%
  Signature: 90474D8C32141604218A41970136E6E9810A0066
FILE: 12. Год Змеи – Календарь.flac
  Size: 37614739 Hash: 3143FED6AB85FB22B4D49A2273F1E6D8 Accuracy: -m0
  Conclusion: MPEG 91%
  Signature: 07F83533E17120B17744E258CDF647DC4CC1DB1B
FILE: 11. Год Змеи – Вирус.flac
  Size: 16124974 Hash: D7E5EB779EB83F608A399031FE842EE4 Accuracy: -m0
  Conclusion: CDDA 100%
  Signature: 8F72FB9D68ADFF654A50BB33169B3CF78F0EFE2E
FILE: 10. Год Змеи – Кинич Ахау.flac
  Size: 26774126 Hash: 3628E1FE2BFBCE2907B86921B78D66F7 Accuracy: -m0
  Conclusion: CDDA 100%
  Signature: 32CF46A0100AC39A47F7FBBD60B1C550E4F08861
FILE: 09. Год Змеи – Шторм.flac
  Size: 33722545 Hash: 33D1705325E648812BE6B9EF51E6186C Accuracy: -m0
  Conclusion: CDDA 100%
  Signature: E6D089315CA196F7F5801AE2D5CF268175D7277C
FILE: 08. Год Змеи – Прячься.flac
  Size: 19662653 Hash: 2529D05C824E5FF40FCBDF86B53DC9AF Accuracy: -m0
  Conclusion: CDDA 100%
  Signature: F8961BD5025E630C434C611AE6A6D8A1E5C3C2C1
FILE: 07. Год Змеи – 7 жизней.flac
  Size: 32412383 Hash: 56DA1B19BC99DCF1FA4816060ED5692C Accuracy: -m0
  Conclusion: CDDA 99%
  Signature: 4D60FF41B28F5DAF36C88A31CACEC6CD4E421D54
FILE: 06. Год Змеи – Крысы.flac
  Size: 25973213 Hash: F5007031CA85F67E27F15E49D41EF827 Accuracy: -m0
  Conclusion: CDDA 100%
  Signature: C6C6ADA7EB9A03659671D94356EDAAC2328FCB70
FILE: 05. Год Змеи – Возвращение.flac
  Size: 44434225 Hash: 8B52261F9F4040E6607EA549E7D6D7B8 Accuracy: -m0
  Conclusion: CDDA 100%
  Signature: 8233701B151551D2F272F60D01DE8924E77A3A12
FILE: 04. Год Змеи – Узелки.flac
  Size: 23131552 Hash: 8D0E1141C7324ADFF2C702D879BBA7C2 Accuracy: -m0
  Conclusion: CDDA 100%
  Signature: 0E5E026B76D0F742F67B402DE120E4B4B038520C
FILE: 03. Год Змеи – Жить.flac
  Size: 19400295 Hash: B79A5AAD770B46D5F57B32401FDDC521 Accuracy: -m0
  Conclusion: CDDA 100%
  Signature: 9708BAEB735D522C1E67FD43FF9E8062724CB303
FILE: 02. Год Змеи – Оторваться.flac
  Size: 29906842 Hash: 09BA19D3999F2784536A49396EC431E4 Accuracy: -m0
  Conclusion: MPEG 95%
  Signature: 015FE6D5906073C45D1CDD66153AB46265571774
FILE: 01. Год Змеи – Отсчет.flac
  Size: 24070667 Hash: 1B6E11C548F4930E44197BA940484A56 Accuracy: -m0
  Conclusion: CDDA 100%
  Signature: 2C36CA1EF9325E9D33320ED1583C771EC49C56EF

Содержание индексной карты (.CUE)

Код:
REM GENRE Rock
REM DATE 2009
REM DISCID 900AAB0D
REM COMMENT "ExactAudioCopy v0.99pb5"
PERFORMER "Год Змеи"
TITLE "Кинич Ахау"
FILE "01. Год Змеи – Отсчет.flac" WAVE
  TRACK 01 AUDIO
    TITLE "Отсчет"
    PERFORMER "Год Змеи"
    INDEX 01 00:00:00
  TRACK 02 AUDIO
    TITLE "Оторваться"
    PERFORMER "Год Змеи"
    INDEX 00 02:46:33
FILE "02. Год Змеи – Оторваться.flac" WAVE
    INDEX 01 00:00:00
  TRACK 03 AUDIO
    TITLE "Жить"
    PERFORMER "Год Змеи"
    INDEX 00 03:52:29
FILE "03. Год Змеи – Жить.flac" WAVE
    INDEX 01 00:00:00
  TRACK 04 AUDIO
    TITLE "Узелки"
    PERFORMER "Год Змеи"
    INDEX 00 02:27:26
FILE "04. Год Змеи – Узелки.flac" WAVE
    INDEX 01 00:00:00
  TRACK 05 AUDIO
    TITLE "Возвращение"
    PERFORMER "Год Змеи"
    INDEX 00 03:07:62
FILE "05. Год Змеи – Возвращение.flac" WAVE
    INDEX 01 00:00:00
  TRACK 06 AUDIO
    TITLE "Крысы"
    PERFORMER "Год Змеи"
    INDEX 00 06:14:16
FILE "06. Год Змеи – Крысы.flac" WAVE
    INDEX 01 00:00:00
  TRACK 07 AUDIO
    TITLE "7 жизней"
    PERFORMER "Год Змеи"
    INDEX 00 03:24:62
FILE "07. Год Змеи – 7 жизней.flac" WAVE
    INDEX 01 00:00:00
  TRACK 08 AUDIO
    TITLE "Прячься"
    PERFORMER "Год Змеи"
    INDEX 00 04:05:23
FILE "08. Год Змеи – Прячься.flac" WAVE
    INDEX 01 00:00:00
  TRACK 09 AUDIO
    TITLE "Шторм"
    PERFORMER "Год Змеи"
    INDEX 00 02:28:29
FILE "09. Год Змеи – Шторм.flac" WAVE
    INDEX 01 00:00:00
  TRACK 10 AUDIO
    TITLE "Кинич Ахау"
    PERFORMER "Год Змеи"
    INDEX 00 04:38:59
FILE "10. Год Змеи – Кинич Ахау.flac" WAVE
    INDEX 01 00:00:00
  TRACK 11 AUDIO
    TITLE "Вирус"
    PERFORMER "Год Змеи"
    INDEX 00 03:23:06
FILE "11. Год Змеи – Вирус.flac" WAVE
    INDEX 01 00:00:00
  TRACK 12 AUDIO
    TITLE "Календарь"
    PERFORMER "Год Змеи"
    INDEX 00 02:14:62
FILE "12. Год Змеи – Календарь.flac" WAVE
    INDEX 01 00:00:00
  TRACK 13 AUDIO
    TITLE "2012"
    PERFORMER "Год Змеи"
    INDEX 00 04:58:07
FILE "13. Год Змеи – 2012.flac" WAVE
    INDEX 01 00:00:00

2011 - Змеелов

Треклист:
01. Пролог (1:20)
02. Выбираю (3:39)
03. Зови (4:22)
04. Прости (3:50)
05. Змеелов (3:15)
06. Икар (2:39)
07. Танцуй (3:03)
08. Ветер (3:46)
09. Ангел 2 (рандеву) (4:29)
10. /личность с низкой социальной ответственностью/ весна (4:04)
11. Сколько (3:06)
12. Штучки (3:28)
13. Если (3:06)
14. Айда (3:56)
15. Шоу (3:48)
16. Радуйся (3:46)
17. Эпилог (1:28)
Продолжительность:00:56:58

Отчёт ЕАС:

Код:
Exact Audio Copy V1.0 beta 3 from 29. August 2011
Отчёт EAC об извлечении, выполненном 12. марта 2012, 16:43
- / Змеелов
Дисковод: _NEC    DVD_RW ND-4571A   Adapter: 0  ID: 0
Режим чтения                 : Достоверность
Использование точного потока : Да
Отключение кэша аудио        : Да
Использование указателей C2  : Нет
Коррекция смещения при чтении                     : 48
Способность читать области Lead-in и Lead-out     : Нет
Заполнение пропущенных сэмплов тишиной            : Да
Удаление блоков с тишиной в начале и конце        : Нет
При вычислениях CRC использовались нулевые сэмплы : Да
Интерфейс                                         : Встроенный Win32-интерфейс для Win NT/2000
Обработка зазоров                                 : Добавлено к предыдущему треку
Выходной формат          : Пользовательский кодировщик
Выбранный битрейт        : 768 kBit/s
Качество                 : Высокий
Добавление ID3-тега      : Нет
Утилита сжатия           : C:\Program Files (x86)\Exact Audio Copy\FLAC\FLAC.EXE
Дополнительные параметры : -V -8 -T "Genre=%genre%" -T "Artist=%artist%" -T "Title=%title%" -T "Album=%albumtitle%" -T "Date=%year%" -T "Tracknumber=%tracknr%" -T "Comment=%comment%" %source%
TOC извлечённого CD
     Трек |   Старт  | Длительность | Начальный сектор | Конечный сектор
    ---------------------------------------------------------------------
       1  |  0:00.00 |    1:20.00   |           0      |       5999
       2  |  1:20.00 |    3:38.74   |        6000      |      22423
       3  |  4:58.74 |    4:21.23   |       22424      |      42021
       4  |  9:20.22 |    3:49.41   |       42022      |      59237
       5  | 13:09.63 |    3:14.65   |       59238      |      73852
       6  | 16:24.53 |    2:38.36   |       73853      |      85738
       7  | 19:03.14 |    3:02.61   |       85739      |      99449
       8  | 22:06.00 |    3:45.16   |       99450      |     116340
       9  | 25:51.16 |    4:28.68   |      116341      |     136508
      10  | 30:20.09 |    4:03.70   |      136509      |     154803
      11  | 34:24.04 |    3:05.37   |      154804      |     168715
      12  | 37:29.41 |    3:27.46   |      168716      |     184286
      13  | 40:57.12 |    3:05.48   |      184287      |     198209
      14  | 44:02.60 |    3:55.45   |      198210      |     215879
      15  | 47:58.30 |    3:47.20   |      215880      |     232924
      16  | 51:45.50 |    3:45.16   |      232925      |     249815
      17  | 55:30.66 |    1:28.00   |      249816      |     256415
Трек  1
     Имя файла E:\Год змеи - EAC\Змеелов\01. Год Змеи - Пролог.wav
     Длина предзазора  0:00:02.00
     Пиковый уровень 70.7 %
     Скорость извлечения 0.6 X
     Качество трека 99.8 %
     CRC теста C718EB3B
     CRC копии C718EB3B
     Копирование... OK
Трек  2
     Имя файла E:\Год змеи - EAC\Змеелов\02. Год Змеи - Выбираю.wav
     Длина предзазора  0:00:02.00
     Пиковый уровень 100.0 %
     Скорость извлечения 1.0 X
     Качество трека 100.0 %
     CRC теста 81BC579B
     CRC копии 81BC579B
     Копирование... OK
Трек  3
     Имя файла E:\Год змеи - EAC\Змеелов\03. Год Змеи - Зови.wav
     Длина предзазора  0:00:02.00
     Пиковый уровень 100.0 %
     Скорость извлечения 1.0 X
     Качество трека 100.0 %
     CRC теста 30F1A3C4
     CRC копии 30F1A3C4
     Копирование... OK
Трек  4
     Имя файла E:\Год змеи - EAC\Змеелов\04. Год Змеи - Прости.wav
     Длина предзазора  0:00:02.00
     Пиковый уровень 100.0 %
     Скорость извлечения 1.0 X
     Качество трека 100.0 %
     CRC теста DB2C10E4
     CRC копии DB2C10E4
     Копирование... OK
Трек  5
     Имя файла E:\Год змеи - EAC\Змеелов\05. Год Змеи - Змеелов.wav
     Длина предзазора  0:00:02.00
     Пиковый уровень 100.0 %
     Скорость извлечения 0.8 X
     Качество трека 99.9 %
     CRC теста A4D567BF
     CRC копии A4D567BF
     Копирование... OK
Трек  6
     Имя файла E:\Год змеи - EAC\Змеелов\06. Год Змеи - Икар.wav
     Длина предзазора  0:00:02.00
     Пиковый уровень 100.0 %
     Скорость извлечения 1.0 X
     Качество трека 100.0 %
     CRC теста C83478DF
     CRC копии C83478DF
     Копирование... OK
Трек  7
     Имя файла E:\Год змеи - EAC\Змеелов\07. Год Змеи - Танцуй.wav
     Длина предзазора  0:00:02.00
     Пиковый уровень 100.0 %
     Скорость извлечения 1.0 X
     Качество трека 100.0 %
     CRC теста FA24F042
     CRC копии FA24F042
     Копирование... OK
Трек  8
     Имя файла E:\Год змеи - EAC\Змеелов\08. Год Змеи - Ветер.wav
     Длина предзазора  0:00:02.00
     Пиковый уровень 100.0 %
     Скорость извлечения 1.0 X
     Качество трека 100.0 %
     CRC теста 3308EA7C
     CRC копии 3308EA7C
     Копирование... OK
Трек  9
     Имя файла E:\Год змеи - EAC\Змеелов\09. Год Змеи - Ангел 2 (рандеву).wav
     Длина предзазора  0:00:02.00
     Пиковый уровень 100.0 %
     Скорость извлечения 0.9 X
     Качество трека 99.9 %
     CRC теста 5C0AB0DA
     CRC копии 5C0AB0DA
     Копирование... OK
Трек 10
     Имя файла E:\Год змеи - EAC\Змеелов\10. Год Змеи - /личность с низкой социальной ответственностью/ весна.wav
     Длина предзазора  0:00:02.00
     Пиковый уровень 100.0 %
     Скорость извлечения 1.0 X
     Качество трека 100.0 %
     CRC теста 65906DD2
     CRC копии 65906DD2
     Копирование... OK
Трек 11
     Имя файла E:\Год змеи - EAC\Змеелов\11. Год Змеи - Сколько.wav
     Длина предзазора  0:00:02.00
     Пиковый уровень 100.0 %
     Скорость извлечения 1.0 X
     Качество трека 100.0 %
     CRC теста 731CAF53
     CRC копии 731CAF53
     Копирование... OK
Трек 12
     Имя файла E:\Год змеи - EAC\Змеелов\12. Год Змеи - Штучки.wav
     Длина предзазора  0:00:02.00
     Пиковый уровень 100.0 %
     Скорость извлечения 1.0 X
     Качество трека 100.0 %
     CRC теста C7F533F6
     CRC копии C7F533F6
     Копирование... OK
Трек 13
     Имя файла E:\Год змеи - EAC\Змеелов\13. Год Змеи - Если.wav
     Длина предзазора  0:00:02.00
     Пиковый уровень 100.0 %
     Скорость извлечения 1.0 X
     Качество трека 100.0 %
     CRC теста 5FFFCCD1
     CRC копии 5FFFCCD1
     Копирование... OK
Трек 14
     Имя файла E:\Год змеи - EAC\Змеелов\14. Год Змеи - Айда.wav
     Длина предзазора  0:00:02.00
     Пиковый уровень 100.0 %
     Скорость извлечения 1.0 X
     Качество трека 100.0 %
     CRC теста 7A8BF78D
     CRC копии 7A8BF78D
     Копирование... OK
Трек 15
     Имя файла E:\Год змеи - EAC\Змеелов\15. Год Змеи - Шоу.wav
     Длина предзазора  0:00:02.00
     Пиковый уровень 100.0 %
     Скорость извлечения 1.0 X
     Качество трека 100.0 %
     CRC теста D2896F14
     CRC копии D2896F14
     Копирование... OK
Трек 16
     Имя файла E:\Год змеи - EAC\Змеелов\16. Год Змеи - Радуйся.wav
     Длина предзазора  0:00:02.00
     Пиковый уровень 100.0 %
     Скорость извлечения 1.0 X
     Качество трека 100.0 %
     CRC теста D8DB96B4
     CRC копии D8DB96B4
     Копирование... OK
Трек 17
     Имя файла E:\Год змеи - EAC\Змеелов\17. Год Змеи - Эпилог.wav
     Длина предзазора  0:00:02.00
     Пиковый уровень 81.5 %
     Скорость извлечения 0.6 X
     Качество трека 99.8 %
     CRC теста 6C1624CF
     CRC копии 6C1624CF
     Копирование... OK
Ошибок не произошло
Конец отчёта
==== Контрольная сумма отчёта 8ADD551F40796D002116EE104C54ADF708AB943855B33293E9CD822BF45A2A5B ====

Отчёт auCDtect Task manager:

Код:
-----------------------
DON'T MODIFY THIS FILE
-----------------------
PERFORMER: auCDtect Task Manager, ver. 1.6.0 RC1 build 1.6.0.1
Copyright (c) 2008-2010 y-soft. All rights reserved
http://y-soft.org
ANALYZER: auCDtect: CD records authenticity detector, version 0.8.2
Copyright (c) 2004 Oleg Berngardt. All rights reserved.
Copyright (c) 2004 Alexander Djourik. All rights reserved.
FILE: 17. Год Змеи - Эпилог.flac
  Size: 8124403 Hash: ADF6030DAF9061C9F16000BD3C8E782C Accuracy: -m0
  Conclusion: CDDA 42%
  Signature: DE425E2ACA1559E549C1D8A771E31B0E5212FCDA
FILE: 16. Год Змеи - Радуйся.flac
  Size: 24418263 Hash: 057EBB1DBA24F0102CF5F965C8A1EB1B Accuracy: -m0
  Conclusion: CDDA 100%
  Signature: 2FC254A893D5BDD0C0E92E1C3AEB350CD776DC6E
FILE: 15. Год Змеи - Шоу.flac
  Size: 26095232 Hash: F46D4187E0B83A1CA077233C5659E238 Accuracy: -m0
  Conclusion: CDDA 100%
  Signature: 254552F625F98F9C982B520609CAAE313AB095A5
FILE: 14. Год Змеи - Айда.flac
  Size: 29319061 Hash: 1C58341A7D97CDEEAF60BFB5AD511B68 Accuracy: -m0
  Conclusion: CDDA 100%
  Signature: 581E31AE8AA0CB6BD9D69A71E7324480A82A5A7B
FILE: 13. Год Змеи - Если.flac
  Size: 21653505 Hash: 0DD4ED9BF962ACCA1FB7B4ED8310AE67 Accuracy: -m0
  Conclusion: CDDA 100%
  Signature: B7374B9C9E271004FBC6C47426FBEAB14DA15FD6
FILE: 12. Год Змеи - Штучки.flac
  Size: 26269984 Hash: 7E9C360122148E20B21777D27DEA3888 Accuracy: -m0
  Conclusion: CDDA 100%
  Signature: 1C17E9EB167E05D820A7772C24158428EE3DBE47
FILE: 11. Год Змеи - Сколько.flac
  Size: 22297150 Hash: 7EFBE797978113554184C5AD4FAC22FF Accuracy: -m0
  Conclusion: CDDA 100%
  Signature: F3DA89B6A3457F91A69E3DFCD05B4910B904D19D
FILE: 10. Год Змеи - /личность с низкой социальной ответственностью/ весна.flac
  Size: 30424342 Hash: 015BAE0CF344FD60A3A7DD7D2502C4B3 Accuracy: -m0
  Conclusion: CDDA 100%
  Signature: 317FC2602C95D140FB14C7E11E8236C8A37C9437
FILE: 09. Год Змеи - Ангел 2 (рандеву).flac
  Size: 29698102 Hash: 87612717EB81E42DCCF1F28C40151311 Accuracy: -m0
  Conclusion: CDDA 100%
  Signature: DC6EA143F20034AB27B988229C74D096FABD16D4
FILE: 08. Год Змеи - Ветер.flac
  Size: 26373577 Hash: 0CFE06142A2B114E7432B1A31D42A304 Accuracy: -m0
  Conclusion: CDDA 100%
  Signature: 5ED11FCC1CADF65741CDCA2244C76451261A14F3
FILE: 07. Год Змеи - Танцуй.flac
  Size: 20553968 Hash: 4273BE11E199623A300D3AFD91A9CB2F Accuracy: -m0
  Conclusion: CDDA 100%
  Signature: B9F543F623DE7C6290AA514221D481F6E7697FAE
FILE: 06. Год Змеи - Икар.flac
  Size: 18872532 Hash: 7E41A7A44F58E57C6F7E9E17259A7C55 Accuracy: -m0
  Conclusion: CDDA 100%
  Signature: E0D2FB35576F1AA28D0299660485D5C56CE74015
FILE: 05. Год Змеи - Змеелов.flac
  Size: 21938445 Hash: 030160E6CE903BAB64A5EF6E199EAF12 Accuracy: -m0
  Conclusion: CDDA 100%
  Signature: E2F550CA0C49E3029EFC03F3F106AA0D1E066EB7
FILE: 04. Год Змеи - Прости.flac
  Size: 26999020 Hash: A12404C4CDAD24022DA4FF36F6789578 Accuracy: -m0
  Conclusion: CDDA 100%
  Signature: FBAB12DAED3171E2C6FA6C8EA5924D54416ABEFE
FILE: 03. Год Змеи - Зови.flac
  Size: 30672559 Hash: 0997586759B57D9875E376629E11E125 Accuracy: -m0
  Conclusion: CDDA 100%
  Signature: ED22CB5A615CE42ABE26DE23061D0C03D7C82D6C
FILE: 02. Год Змеи - Выбираю.flac
  Size: 27688015 Hash: 75639C18FC75467B3685252B7BE0A8F1 Accuracy: -m0
  Conclusion: CDDA 100%
  Signature: DB9916DC2D4D5E8C61F110A0CF7297D1C5DF4493
FILE: 01. Год Змеи - Пролог.flac
  Size: 6401522 Hash: 7D26D4938AD597F2B4FC06962998DEAA Accuracy: -m0
  Conclusion: CDDA 85%
  Signature: 51441FF7EBA264320FDAB6A97B4BAE27D029EB20

Содержание индексной карты (.CUE)

Код:
REM GENRE Rock
REM DATE 2011
REM DISCID DC0D5A11
REM COMMENT "ExactAudioCopy v1.0b3"
PERFORMER ""
TITLE "Змеелов"
FILE "01. Год Змеи - Пролог.flac" WAVE
  TRACK 01 AUDIO
    TITLE "Пролог"
    PERFORMER "Год Змеи"
    FLAGS DCP
    INDEX 01 00:00:00
  TRACK 02 AUDIO
    TITLE "Выбираю"
    PERFORMER "Год Змеи"
    FLAGS DCP
    INDEX 00 01:18:00
FILE "02. Год Змеи - Выбираю.flac" WAVE
    INDEX 01 00:00:00
    INDEX 02 00:00:45
  TRACK 03 AUDIO
    TITLE "Зови"
    PERFORMER "Год Змеи"
    FLAGS DCP
    INDEX 00 03:36:74
FILE "03. Год Змеи - Зови.flac" WAVE
    INDEX 01 00:00:00
    INDEX 02 00:00:58
  TRACK 04 AUDIO
    TITLE "Прости"
    PERFORMER "Год Змеи"
    FLAGS DCP
    INDEX 00 04:19:23
FILE "04. Год Змеи - Прости.flac" WAVE
    INDEX 01 00:00:00
  TRACK 05 AUDIO
    TITLE "Змеелов"
    PERFORMER "Год Змеи"
    FLAGS DCP
    INDEX 00 03:47:41
FILE "05. Год Змеи - Змеелов.flac" WAVE
    INDEX 01 00:00:00
  TRACK 06 AUDIO
    TITLE "Икар"
    PERFORMER "Год Змеи"
    FLAGS DCP
    INDEX 00 03:12:65
FILE "06. Год Змеи - Икар.flac" WAVE
    INDEX 01 00:00:00
  TRACK 07 AUDIO
    TITLE "Танцуй"
    PERFORMER "Год Змеи"
    FLAGS DCP
    INDEX 00 02:36:36
FILE "07. Год Змеи - Танцуй.flac" WAVE
    INDEX 01 00:00:00
    INDEX 02 00:01:02
  TRACK 08 AUDIO
    TITLE "Ветер"
    PERFORMER "Год Змеи"
    FLAGS DCP
    INDEX 00 03:00:61
FILE "08. Год Змеи - Ветер.flac" WAVE
    INDEX 01 00:00:00
  TRACK 09 AUDIO
    TITLE "Ангел 2 (рандеву)"
    PERFORMER "Год Змеи"
    FLAGS DCP
    INDEX 00 03:43:16
FILE "09. Год Змеи - Ангел 2 (рандеву).flac" WAVE
    INDEX 01 00:00:00
    INDEX 02 00:01:68
  TRACK 10 AUDIO
    TITLE "/личность с низкой социальной ответственностью/ весна"
    PERFORMER "Год Змеи"
    FLAGS DCP
    INDEX 00 04:26:68
FILE "10. Год Змеи - /личность с низкой социальной ответственностью/ весна.flac" WAVE
    INDEX 01 00:00:00
  TRACK 11 AUDIO
    TITLE "Сколько"
    PERFORMER "Год Змеи"
    FLAGS DCP
    INDEX 00 04:01:70
FILE "11. Год Змеи - Сколько.flac" WAVE
    INDEX 01 00:00:00
    INDEX 02 00:00:72
  TRACK 12 AUDIO
    TITLE "Штучки"
    PERFORMER "Год Змеи"
    FLAGS DCP
    INDEX 00 03:03:37
FILE "12. Год Змеи - Штучки.flac" WAVE
    INDEX 01 00:00:00
  TRACK 13 AUDIO
    TITLE "Если"
    PERFORMER "Год Змеи"
    FLAGS DCP
    INDEX 00 03:25:46
FILE "13. Год Змеи - Если.flac" WAVE
    INDEX 01 00:00:00
  TRACK 14 AUDIO
    TITLE "Айда"
    PERFORMER "Год Змеи"
    FLAGS DCP
    INDEX 00 03:03:48
FILE "14. Год Змеи - Айда.flac" WAVE
    INDEX 01 00:00:00
    INDEX 02 00:01:09
  TRACK 15 AUDIO
    TITLE "Шоу"
    PERFORMER "Год Змеи"
    FLAGS DCP
    INDEX 00 03:53:45
FILE "15. Год Змеи - Шоу.flac" WAVE
    INDEX 01 00:00:00
    INDEX 02 00:00:49
  TRACK 16 AUDIO
    TITLE "Радуйся"
    PERFORMER "Год Змеи"
    FLAGS DCP
    INDEX 00 03:45:20
FILE "16. Год Змеи - Радуйся.flac" WAVE
    INDEX 01 00:00:00
    INDEX 02 00:00:59
  TRACK 17 AUDIO
    TITLE "Эпилог"
    PERFORMER "Год Змеи"
    FLAGS DCP
    INDEX 00 03:43:16
FILE "17. Год Змеи - Эпилог.flac" WAVE
    INDEX 01 00:00:00

2012 - Шаг Навстречу... (Аккустика)

Треклист:
01. Шаг навстречу (3:54)
02. Рождество (4:07)
03. Счастье (2:33)
04. 5ml (3:59)
05. 7 жизней (3:30)
06. Иголочка (2:28)
07. Я научу (3:14)
08. 2000 баксов (3:07)
09. Капли (2:04)
10. Код доступа (2:45)
11. Все нормально (3:19)
12. 10 дней (4:05)
Продолжительность: 00:38:59

Отчёт ЕАС:

Код:
Exact Audio Copy V1.0 beta 3 from 29. August 2011
Отчёт EAC об извлечении, выполненном 12. марта 2012, 13:20
- / Шаг навстречу...
Дисковод: _NEC    DVD_RW ND-4571A   Adapter: 0  ID: 0
Режим чтения                 : Достоверность
Использование точного потока : Да
Отключение кэша аудио        : Да
Использование указателей C2  : Нет
Коррекция смещения при чтении                     : 48
Способность читать области Lead-in и Lead-out     : Нет
Заполнение пропущенных сэмплов тишиной            : Да
Удаление блоков с тишиной в начале и конце        : Нет
При вычислениях CRC использовались нулевые сэмплы : Да
Интерфейс                                         : Встроенный Win32-интерфейс для Win NT/2000
Обработка зазоров                                 : Добавлено к предыдущему треку
Выходной формат          : Пользовательский кодировщик
Выбранный битрейт        : 768 kBit/s
Качество                 : Высокий
Добавление ID3-тега      : Нет
Утилита сжатия           : C:\Program Files (x86)\Exact Audio Copy\FLAC\FLAC.EXE
Дополнительные параметры : -V -8 -T "Genre=%genre%" -T "Artist=%artist%" -T "Title=%title%" -T "Album=%albumtitle%" -T "Date=%year%" -T "Tracknumber=%tracknr%" -T "Comment=%comment%" %source%
TOC извлечённого CD
     Трек |   Старт  | Длительность | Начальный сектор | Конечный сектор
    ---------------------------------------------------------------------
       1  |  0:00.00 |    3:53.67   |           0      |      17541
       2  |  3:53.67 |    4:06.16   |       17542      |      36007
       3  |  8:00.08 |    2:32.16   |       36008      |      47423
       4  | 10:32.24 |    3:58.71   |       47424      |      65344
       5  | 14:31.20 |    3:29.49   |       65345      |      81068
       6  | 18:00.69 |    2:27.23   |       81069      |      92116
       7  | 20:28.17 |    3:13.23   |       92117      |     106614
       8  | 23:41.40 |    3:06.30   |      106615      |     120594
       9  | 26:47.70 |    2:03.26   |      120595      |     129845
      10  | 28:51.21 |    2:44.16   |      129846      |     142161
      11  | 31:35.37 |    3:18.73   |      142162      |     157084
      12  | 34:54.35 |    4:04.50   |      157085      |     175434
Трек  1
     Имя файла E:\Год змеи - EAC\Шаг навстречу...\01. Год Змеи - Шаг навстречу.wav
     Длина предзазора  0:00:02.00
     Пиковый уровень 100.0 %
     Скорость извлечения 4.8 X
     Качество трека 100.0 %
     CRC теста 229AC737
     CRC копии 229AC737
     Копирование... OK
Трек  2
     Имя файла E:\Год змеи - EAC\Шаг навстречу...\02. Год Змеи - Рождество.wav
     Пиковый уровень 100.0 %
     Скорость извлечения 5.3 X
     Качество трека 100.0 %
     CRC теста 65EB5BB4
     CRC копии 65EB5BB4
     Копирование... OK
Трек  3
     Имя файла E:\Год змеи - EAC\Шаг навстречу...\03. Год Змеи - Счастье.wav
     Пиковый уровень 100.0 %
     Скорость извлечения 5.2 X
     Качество трека 100.0 %
     CRC теста 6C65B8AB
     CRC копии 6C65B8AB
     Копирование... OK
Трек  4
     Имя файла E:\Год змеи - EAC\Шаг навстречу...\04. Год Змеи - 5ml.wav
     Пиковый уровень 100.0 %
     Скорость извлечения 5.9 X
     Качество трека 100.0 %
     CRC теста 8E588DC9
     CRC копии 8E588DC9
     Копирование... OK
Трек  5
     Имя файла E:\Год змеи - EAC\Шаг навстречу...\05. Год Змеи - 7 жизней.wav
     Пиковый уровень 100.0 %
     Скорость извлечения 6.2 X
     Качество трека 100.0 %
     CRC теста 23F71CDF
     CRC копии 23F71CDF
     Копирование... OK
Трек  6
     Имя файла E:\Год змеи - EAC\Шаг навстречу...\06. Год Змеи - Иголочка.wav
     Пиковый уровень 100.0 %
     Скорость извлечения 5.9 X
     Качество трека 100.0 %
     CRC теста 640651BB
     CRC копии 640651BB
     Копирование... OK
Трек  7
     Имя файла E:\Год змеи - EAC\Шаг навстречу...\07. Год Змеи - Я научу.wav
     Пиковый уровень 100.0 %
     Скорость извлечения 6.5 X
     Качество трека 100.0 %
     CRC теста 41A12EB5
     CRC копии 41A12EB5
     Копирование... OK
Трек  8
     Имя файла E:\Год змеи - EAC\Шаг навстречу...\08. Год Змеи - 2000 баксов.wav
     Пиковый уровень 100.0 %
     Скорость извлечения 6.7 X
     Качество трека 100.0 %
     CRC теста 9D67D452
     CRC копии 9D67D452
     Копирование... OK
Трек  9
     Имя файла E:\Год змеи - EAC\Шаг навстречу...\09. Год Змеи - Капли.wav
     Пиковый уровень 100.0 %
     Скорость извлечения 6.3 X
     Качество трека 100.0 %
     CRC теста D01AA0FB
     CRC копии D01AA0FB
     Копирование... OK
Трек 10
     Имя файла E:\Год змеи - EAC\Шаг навстречу...\10. Год Змеи - Код доступа.wav
     Пиковый уровень 100.0 %
     Скорость извлечения 6.9 X
     Качество трека 100.0 %
     CRC теста 86D3A0DF
     CRC копии 86D3A0DF
     Копирование... OK
Трек 11
     Имя файла E:\Год змеи - EAC\Шаг навстречу...\11. Год Змеи - Все нормально.wav
     Пиковый уровень 100.0 %
     Скорость извлечения 7.4 X
     Качество трека 100.0 %
     CRC теста D63EF7C4
     CRC копии D63EF7C4
     Копирование... OK
Трек 12
     Имя файла E:\Год змеи - EAC\Шаг навстречу...\12. Год Змеи - 10 дней.wav
     Пиковый уровень 100.0 %
     Скорость извлечения 6.9 X
     Качество трека 99.9 %
     CRC теста 16491433
     CRC копии 16491433
     Копирование... OK
Ошибок не произошло
Конец отчёта
==== Контрольная сумма отчёта 9A94D61F017A019432B4F2D822A6C2A8529EA321756A8B4712C017DB3FAA3A59 ====

Отчёт auCDtect Task manager:

Код:
-----------------------
DON'T MODIFY THIS FILE
-----------------------
PERFORMER: auCDtect Task Manager, ver. 1.6.0 RC1 build 1.6.0.1
Copyright (c) 2008-2010 y-soft. All rights reserved
http://y-soft.org
ANALYZER: auCDtect: CD records authenticity detector, version 0.8.2
Copyright (c) 2004 Oleg Berngardt. All rights reserved.
Copyright (c) 2004 Alexander Djourik. All rights reserved.
FILE: 12. Год Змеи - 10 дней.flac
  Size: 29989128 Hash: 9FFD684A92EF974F3B56D1139A79E37B Accuracy: -m0
  Conclusion: CDDA 100%
  Signature: EA126CCE666B7727D2A61DE89D765346F2D93916
FILE: 11. Год Змеи - Все нормально.flac
  Size: 24224644 Hash: EA8480441D65E7E17E668895B075321D Accuracy: -m0
  Conclusion: CDDA 100%
  Signature: 59629B15CDF03F53DE3C5071000F958EB8EB2533
FILE: 10. Год Змеи - Код доступа.flac
  Size: 19910819 Hash: 79E8EEFE6C40D6B9795B1BE1F9991930 Accuracy: -m0
  Conclusion: CDDA 100%
  Signature: F9DB418B963F3A3CDFFDB886C9C92D32A28AEA05
FILE: 09. Год Змеи - Капли.flac
  Size: 15287638 Hash: 89358A623CE17E89D4A8B5A70093B58E Accuracy: -m0
  Conclusion: CDDA 100%
  Signature: 9C3D9953F7F55893CED363EBF54123D5CE018334
FILE: 08. Год Змеи - 2000 баксов.flac
  Size: 23330289 Hash: 35A858BA79344E9EF41517013BA8246F Accuracy: -m0
  Conclusion: CDDA 100%
  Signature: E276797F42F35730A04D391672DA7722D48779FD
FILE: 07. Год Змеи - Я научу.flac
  Size: 23380643 Hash: 9524C6158ABE00A8932F5091FD95D815 Accuracy: -m0
  Conclusion: CDDA 99%
  Signature: F75BEC38E3F8DD2AD95FDF1A479AF4F797BBF1BD
FILE: 06. Год Змеи - Иголочка.flac
  Size: 19138396 Hash: DB7A3DE8E28948C22BF6CC42B1488A2B Accuracy: -m0
  Conclusion: CDDA 100%
  Signature: EDD6A5EBCC1FEA19FC41ABF55C5043FA0F31B98C
FILE: 05. Год Змеи - 7 жизней.flac
  Size: 26531627 Hash: 8B7D03D9E2D99A5E30B5FA2C326EE3DF Accuracy: -m0
  Conclusion: CDDA 100%
  Signature: C2E40BE61526DC9DA310507F7DBE5CA77810FEA0
FILE: 04. Год Змеи - 5ml.flac
  Size: 29668614 Hash: 0F265C766F7964E890BDDAB580D63706 Accuracy: -m0
  Conclusion: CDDA 99%
  Signature: 1C3C15978132AEF62E2AD7FC167075A5AE76DB62
FILE: 03. Год Змеи - Счастье.flac
  Size: 19697188 Hash: 6D38F4CF36AF8941ED69BEDEA6CF0A6E Accuracy: -m0
  Conclusion: CDDA 100%
  Signature: AA1E9367B266BB863700CC1E4C637744C2BD78D0
FILE: 02. Год Змеи - Рождество.flac
  Size: 30862057 Hash: DF927BF29F9553DF30C0D2AA699B58BC Accuracy: -m0
  Conclusion: CDDA 99%
  Signature: CF93C3444648267A4393C466B1262DF0DEF7D3FE
FILE: 01. Год Змеи - Шаг навстречу.flac
  Size: 28420221 Hash: 89A8EBE0369E6933D16DB2F56C9673E6 Accuracy: -m0
  Conclusion: CDDA 99%
  Signature: 70F7E6A41F53262103DE6F403BF2F12915D2F7FD

Содержание индексной карты (.CUE)

Код:
REM DISCID 9C09230C
REM COMMENT "ExactAudioCopy v1.0b3"
PERFORMER ""
TITLE "Шаг навстречу..."
FILE "01. Год Змеи - Шаг навстречу.flac" WAVE
  TRACK 01 AUDIO
    TITLE "Шаг навстречу"
    PERFORMER "Год Змеи"
    INDEX 01 00:00:00
FILE "02. Год Змеи - Рождество.flac" WAVE
  TRACK 02 AUDIO
    TITLE "Рождество"
    PERFORMER "Год Змеи"
    INDEX 01 00:00:00
FILE "03. Год Змеи - Счастье.flac" WAVE
  TRACK 03 AUDIO
    TITLE "Счастье"
    PERFORMER "Год Змеи"
    INDEX 01 00:00:00
FILE "04. Год Змеи - 5ml.flac" WAVE
  TRACK 04 AUDIO
    TITLE "5ml"
    PERFORMER "Год Змеи"
    INDEX 01 00:00:00
FILE "05. Год Змеи - 7 жизней.flac" WAVE
  TRACK 05 AUDIO
    TITLE "7 жизней"
    PERFORMER "Год Змеи"
    INDEX 01 00:00:00
FILE "06. Год Змеи - Иголочка.flac" WAVE
  TRACK 06 AUDIO
    TITLE "Иголочка"
    PERFORMER "Год Змеи"
    INDEX 01 00:00:00
FILE "07. Год Змеи - Я научу.flac" WAVE
  TRACK 07 AUDIO
    TITLE "Я научу"
    PERFORMER "Год Змеи"
    INDEX 01 00:00:00
FILE "08. Год Змеи - 2000 баксов.flac" WAVE
  TRACK 08 AUDIO
    TITLE "2000 баксов"
    PERFORMER "Год Змеи"
    INDEX 01 00:00:00
FILE "09. Год Змеи - Капли.flac" WAVE
  TRACK 09 AUDIO
    TITLE "Капли"
    PERFORMER "Год Змеи"
    INDEX 01 00:00:00
FILE "10. Год Змеи - Код доступа.flac" WAVE
  TRACK 10 AUDIO
    TITLE "Код доступа"
    PERFORMER "Год Змеи"
    INDEX 01 00:00:00
FILE "11. Год Змеи - Все нормально.flac" WAVE
  TRACK 11 AUDIO
    TITLE "Все нормально"
    PERFORMER "Год Змеи"
    INDEX 01 00:00:00
FILE "12. Год Змеи - 10 дней.flac" WAVE
  TRACK 12 AUDIO
    TITLE "10 дней"
    PERFORMER "Год Змеи"
    INDEX 01 00:00:00

2012 - Личное Дело 310

Треклист:
01. Личное дело (3:57)
02. Шаг (3:43.21)
03. Девочка панк (3:23)
04. Иллюзия (2:45.73)
05. Рок-концерт (3:24)
06. Сердце (3:20)
07. Когда ты ночью ляжешь спать (2:54)
08. В землянке (3:28)
09. Ты не та... (3:25)
10. Девочки танцуют (2:16)
11. 3:20 (5:24)
12. 3:20 (live version) (4:25)
13. Осень... седьмое (3:38)
14. Солнечный мир (4:35)
15. Где ты.. (4:32)
16. Я живу... (2:40)
Продолжительность: 00:57:43

Отчёт ЕАС:

Код:
Exact Audio Copy V1.0 beta 3 from 29. August 2011
Отчёт EAC об извлечении, выполненном 12. марта 2012, 13:57
- / Личное Дело 310
Дисковод: _NEC    DVD_RW ND-4571A   Adapter: 0  ID: 0
Режим чтения                 : Достоверность
Использование точного потока : Да
Отключение кэша аудио        : Да
Использование указателей C2  : Нет
Коррекция смещения при чтении                     : 48
Способность читать области Lead-in и Lead-out     : Нет
Заполнение пропущенных сэмплов тишиной            : Да
Удаление блоков с тишиной в начале и конце        : Нет
При вычислениях CRC использовались нулевые сэмплы : Да
Интерфейс                                         : Встроенный Win32-интерфейс для Win NT/2000
Обработка зазоров                                 : Добавлено к предыдущему треку
Выходной формат          : Пользовательский кодировщик
Выбранный битрейт        : 768 kBit/s
Качество                 : Высокий
Добавление ID3-тега      : Нет
Утилита сжатия           : C:\Program Files (x86)\Exact Audio Copy\FLAC\FLAC.EXE
Дополнительные параметры : -V -8 -T "Genre=%genre%" -T "Artist=%artist%" -T "Title=%title%" -T "Album=%albumtitle%" -T "Date=%year%" -T "Tracknumber=%tracknr%" -T "Comment=%comment%" %source%
TOC извлечённого CD
     Трек |   Старт  | Длительность | Начальный сектор | Конечный сектор
    ---------------------------------------------------------------------
       1  |  0:00.00 |    3:56.03   |           0      |      17702
       2  |  3:56.03 |    3:43.21   |       17703      |      34448
       3  |  7:39.24 |    3:22.48   |       34449      |      49646
       4  | 11:01.72 |    2:45.73   |       49647      |      62094
       5  | 13:47.70 |    3:23.55   |       62095      |      77374
       6  | 17:11.50 |    3:19.55   |       77375      |      92354
       7  | 20:31.30 |    2:53.51   |       92355      |     105380
       8  | 23:25.06 |    3:27.43   |      105381      |     120948
       9  | 26:52.49 |    3:24.25   |      120949      |     136273
      10  | 30:16.74 |    2:15.48   |      136274      |     146446
      11  | 32:32.47 |    5:23.42   |      146447      |     170713
      12  | 37:56.14 |    4:24.18   |      170714      |     190531
      13  | 42:20.32 |    3:37.37   |      190532      |     206843
      14  | 45:57.69 |    4:34.37   |      206844      |     227430
      15  | 50:32.31 |    4:31.64   |      227431      |     247819
      16  | 55:04.20 |    2:39.38   |      247820      |     259782
Трек  1
     Имя файла E:\Год змеи - EAC\Личное дело 310\01. Год Змеи - Личное дело.wav
     Длина предзазора  0:00:02.00
     Пиковый уровень 97.9 %
     Скорость извлечения 4.3 X
     Качество трека 99.9 %
     CRC теста D4963042
     CRC копии D4963042
     Копирование... OK
Трек  2
     Имя файла E:\Год змеи - EAC\Личное дело 310\02. Год Змеи - Шаг.wav
     Пиковый уровень 97.9 %
     Скорость извлечения 5.2 X
     Качество трека 100.0 %
     CRC теста 4BEE6474
     CRC копии 4BEE6474
     Копирование... OK
Трек  3
     Имя файла E:\Год змеи - EAC\Личное дело 310\03. Год Змеи - Девочка панк.wav
     Пиковый уровень 97.9 %
     Скорость извлечения 5.5 X
     Качество трека 100.0 %
     CRC теста 1F75AA3D
     CRC копии 1F75AA3D
     Копирование... OK
Трек  4
     Имя файла E:\Год змеи - EAC\Личное дело 310\04. Год Змеи - Иллюзия.wav
     Пиковый уровень 97.9 %
     Скорость извлечения 4.7 X
     Качество трека 99.9 %
     CRC теста 2B94A9AE
     CRC копии 2B94A9AE
     Копирование... OK
Трек  5
     Имя файла E:\Год змеи - EAC\Личное дело 310\05. Год Змеи - Рок-концерт.wav
     Пиковый уровень 97.9 %
     Скорость извлечения 6.0 X
     Качество трека 100.0 %
     CRC теста 40CE94DB
     CRC копии 40CE94DB
     Копирование... OK
Трек  6
     Имя файла E:\Год змеи - EAC\Личное дело 310\06. Год Змеи - Сердце.wav
     Пиковый уровень 97.9 %
     Скорость извлечения 6.3 X
     Качество трека 100.0 %
     CRC теста C431D213
     CRC копии C431D213
     Копирование... OK
Трек  7
     Имя файла E:\Год змеи - EAC\Личное дело 310\07. Год Змеи - Когда ты ночью ляжешь спать.wav
     Пиковый уровень 97.9 %
     Скорость извлечения 6.4 X
     Качество трека 100.0 %
     CRC теста F3027016
     CRC копии F3027016
     Копирование... OK
Трек  8
     Имя файла E:\Год змеи - EAC\Личное дело 310\08. Год Змеи - В землянке.wav
     Пиковый уровень 97.9 %
     Скорость извлечения 6.8 X
     Качество трека 100.0 %
     CRC теста 9052C35F
     CRC копии 9052C35F
     Копирование... OK
Трек  9
     Имя файла E:\Год змеи - EAC\Личное дело 310\09. Год Змеи - Ты не та....wav
     Пиковый уровень 97.9 %
     Скорость извлечения 7.1 X
     Качество трека 100.0 %
     CRC теста 0F85945E
     CRC копии 0F85945E
     Копирование... OK
Трек 10
     Имя файла E:\Год змеи - EAC\Личное дело 310\10. Год Змеи - Девочки танцуют.wav
     Пиковый уровень 97.9 %
     Скорость извлечения 6.7 X
     Качество трека 100.0 %
     CRC теста 7C81083B
     CRC копии 7C81083B
     Копирование... OK
Трек 11
     Имя файла E:\Год змеи - EAC\Личное дело 310\11. Год Змеи - 3-20.wav
     Пиковый уровень 97.9 %
     Скорость извлечения 8.0 X
     Качество трека 100.0 %
     CRC теста 92413DA1
     CRC копии 92413DA1
     Копирование... OK
Трек 12
     Имя файла E:\Год змеи - EAC\Личное дело 310\12. Год Змеи - 3-20 (live version).wav
     Пиковый уровень 97.9 %
     Скорость извлечения 7.2 X
     Качество трека 99.9 %
     CRC теста 555EE57C
     CRC копии 555EE57C
     Копирование... OK
Трек 13
     Имя файла E:\Год змеи - EAC\Личное дело 310\13. Год Змеи - Осень... седьмое.wav
     Пиковый уровень 97.9 %
     Скорость извлечения 8.1 X
     Качество трека 100.0 %
     CRC теста DFE3A31A
     CRC копии DFE3A31A
     Копирование... OK
Трек 14
     Имя файла E:\Год змеи - EAC\Личное дело 310\14. Год Змеи - Солнечный мир.wav
     Пиковый уровень 97.9 %
     Скорость извлечения 8.6 X
     Качество трека 100.0 %
     CRC теста 3AFDB450
     CRC копии 3AFDB450
     Копирование... OK
Трек 15
     Имя файла E:\Год змеи - EAC\Личное дело 310\15. Год Змеи - Где ты...wav
     Пиковый уровень 97.9 %
     Скорость извлечения 8.9 X
     Качество трека 100.0 %
     CRC теста 544B75B5
     CRC копии 544B75B5
     Копирование... OK
Трек 16
     Имя файла E:\Год змеи - EAC\Личное дело 310\16. Год Змеи - Я живу....wav
     Пиковый уровень 97.9 %
     Скорость извлечения 8.4 X
     Качество трека 100.0 %
     CRC теста E13AACAB
     CRC копии E13AACAB
     Копирование... OK
Ошибок не произошло
Конец отчёта
==== Контрольная сумма отчёта 3E4AB4F6087737E406EF18717A79C9912BB683AE5AC6FF88EE3F81628794B0B2 ====

Отчёт auCDtect Task manager:

Код:
-----------------------
DON'T MODIFY THIS FILE
-----------------------
PERFORMER: auCDtect Task Manager, ver. 1.6.0 RC1 build 1.6.0.1
Copyright (c) 2008-2010 y-soft. All rights reserved
http://y-soft.org
ANALYZER: auCDtect: CD records authenticity detector, version 0.8.2
Copyright (c) 2004 Oleg Berngardt. All rights reserved.
Copyright (c) 2004 Alexander Djourik. All rights reserved.
FILE: 16. Год Змеи - Я живу....flac
  Size: 21625108 Hash: D7B5F0B8D529018C944D31E64FDD0E2D Accuracy: -m0
  Conclusion: CDDA 99%
  Signature: E3052253C0C5DF3D885BF274058CB43C7261E9D7
FILE: 15. Год Змеи - Где ты...flac
  Size: 32818520 Hash: 839B9B0D1617BDEA15B78E606F11841C Accuracy: -m0
  Conclusion: CDDA 100%
  Signature: DDB524B36E80BD0F7AB9A785D83A2BC184DA0D9F
FILE: 14. Год Змеи - Солнечный мир.flac
  Size: 35064804 Hash: 3FD2EB8DF32620261EA4B0D24F072616 Accuracy: -m0
  Conclusion: CDDA 100%
  Signature: 6CD472BE4617BDE55D8353CC218AED6AAEA5FF54
FILE: 13. Год Змеи - Осень... седьмое.flac
  Size: 27240611 Hash: EA040028F951B8C17F81FB91EC1F37C3 Accuracy: -m0
  Conclusion: CDDA 100%
  Signature: BCEFB70F9086DF9749C73328C930FCC9D8D00E42
FILE: 12. Год Змеи - 3-20 (live version).flac
  Size: 32673213 Hash: 934C76C67DB3A0522A5AFF58F3D511FA Accuracy: -m0
  Conclusion: CDDA 99%
  Signature: 350521C0709C125FBCF2A894A165FD79F6A01218
FILE: 11. Год Змеи - 3-20.flac
  Size: 38267722 Hash: B4CE135D92D1279355D281D87292F17B Accuracy: -m0
  Conclusion: CDDA 100%
  Signature: 19D300D7CDB2D96E915FE7BEAACD1B823E42B8C0
FILE: 10. Год Змеи - Девочки танцуют.flac
  Size: 18124978 Hash: E9DAFFD0F48DB06E4373C4597E2F649D Accuracy: -m0
  Conclusion: CDDA 100%
  Signature: 6853BB09C0DBE36D312151E9CC9C0752394A9420
FILE: 09. Год Змеи - Ты не та....flac
  Size: 26485436 Hash: A8F3249A0089D77467963FA2787778AF Accuracy: -m0
  Conclusion: CDDA 100%
  Signature: F89AF573CC88650A01BD85E44F054A55F3D35406
FILE: 08. Год Змеи - В землянке.flac
  Size: 25202401 Hash: 05DED2C7AD9906445DF98A5E9AA35EC4 Accuracy: -m0
  Conclusion: MPEG 95%
  Signature: 63E01B46C7475D96B73501C0FECB574D99625E80
FILE: 07. Год Змеи - Когда ты ночью ляжешь спать.flac
  Size: 21230496 Hash: 885C492EC5FEBFDB53577387E85782F5 Accuracy: -m0
  Conclusion: CDDA 99%
  Signature: 08C4705CA87A7871C81CAC7A28F927FBB8C08D24
FILE: 06. Год Змеи - Сердце.flac
  Size: 25244949 Hash: CE1343EF719AFB5640AC8B90917ACF9E Accuracy: -m0
  Conclusion: CDDA 100%
  Signature: 3C97D80AFD4BC2F7B583F0684E87B19CB46ED082
FILE: 05. Год Змеи - Рок-концерт.flac
  Size: 25789708 Hash: 4E4F0314E0F8E3E16D88BD986E03B752 Accuracy: -m0
  Conclusion: CDDA 100%
  Signature: E9645CA9F07E26E8B2C0B9F9A38C9B235AA75DEE
FILE: 04. Год Змеи - Иллюзия.flac
  Size: 20959739 Hash: 8CD763723D26F7E400D251CC9F883E27 Accuracy: -m0
  Conclusion: CDDA 100%
  Signature: 0243F3D60FED36307AEE58B8C6CD8768434661B5
FILE: 03. Год Змеи - Девочка панк.flac
  Size: 26199479 Hash: C85B6EDFBF2148C53344A8A1AFD9F209 Accuracy: -m0
  Conclusion: CDDA 100%
  Signature: 71D76753D02762DF87D047AB7920E697B884BCC8
FILE: 02. Год Змеи - Шаг.flac
  Size: 29146035 Hash: 66516D0A9183AB87FCF0DAFD793480FF Accuracy: -m0
  Conclusion: CDDA 100%
  Signature: C29CBCF80B6F0F8BDE55F51B54885D0B39C7D0AD
FILE: 01. Год Змеи - Личное дело.flac
  Size: 30955185 Hash: 1BFF90BBC296D8D1446BE8CCF4BC543F Accuracy: -m0
  Conclusion: CDDA 100%
  Signature: 77814210E0E668BD5C3C08A9D28DDF1515C5BF0E

Содержание индексной карты (.CUE)

Код:
REM GENRE Rock
REM DATE 2012
REM DISCID D60D8710
REM COMMENT "ExactAudioCopy v1.0b3"
PERFORMER ""
TITLE "Личное Дело 310"
FILE "01. Год Змеи - Личное дело.flac" WAVE
  TRACK 01 AUDIO
    TITLE "Личное дело"
    PERFORMER "Год Змеи"
    INDEX 01 00:00:00
FILE "02. Год Змеи - Шаг.flac" WAVE
  TRACK 02 AUDIO
    TITLE "Шаг"
    PERFORMER "Год Змеи"
    INDEX 01 00:00:00
FILE "03. Год Змеи - Девочка панк.flac" WAVE
  TRACK 03 AUDIO
    TITLE "Девочка панк"
    PERFORMER "Год Змеи"
    INDEX 01 00:00:00
FILE "04. Год Змеи - Иллюзия.flac" WAVE
  TRACK 04 AUDIO
    TITLE "Иллюзия"
    PERFORMER "Год Змеи"
    INDEX 01 00:00:00
FILE "05. Год Змеи - Рок-концерт.flac" WAVE
  TRACK 05 AUDIO
    TITLE "Рок-концерт"
    PERFORMER "Год Змеи"
    INDEX 01 00:00:00
FILE "06. Год Змеи - Сердце.flac" WAVE
  TRACK 06 AUDIO
    TITLE "Сердце"
    PERFORMER "Год Змеи"
    INDEX 01 00:00:00
FILE "07. Год Змеи - Когда ты ночью ляжешь спать.flac" WAVE
  TRACK 07 AUDIO
    TITLE "Когда ты ночью ляжешь спать"
    PERFORMER "Год Змеи"
    INDEX 01 00:00:00
FILE "08. Год Змеи - В землянке.flac" WAVE
  TRACK 08 AUDIO
    TITLE "В землянке"
    PERFORMER "Год Змеи"
    INDEX 01 00:00:00
FILE "09. Год Змеи - Ты не та....flac" WAVE
  TRACK 09 AUDIO
    TITLE "Ты не та..."
    PERFORMER "Год Змеи"
    INDEX 01 00:00:00
FILE "10. Год Змеи - Девочки танцуют.flac" WAVE
  TRACK 10 AUDIO
    TITLE "Девочки танцуют"
    PERFORMER "Год Змеи"
    INDEX 01 00:00:00
FILE "11. Год Змеи - 3-20.flac" WAVE
  TRACK 11 AUDIO
    TITLE "3:20"
    PERFORMER "Год Змеи"
    INDEX 01 00:00:00
FILE "12. Год Змеи - 3-20 (live version).flac" WAVE
  TRACK 12 AUDIO
    TITLE "3:20 (live version)"
    PERFORMER "Год Змеи"
    INDEX 01 00:00:00
FILE "13. Год Змеи - Осень... седьмое.flac" WAVE
  TRACK 13 AUDIO
    TITLE "Осень... седьмое"
    PERFORMER "Год Змеи"
    INDEX 01 00:00:00
FILE "14. Год Змеи - Солнечный мир.flac" WAVE
  TRACK 14 AUDIO
    TITLE "Солнечный мир"
    PERFORMER "Год Змеи"
    INDEX 01 00:00:00
FILE "15. Год Змеи - Где ты...flac" WAVE
  TRACK 15 AUDIO
    TITLE "Где ты.."
    PERFORMER "Год Змеи"
    INDEX 01 00:00:00
FILE "16. Год Змеи - Я живу....flac" WAVE
  TRACK 16 AUDIO
    TITLE "Я живу..."
    PERFORMER "Год Змеи"
    INDEX 01 00:00:00

2013 - 13

Треклист:
01. Против (03:10)
02. Остаешься один (03:01)
03. Задыхаюсь (03:07)
04. Бей (03:32)
05. По слогам (05:28)
06. Наш рок-н-ролл (03:11)
07. Я буду рядом (04:58)
08. Отпусти (04:11)
09. Кто-то (02:44)
10. Каждый из вас (03:45)
11. Расскажи (03:26)
12. Любовь нон-стоп (03:15)
13. Тринадцатый патрон (03:39)
Продолжительность: 00:47:29

Отчёт ЕАС:

Код:
Exact Audio Copy V1.0 beta 3 from 29. August 2011
Отчёт EAC об извлечении, выполненном 14. марта 2013, 23:22
Год Змеи / 13
Дисковод: _NEC    DVD_RW ND-4571A   Adapter: 0  ID: 0
Режим чтения                 : Достоверность
Использование точного потока : Да
Отключение кэша аудио        : Да
Использование указателей C2  : Нет
Коррекция смещения при чтении                     : 48
Способность читать области Lead-in и Lead-out     : Нет
Заполнение пропущенных сэмплов тишиной            : Да
Удаление блоков с тишиной в начале и конце        : Нет
При вычислениях CRC использовались нулевые сэмплы : Да
Интерфейс                                         : Встроенный Win32-интерфейс для Win NT/2000
Обработка зазоров                                 : Добавлено к предыдущему треку
Выходной формат          : Пользовательский кодировщик
Выбранный битрейт        : 768 kBit/s
Качество                 : Высокий
Добавление ID3-тега      : Нет
Утилита сжатия           : C:\Program Files (x86)\Exact Audio Copy\FLAC\FLAC.EXE
Дополнительные параметры : -V -8 -T "Genre=%genre%" -T "Artist=%artist%" -T "Title=%title%" -T "Album=%albumtitle%" -T "Date=%year%" -T "Tracknumber=%tracknr%" -T "Comment=%comment%" %source%
TOC извлечённого CD
     Трек |   Старт  | Длительность | Начальный сектор | Конечный сектор
    ---------------------------------------------------------------------
       1  |  0:00.00 |    3:10.44   |           0      |      14293
       2  |  3:10.44 |    3:01.35   |       14294      |      27903
       3  |  6:12.04 |    3:06.73   |       27904      |      41926
       4  |  9:19.02 |    3:32.24   |       41927      |      57850
       5  | 12:51.26 |    5:28.12   |       57851      |      82462
       6  | 18:19.38 |    3:10.69   |       82463      |      96781
       7  | 21:30.32 |    4:58.45   |       96782      |     119176
       8  | 26:29.02 |    4:11.36   |      119177      |     138037
       9  | 30:40.38 |    2:43.69   |      138038      |     150331
      10  | 33:24.32 |    3:45.28   |      150332      |     167234
      11  | 37:09.60 |    3:26.60   |      167235      |     182744
      12  | 40:36.45 |    3:14.42   |      182745      |     197336
      13  | 43:51.12 |    3:38.55   |      197337      |     213741
Трек  1
     Имя файла G:\GZ-13\01. Год Змеи - Против.wav
     Длина предзазора  0:00:02.00
     Пиковый уровень 100.0 %
     Скорость извлечения 0.8 X
     Качество трека 99.9 %
     CRC теста 30707DB1
     CRC копии 30707DB1
     Копирование... OK
Трек  2
     Имя файла G:\GZ-13\02. Год Змеи - Остаешься один.wav
     Пиковый уровень 100.0 %
     Скорость извлечения 1.0 X
     Качество трека 100.0 %
     CRC теста 0FA4B00B
     CRC копии 0FA4B00B
     Копирование... OK
Трек  3
     Имя файла G:\GZ-13\03. Год Змеи - Задыхаюсь.wav
     Пиковый уровень 100.0 %
     Скорость извлечения 1.0 X
     Качество трека 100.0 %
     CRC теста A804DCB9
     CRC копии A804DCB9
     Копирование... OK
Трек  4
     Имя файла G:\GZ-13\04. Год Змеи - Бей.wav
     Пиковый уровень 100.0 %
     Скорость извлечения 1.0 X
     Качество трека 100.0 %
     CRC теста AD157993
     CRC копии AD157993
     Копирование... OK
Трек  5
     Имя файла G:\GZ-13\05. Год Змеи - По слогам.wav
     Пиковый уровень 100.0 %
     Скорость извлечения 1.1 X
     Качество трека 100.0 %
     CRC теста 54979615
     CRC копии 54979615
     Копирование... OK
Трек  6
     Имя файла G:\GZ-13\06. Год Змеи - Наш рок-н-ролл.wav
     Пиковый уровень 100.0 %
     Скорость извлечения 0.8 X
     Качество трека 99.9 %
     CRC теста 0F629927
     CRC копии 0F629927
     Копирование... OK
Трек  7
     Имя файла G:\GZ-13\07. Год Змеи - Я буду рядом.wav
     Пиковый уровень 100.0 %
     Скорость извлечения 1.1 X
     Качество трека 100.0 %
     CRC теста B3753429
     CRC копии B3753429
     Копирование... OK
Трек  8
     Имя файла G:\GZ-13\08. Год Змеи - Отпусти.wav
     Пиковый уровень 100.0 %
     Скорость извлечения 1.0 X
     Качество трека 100.0 %
     CRC теста A1A1AA77
     CRC копии A1A1AA77
     Копирование... OK
Трек  9
     Имя файла G:\GZ-13\09. Год Змеи - Кто-то.wav
     Пиковый уровень 100.0 %
     Скорость извлечения 1.0 X
     Качество трека 100.0 %
     CRC теста 6D2FBE8C
     CRC копии 6D2FBE8C
     Копирование... OK
Трек 10
     Имя файла G:\GZ-13\10. Год Змеи - Каждый из вас.wav
     Пиковый уровень 100.0 %
     Скорость извлечения 1.0 X
     Качество трека 100.0 %
     CRC теста C7C85896
     CRC копии C7C85896
     Копирование... OK
Трек 11
     Имя файла G:\GZ-13\11. Год Змеи - Расскажи.wav
     Пиковый уровень 100.0 %
     Скорость извлечения 0.8 X
     Качество трека 99.9 %
     CRC теста 9EC66676
     CRC копии 9EC66676
     Копирование... OK
Трек 12
     Имя файла G:\GZ-13\12. Год Змеи - Любовь нон-стоп.wav
     Пиковый уровень 100.0 %
     Скорость извлечения 0.8 X
     Качество трека 99.9 %
     CRC теста 1574D274
     CRC копии 1574D274
     Копирование... OK
Трек 13
     Имя файла G:\GZ-13\13. Год Змеи - Тринадцатый патрон.wav
     Пиковый уровень 100.0 %
     Скорость извлечения 1.0 X
     Качество трека 100.0 %
     CRC теста 761B5703
     CRC копии 761B5703
     Копирование... OK
Ошибок не произошло
Конец отчёта

Отчёт auCDtect Task manager:

Код:
-----------------------
DON'T MODIFY THIS FILE
-----------------------
PERFORMER: auCDtect Task Manager, ver. 1.6.0 RC1 build 1.6.0.1
Copyright (c) 2008-2010 y-soft. All rights reserved
http://y-soft.org
ANALYZER: auCDtect: CD records authenticity detector, version 0.8.2
Copyright (c) 2004 Oleg Berngardt. All rights reserved.
Copyright (c) 2004 Alexander Djourik. All rights reserved.
FILE: 13. Год Змеи - Тринадцатый патрон.flac
  Size: 26059551 Hash: B8B8FE4BC8183B9ECFBAC614CFCAA557 Accuracy: -m0
  Conclusion: CDDA 100%
  Signature: 54EBE2590897DDEC7323021444EB6F4B9816ADA2
FILE: 12. Год Змеи - Любовь нон-стоп.flac
  Size: 25398314 Hash: DE88085636C6D2F39E5D27718D0D0E0E Accuracy: -m0
  Conclusion: CDDA 100%
  Signature: 090ED29CED05221B57916EAB4FFDE62E1B03D4B9
FILE: 11. Год Змеи - Расскажи.flac
  Size: 26548387 Hash: 2A7AFA456E0EC70D58EE96535E206F59 Accuracy: -m0
  Conclusion: CDDA 100%
  Signature: CEEDA3424FB402C4D6527CA06595925BFF822224
FILE: 10. Год Змеи - Каждый из вас.flac
  Size: 28116778 Hash: 43B271CA221372D96362925CAD55F425 Accuracy: -m0
  Conclusion: CDDA 100%
  Signature: 68F421C903F40040AA501ED39135D020424AFC6D
FILE: 09. Год Змеи - Кто-то.flac
  Size: 20712422 Hash: FE8C40CF9FCAF7A64E9A1154A337DC12 Accuracy: -m0
  Conclusion: CDDA 100%
  Signature: C2F5CA1977EED4B9EC45D675D83B83D341E77DF4
FILE: 08. Год Змеи - Отпусти.flac
  Size: 31445010 Hash: C91DF417A2C015D5A46E8558ABC735AF Accuracy: -m0
  Conclusion: CDDA 100%
  Signature: 333F0F9AD699A02D7375535120B516E2ACFBEC7B
FILE: 07. Год Змеи - Я буду рядом.flac
  Size: 39366681 Hash: AAA979643792AB7C21F17F96C4F6C11E Accuracy: -m0
  Conclusion: CDDA 100%
  Signature: 1B510D835D665F5F65C4F3C5095818FD586A76E3
FILE: 06. Год Змеи - Наш рок-н-ролл.flac
  Size: 24785132 Hash: 2F45B97A356BA76E46EBDE3C6B4DD5AC Accuracy: -m0
  Conclusion: CDDA 100%
  Signature: EE3E97AD011E1E2BEF21FB60B46EE71627B3E2F5
FILE: 05. Год Змеи - По слогам.flac
  Size: 40534828 Hash: 524EEF18B4E545F11AA7E6E6DA06BDF0 Accuracy: -m0
  Conclusion: CDDA 100%
  Signature: 20B7526B72E349B529A954537F602DE3F69B83EB
FILE: 04. Год Змеи - Бей.flac
  Size: 25966736 Hash: FFA39EF733A3285BE92AC4DFB7BECA06 Accuracy: -m0
  Conclusion: CDDA 100%
  Signature: 94B49FDB13E3C5F9FC3C623B411B8B3DF3B78276
FILE: 03. Год Змеи - Задыхаюсь.flac
  Size: 23663093 Hash: 3971ADA7DC2D043FAAAB3EEDF6808CA0 Accuracy: -m0
  Conclusion: CDDA 100%
  Signature: 13D2094707FEB07D7D6E5A246868CEE6DE00C169
FILE: 02. Год Змеи - Остаешься один.flac
  Size: 24174399 Hash: E9C6AF9E370BDD4C71BD5BB51C2F77E6 Accuracy: -m0
  Conclusion: CDDA 100%
  Signature: 30394F0201FD5AAB5C5D88703643299CB9646B66
FILE: 01. Год Змеи - Против.flac
  Size: 23967425 Hash: 5FAE66018FEBDCE748D9AAE8CFA4EF3E Accuracy: -m0
  Conclusion: CDDA 100%
  Signature: 2484FFFADE9690B831B53B362C6899CF7D9000C7

Содержание индексной карты (.CUE)

Код:
REM GENRE Rock
REM DATE 2013
REM DISCID 980B210D
REM COMMENT "ExactAudioCopy v1.0b3"
PERFORMER "Год Змеи"
TITLE "13"
FILE "01. Год Змеи - Против.flac" WAVE
  TRACK 01 AUDIO
    TITLE "Против"
    PERFORMER "Год Змеи"
    INDEX 01 00:00:00
FILE "02. Год Змеи - Остаешься один.flac" WAVE
  TRACK 02 AUDIO
    TITLE "Остаешься один"
    PERFORMER "Год Змеи"
    INDEX 01 00:00:00
FILE "03. Год Змеи - Задыхаюсь.flac" WAVE
  TRACK 03 AUDIO
    TITLE "Задыхаюсь"
    PERFORMER "Год Змеи"
    INDEX 01 00:00:00
FILE "04. Год Змеи - Бей.flac" WAVE
  TRACK 04 AUDIO
    TITLE "Бей"
    PERFORMER "Год Змеи"
    INDEX 01 00:00:00
FILE "05. Год Змеи - По слогам.flac" WAVE
  TRACK 05 AUDIO
    TITLE "По слогам"
    PERFORMER "Год Змеи"
    INDEX 01 00:00:00
FILE "06. Год Змеи - Наш рок-н-ролл.flac" WAVE
  TRACK 06 AUDIO
    TITLE "Наш рок-н-ролл"
    PERFORMER "Год Змеи"
    INDEX 01 00:00:00
FILE "07. Год Змеи - Я буду рядом.flac" WAVE
  TRACK 07 AUDIO
    TITLE "Я буду рядом"
    PERFORMER "Год Змеи"
    INDEX 01 00:00:00
FILE "08. Год Змеи - Отпусти.flac" WAVE
  TRACK 08 AUDIO
    TITLE "Отпусти"
    PERFORMER "Год Змеи"
    INDEX 01 00:00:00
FILE "09. Год Змеи - Кто-то.flac" WAVE
  TRACK 09 AUDIO
    TITLE "Кто-то"
    PERFORMER "Год Змеи"
    INDEX 01 00:00:00
FILE "10. Год Змеи - Каждый из вас.flac" WAVE
  TRACK 10 AUDIO
    TITLE "Каждый из вас"
    PERFORMER "Год Змеи"
    INDEX 01 00:00:00
FILE "11. Год Змеи - Расскажи.flac" WAVE
  TRACK 11 AUDIO
    TITLE "Расскажи"
    PERFORMER "Год Змеи"
    INDEX 01 00:00:00
FILE "12. Год Змеи - Любовь нон-стоп.flac" WAVE
  TRACK 12 AUDIO
    TITLE "Любовь нон-стоп"
    PERFORMER "Год Змеи"
    INDEX 01 00:00:00
FILE "13. Год Змеи - Тринадцатый патрон.flac" WAVE
  TRACK 13 AUDIO
    TITLE "Тринадцатый патрон"
    PERFORMER "Год Змеи"
    INDEX 01 00:00:00
Время раздачи: 24/7
Other forum [Profile] [PM]

Dracula

Longevity: 6 years 1 month

Posts: 10683

Торрент-статистика

Post 16-Jun-2013 07:48 (after 4 hours)

Топик был перенесен из форума Rock в форум Russian Rock


p2000s
 
Display posts from previous:    
Reply to topic

The time now is: Today 01:21

All times are GMT + 3 Hours



You cannot post new topics in this forum
You cannot reply to topics in this forum
You cannot edit your posts in this forum
You cannot delete your posts in this forum
You cannot vote in polls in this forum
You cannot attach files in this forum
You cannot download files in this forum