Today is a free download without charge Download

(Heavy Metal) Коrsика (Корсика) - Альтернативы.net (2010)[ tracks+cue, FLAC ]

Reply to topic
 
Author
Message

Paullo ®

Gender:

Longevity: 9 years 5 months

Posts: 393

Location: деактивировано, причина: - Последний визит: 2017-06-22 darkos_bot 12.06.19г

Торрент-статистика

Post 15-May-2011 00:52

[Quote]

Коrsика (Корсика) - Альтернативы.net Производство: Россия
Жанр: Heavy Metal
Год выпуска альбома: 2010
Аудиокодек: FLAC
Тип рипа: tracks+cue
Полный скан буклета: Да
Продолжительность: 00:39:22
Трэклист:
01. Интро (1:40)
02. Завтра (4:27)
03. Скорость света (3:07)
04. Кто твой Бог (3:52)
05. Down Town (3:35)
06. Другая сторона (3:21)
07. Коннект (3:56)
08. Жажда (3:09)
09. Граница (2:48)
10. Жестокие игры (3:24)
11. Во сне (2:51)
12. 200 ударов в минуту (3:12)

LOG

Exact Audio Copy V0.99 prebeta 5 from 4. May 2009
EAC extraction logfile from 5. April 2010, 0:30
Коrsика / Альтернативы.net
Used drive : Optiarc DVD RW AD-7173S Adapter: 2 ID: 0
Read mode : Secure
Utilize accurate stream : Yes
Defeat audio cache : Yes
Make use of C2 pointers : No
Read offset correction : 48
Overread into Lead-In and Lead-Out : No
Fill up missing offset samples with silence : Yes
Delete leading and trailing silent blocks : No
Null samples used in CRC calculations : Yes
Used interface : Native Win32 interface for Win NT & 2000
Gap handling : Appended to previous track
Used output format : Internal WAV Routines
Sample format : 44.100 Hz; 16 Bit; Stereo
TOC of the extracted CD
Track | Start | Length | Start sector | End sector
---------------------------------------------------------
1 | 0:00.00 | 1:39.54 | 0 | 7478
2 | 1:39.54 | 4:27.02 | 7479 | 27505
3 | 6:06.56 | 3:07.24 | 27506 | 41554
4 | 9:14.05 | 3:52.21 | 41555 | 58975
5 | 13:06.26 | 3:34.46 | 58976 | 75071
6 | 16:40.72 | 3:20.72 | 75072 | 90143
7 | 20:01.69 | 3:56.01 | 90144 | 107844
8 | 23:57.70 | 3:08.65 | 107845 | 122009
9 | 27:06.60 | 2:48.10 | 122010 | 134619
10 | 29:54.70 | 3:24.30 | 134620 | 149949
11 | 33:19.25 | 2:51.05 | 149950 | 162779
12 | 36:10.30 | 3:12.09 | 162780 | 177188
Track 1
Filename D:\lossless\Альтернативы.net\01 Коrsика - Интро.wav
Pre-gap length 0:00:02.00
Peak level 99.9 %
Track quality 100.0 %
Test CRC EE2BF646
Copy CRC EE2BF646
Track not present in AccurateRip database
Copy OK
Track 2
Filename D:\lossless\Альтернативы.net\02 Коrsика - Завтра.wav
Peak level 99.9 %
Track quality 100.0 %
Test CRC 2B96E9E2
Copy CRC 2B96E9E2
Track not present in AccurateRip database
Copy OK
Track 3
Filename D:\lossless\Альтернативы.net\03 Коrsика - Скорость света.wav
Peak level 98.8 %
Track quality 100.0 %
Test CRC C7D9668E
Copy CRC C7D9668E
Track not present in AccurateRip database
Copy OK
Track 4
Filename D:\lossless\Альтернативы.net\04 Коrsика - Кто твой Бог.wav
Peak level 98.8 %
Track quality 100.0 %
Test CRC C0E042EF
Copy CRC C0E042EF
Track not present in AccurateRip database
Copy OK
Track 5
Filename D:\lossless\Альтернативы.net\05 Коrsика - Down Town.wav
Peak level 98.8 %
Track quality 100.0 %
Test CRC D978220D
Copy CRC D978220D
Track not present in AccurateRip database
Copy OK
Track 6
Filename D:\lossless\Альтернативы.net\06 Коrsика - Другая сторона.wav
Peak level 98.8 %
Track quality 100.0 %
Test CRC D48DB0A3
Copy CRC D48DB0A3
Track not present in AccurateRip database
Copy OK
Track 7
Filename D:\lossless\Альтернативы.net\07 Коrsика - Коннект.wav
Peak level 98.8 %
Track quality 100.0 %
Test CRC 687C9FD8
Copy CRC 687C9FD8
Track not present in AccurateRip database
Copy OK
Track 8
Filename D:\lossless\Альтернативы.net\08 Коrsика - Жажда.wav
Peak level 98.8 %
Track quality 100.0 %
Test CRC BED30A1E
Copy CRC BED30A1E
Track not present in AccurateRip database
Copy OK
Track 9
Filename D:\lossless\Альтернативы.net\09 Коrsика - Граница.wav
Peak level 98.8 %
Track quality 100.0 %
Test CRC C1CE8358
Copy CRC C1CE8358
Track not present in AccurateRip database
Copy OK
Track 10
Filename D:\lossless\Альтернативы.net\10 Коrsика - Жестокие игры.wav
Peak level 98.8 %
Track quality 100.0 %
Test CRC BCC42AFC
Copy CRC BCC42AFC
Track not present in AccurateRip database
Copy OK
Track 11
Filename D:\lossless\Альтернативы.net\11 Коrsика - Во сне.wav
Peak level 98.8 %
Track quality 100.0 %
Test CRC 7BAD64A0
Copy CRC 7BAD64A0
Track not present in AccurateRip database
Copy OK
Track 12
Filename D:\lossless\Альтернативы.net\12 Коrsика - 200 ударов в минуту.wav
Peak level 98.8 %
Track quality 100.0 %
Test CRC 55A6700F
Copy CRC 55A6700F
Track not present in AccurateRip database
Copy OK
None of the tracks are present in the AccurateRip database
No errors occurred
End of status report

Non-compilant Cue

REM GENRE "Heavy Metal"
REM DATE 2010
REM DISCID 8D093A0C
REM COMMENT "ExactAudioCopy v0.99pb5"
PERFORMER "Коrsика"
TITLE "Альтернативы.net"
FILE "01 Коrsика - Интро.wav" WAVE
TRACK 01 AUDIO
TITLE "Интро"
PERFORMER "Коrsика"
FLAGS DCP
INDEX 01 00:00:00
FILE "02 Коrsика - Завтра.wav" WAVE
TRACK 02 AUDIO
TITLE "Завтра"
PERFORMER "Коrsика"
FLAGS DCP
INDEX 01 00:00:00
FILE "03 Коrsика - Скорость света.wav" WAVE
TRACK 03 AUDIO
TITLE "Скорость света"
PERFORMER "Коrsика"
FLAGS DCP
INDEX 01 00:00:00
FILE "04 Коrsика - Кто твой Бог.wav" WAVE
TRACK 04 AUDIO
TITLE "Кто твой Бог"
PERFORMER "Коrsика"
FLAGS DCP
INDEX 01 00:00:00
FILE "05 Коrsика - Down Town.wav" WAVE
TRACK 05 AUDIO
TITLE "Down Town"
PERFORMER "Коrsика"
FLAGS DCP
INDEX 01 00:00:00
FILE "06 Коrsика - Другая сторона.wav" WAVE
TRACK 06 AUDIO
TITLE "Другая сторона"
PERFORMER "Коrsика"
FLAGS DCP
INDEX 01 00:00:00
FILE "07 Коrsика - Коннект.wav" WAVE
TRACK 07 AUDIO
TITLE "Коннект"
PERFORMER "Коrsика"
FLAGS DCP
INDEX 01 00:00:00
FILE "08 Коrsика - Жажда.wav" WAVE
TRACK 08 AUDIO
TITLE "Жажда"
PERFORMER "Коrsика"
FLAGS DCP
INDEX 01 00:00:00
FILE "09 Коrsика - Граница.wav" WAVE
TRACK 09 AUDIO
TITLE "Граница"
PERFORMER "Коrsика"
FLAGS DCP
INDEX 01 00:00:00
FILE "10 Коrsика - Жестокие игры.wav" WAVE
TRACK 10 AUDIO
TITLE "Жестокие игры"
PERFORMER "Коrsика"
FLAGS DCP
INDEX 01 00:00:00
FILE "11 Коrsика - Во сне.wav" WAVE
TRACK 11 AUDIO
TITLE "Во сне"
PERFORMER "Коrsика"
FLAGS DCP
INDEX 01 00:00:00
FILE "12 Коrsика - 200 ударов в минуту.wav" WAVE
TRACK 12 AUDIO
TITLE "200 ударов в минуту"
PERFORMER "Коrsика"
FLAGS DCP
INDEX 01 00:00:00

_________________
сами мы не местные...
Other forum [Profile] [PM]
Similar theme
Forum Topic Author Torrent Replies Last Post
./templates/default/images/folder_dl.gif Metal (Heavy Metal / Thrash Metal) Story Of Jade - Loony Bin - 2015, MP3, 320 kbps Omen
0 | 1

0 | 718

2

2015-04-11 15:04
Omen Latest
./templates/default/images/folder_dl.gif Metal (Heavy Metal) Drueida - Collateral Damage - 2015, MP3, 320 kbps Omen
0 | 1

0 | 387

3

2015-05-29 00:00
Omen Latest
./templates/default/images/folder_dl.gif Metal (Heavy Metal) [CD] Armored Saint - Win Hands Down - 2015, FLAC (image+.cue), lossless Omen
0 | 1

0 | 637

6

2015-06-08 12:43
Omen Latest
./templates/default/images/folder_dl.gif Metal (Heavy Metal) Ram - Svbversvm - 2015, MP3, 320 kbps Omen
1 | 0

0 | 1813

9

2015-10-30 00:00
Omen Latest
./templates/default/images/folder_dl.gif Metal (Heavy Metal) [CDR] Чёрный кофе - Трёхдисковое подарочное издание "Студии А" - 2010, FLAC (image+.cue), lossless Soldat_5
1 | 0

1 | 422

0

2019-11-22 14:08
Dracula Latest
Display posts from previous:    
Reply to topic

The time now is: Today 14:19

All times are GMT + 3 Hours



You cannot post new topics in this forum
You cannot reply to topics in this forum
You cannot edit your posts in this forum
You cannot delete your posts in this forum
You cannot vote in polls in this forum
You cannot attach files in this forum
You cannot download files in this forum