Today is a free download without charge Download

Justice - Access All Arenas (2013) [FLAC|Lossless]<House, Electro>

Reply to topic
 
Author
Message

UndegraundMen ®

Longevity: 7 years 6 months

Posts: 25145

Торрент-статистика

Post 20-May-2013 05:13

[Quote]

Justice - Access All Arenas (2013)- Год: 2013
Жанр: House, Electro
Продолжительность: 01:19:41
Лейбл: Ed Banger Records
Каталожный №: BEC5161306
Сканы: Front. Back
Кодек: FLAC (tracks+.cue)
Битрейт: Lossless
Трек лист:
01. Genesis [7:46]
02. Helix [4:06]
03. Phantom [4:42]
04. Civilization [6:04]
05. Canon [4:11]
06. D.A.N.C.E. [5:59]
07. Horsepower [5:24]
08. New Lands [4:30]
09. Stress [5:36]
10. Waters of Nazareth [6:54]
11. Audio, Video, Disco. [10:06]
12. Encore [0:47]
13. On'n'On [5:35]
14. Phantom, Part II [8:01]
-

Содержимое индексной карты &#40;.cue&#41;&#58;

Код:
REM GENRE Electronic
REM DATE 2013
REM DISCID C712AD0E
REM COMMENT "ExactAudioCopy v1.0b3"
PERFORMER "Justice"
TITLE "Access All Arenas"
FILE "01 Genesis.wav" WAVE
  TRACK 01 AUDIO
    TITLE "Genesis"
    PERFORMER "Justice"
    ISRC FQ@NF1300170
    INDEX 01 00:00:00
FILE "02 Helix.wav" WAVE
  TRACK 02 AUDIO
    TITLE "Helix"
    PERFORMER "Justice"
    ISRC FQ@NF1300180
    INDEX 01 00:00:00
FILE "03 Phantom.wav" WAVE
  TRACK 03 AUDIO
    TITLE "Phantom"
    PERFORMER "Justice"
    ISRC FQ@NF1300190
    INDEX 01 00:00:00
FILE "04 Civilization.wav" WAVE
  TRACK 04 AUDIO
    TITLE "Civilization"
    PERFORMER "Justice"
    ISRC FQ@NF1300200
    INDEX 01 00:00:00
FILE "05 Canon.wav" WAVE
  TRACK 05 AUDIO
    TITLE "Canon"
    PERFORMER "Justice"
    ISRC FQ@NF1300210
    INDEX 01 00:00:00
FILE "06 D.A.N.C.E..wav" WAVE
  TRACK 06 AUDIO
    TITLE "D.A.N.C.E."
    PERFORMER "Justice"
    ISRC FQ@NF1300220
    INDEX 01 00:00:00
FILE "07 Horsepower.wav" WAVE
  TRACK 07 AUDIO
    TITLE "Horsepower"
    PERFORMER "Justice"
    ISRC FQ@NF1300230
    INDEX 01 00:00:00
FILE "08 New Lands.wav" WAVE
  TRACK 08 AUDIO
    TITLE "New Lands"
    PERFORMER "Justice"
    ISRC FQ@NF1300230
    INDEX 01 00:00:00
FILE "09 Stress.wav" WAVE
  TRACK 09 AUDIO
    TITLE "Stress"
    PERFORMER "Justice"
    ISRC FQ@NF1300250
    INDEX 01 00:00:00
FILE "10 Waters of Nazareth.wav" WAVE
  TRACK 10 AUDIO
    TITLE "Waters of Nazareth"
    PERFORMER "Justice"
    ISRC FQ@NF1300260
    INDEX 01 00:00:00
FILE "11 Audio, Video, Disco..wav" WAVE
  TRACK 11 AUDIO
    TITLE "Audio, Video, Disco."
    PERFORMER "Justice"
    ISRC FQ@NF1300270
    INDEX 01 00:00:00
FILE "12 Encore.wav" WAVE
  TRACK 12 AUDIO
    TITLE "Encore"
    PERFORMER "Justice"
    ISRC FQ@NF1300270
    INDEX 01 00:00:00
FILE "13 On'n'On.wav" WAVE
  TRACK 13 AUDIO
    TITLE "On'n'On"
    PERFORMER "Justice"
    ISRC FQ@NF1300280
    INDEX 01 00:00:00
FILE "14 Phantom, Part II.wav" WAVE
  TRACK 14 AUDIO
    TITLE "Phantom, Part II"
    PERFORMER "Justice"
    ISRC FQ@NF1300290
    INDEX 01 00:00:00

Отчёт ЕАС&#58;

Код:
Exact Audio Copy V1.0 beta 3 from 29. August 2011
EAC extraction logfile from 6. May 2013, 11:33
Justice / Access All Arenas
Used drive  : TSSTcorpCD/DVDW TS-H652L   Adapter: 0  ID: 0
Read mode               : Secure
Utilize accurate stream : Yes
Defeat audio cache      : Yes
Make use of C2 pointers : No
Read offset correction                      : 6
Overread into Lead-In and Lead-Out          : No
Fill up missing offset samples with silence : Yes
Delete leading and trailing silent blocks   : No
Null samples used in CRC calculations       : Yes
Used interface                              : Native Win32 interface for Win NT & 2000
Gap handling                                : Appended to previous track
Used output format              : User Defined Encoder
Selected bitrate                : 1024 kBit/s
Quality                         : High
Add ID3 tag                     : No
Command line compressor         : C:\Program Files\Exact Audio Copy\Flac\flac.exe
Additional command line options : -8 -V -T "ARTIST=%artist%" -T "TITLE=%title%" -T "ALBUM=%albumtitle%" -T "DATE=%year%" -T "TRACKNUMBER=%tracknr%" -T "GENRE=%genre%" -T "PERFORMER=%albuminterpret%" -T "COMPOSER=%composer%" %haslyrics%--tag-from-file=LYRICS="%lyricsfile%"%haslyrics% -T "ALBUMARTIST=%albumartist%" -T "DISCNUMBER=%cdnumber%" -T "TOTALDISCS=%totalcds%" -T "TOTALTRACKS=%numtracks%" -T "COMMENT=%comment%" %source% -o %dest%
TOC of the extracted CD
     Track |   Start  |  Length  | Start sector | End sector
    ---------------------------------------------------------
        1  |  0:00.00 |  7:46.14 |         0    |    34963
        2  |  7:46.14 |  4:06.18 |     34964    |    53431
        3  | 11:52.32 |  4:42.00 |     53432    |    74581
        4  | 16:34.32 |  6:04.11 |     74582    |   101892
        5  | 22:38.43 |  4:11.07 |    101893    |   120724
        6  | 26:49.50 |  5:58.72 |    120725    |   147646
        7  | 32:48.47 |  5:24.17 |    147647    |   171963
        8  | 38:12.64 |  4:30.29 |    171964    |   192242
        9  | 42:43.18 |  5:36.27 |    192243    |   217469
       10  | 48:19.45 |  6:53.43 |    217470    |   248487
       11  | 55:13.13 | 10:05.43 |    248488    |   293905
       12  | 65:18.56 |  0:46.50 |    293906    |   297405
       13  | 66:05.31 |  5:35.00 |    297406    |   322530
       14  | 71:40.31 |  8:00.61 |    322531    |   358591
Track  1
     Filename E:\Profiles\ISA\Desktop\Access All Arenas (2013) [FLAC]\01 Genesis.wav
     Pre-gap length  0:00:02.00
     Peak level 100.0 %
     Extraction speed 5.3 X
     Track quality 100.0 %
     Test CRC E3ABC827
     Copy CRC E3ABC827
     Track not present in AccurateRip database
     Copy OK
Track  2
     Filename E:\Profiles\ISA\Desktop\Access All Arenas (2013) [FLAC]\02 Helix.wav
     Peak level 100.0 %
     Extraction speed 5.5 X
     Track quality 100.0 %
     Test CRC 8CEEB375
     Copy CRC 8CEEB375
     Track not present in AccurateRip database
     Copy OK
Track  3
     Filename E:\Profiles\ISA\Desktop\Access All Arenas (2013) [FLAC]\03 Phantom.wav
     Peak level 100.0 %
     Extraction speed 6.1 X
     Track quality 100.0 %
     Test CRC 64102A0C
     Copy CRC 64102A0C
     Track not present in AccurateRip database
     Copy OK
Track  4
     Filename E:\Profiles\ISA\Desktop\Access All Arenas (2013) [FLAC]\04 Civilization.wav
     Peak level 100.0 %
     Extraction speed 6.7 X
     Track quality 100.0 %
     Test CRC 3F667851
     Copy CRC 3F667851
     Track not present in AccurateRip database
     Copy OK
Track  5
     Filename E:\Profiles\ISA\Desktop\Access All Arenas (2013) [FLAC]\05 Canon.wav
     Peak level 100.0 %
     Extraction speed 6.8 X
     Track quality 100.0 %
     Test CRC 77655BFF
     Copy CRC 77655BFF
     Track not present in AccurateRip database
     Copy OK
Track  6
     Filename E:\Profiles\ISA\Desktop\Access All Arenas (2013) [FLAC]\06 D.A.N.C.E..wav
     Peak level 100.0 %
     Extraction speed 7.4 X
     Track quality 100.0 %
     Test CRC C3CDE6C9
     Copy CRC C3CDE6C9
     Track not present in AccurateRip database
     Copy OK
Track  7
     Filename E:\Profiles\ISA\Desktop\Access All Arenas (2013) [FLAC]\07 Horsepower.wav
     Peak level 100.0 %
     Extraction speed 7.7 X
     Track quality 100.0 %
     Test CRC EDFF17BF
     Copy CRC EDFF17BF
     Track not present in AccurateRip database
     Copy OK
Track  8
     Filename E:\Profiles\ISA\Desktop\Access All Arenas (2013) [FLAC]\08 New Lands.wav
     Peak level 100.0 %
     Extraction speed 7.9 X
     Track quality 100.0 %
     Test CRC 31C183AB
     Copy CRC 31C183AB
     Track not present in AccurateRip database
     Copy OK
Track  9
     Filename E:\Profiles\ISA\Desktop\Access All Arenas (2013) [FLAC]\09 Stress.wav
     Peak level 100.0 %
     Extraction speed 8.4 X
     Track quality 100.0 %
     Test CRC 12FD230E
     Copy CRC 12FD230E
     Track not present in AccurateRip database
     Copy OK
Track 10
     Filename E:\Profiles\ISA\Desktop\Access All Arenas (2013) [FLAC]\10 Waters of Nazareth.wav
     Peak level 100.0 %
     Extraction speed 8.8 X
     Track quality 100.0 %
     Test CRC 1B410DA2
     Copy CRC 1B410DA2
     Track not present in AccurateRip database
     Copy OK
Track 11
     Filename E:\Profiles\ISA\Desktop\Access All Arenas (2013) [FLAC]\11 Audio, Video, Disco..wav
     Peak level 100.0 %
     Extraction speed 9.0 X
     Track quality 99.9 %
     Test CRC ADD7522F
     Copy CRC ADD7522F
     Track not present in AccurateRip database
     Copy OK
Track 12
     Filename E:\Profiles\ISA\Desktop\Access All Arenas (2013) [FLAC]\12 Encore.wav
     Peak level 95.2 %
     Extraction speed 3.9 X
     Track quality 100.0 %
     Test CRC 1DA7165B
     Copy CRC 1DA7165B
     Track not present in AccurateRip database
     Copy OK
Track 13
     Filename E:\Profiles\ISA\Desktop\Access All Arenas (2013) [FLAC]\13 On'n'On.wav
     Peak level 100.0 %
     Extraction speed 8.7 X
     Track quality 99.9 %
     Test CRC 9B857E24
     Copy CRC 9B857E24
     Track not present in AccurateRip database
     Copy OK
Track 14
     Filename E:\Profiles\ISA\Desktop\Access All Arenas (2013) [FLAC]\14 Phantom, Part II.wav
     Peak level 100.0 %
     Extraction speed 10.1 X
     Track quality 100.0 %
     Test CRC 3A22B330
     Copy CRC 3A22B330
     Track not present in AccurateRip database
     Copy OK
None of the tracks are present in the AccurateRip database
No errors occurred
End of status report
---- CUETools DB Plugin V2.1.3
[CTDB TOCID: j74ugShIwrh7fRcvQ5pqEbOjnDk-] disk not present in database, Submit result: j74ugShIwrh7fRcvQ5pqEbOjnDk- has been uploaded
==== Log checksum 6F3562C680E090824B1B2098BC5BF0D548F438D79931E1B690F2C214140CCA90 ====

Отчёт auCDtect Task Manager&#58;

Код:
-----------------------
DON'T MODIFY THIS FILE
-----------------------
PERFORMER: auCDtect Task Manager, ver. 1.5.1RC3 build 1.5.1.4
Copyright (c) 2008-2010 y-soft. All rights reserved
http://y-soft.org
ANALYZER: auCDtect: CD records authenticity detector, version 0.8.2
Copyright (c) 2004 Oleg Berngardt. All rights reserved.
Copyright (c) 2004 Alexander Djourik. All rights reserved.
FILE: 14 Phantom, Part II.flac
  Size: 60583505 Hash: 89CB6E4D1CF809CC50EB4A1235E9BDF2 Accuracy: -m0
  Conclusion: CDDA 100%
  Signature: E106BA1AFFFF93FFF578DC9A0CC1E3C9C299633C
FILE: 13 On'n'On.flac
  Size: 39507288 Hash: 24E53DF0E523959A9E3A79AB54400E89 Accuracy: -m0
  Conclusion: CDDA 100%
  Signature: 43F780D712DE7A03B5DEB96A041D171A50961F03
FILE: 12 Encore.flac
  Size: 5084430 Hash: 0115BD209BB03B19B7D5CFA901751FD3 Accuracy: -m0
  Conclusion: ???
  Signature: 1637AB87E4BB838A31670069C17D2E1E803D8168
FILE: 11 Audio, Video, Disco..flac
  Size: 75979815 Hash: B07E7151DC6637719C664599485EC2A3 Accuracy: -m0
  Conclusion: CDDA 99%
  Signature: CF8FC2C6C32CBA7D80A5A4F49B9491798EC6030E
FILE: 10 Waters of Nazareth.flac
  Size: 50174180 Hash: 46B33D6E6A05584EF16634D9DA18D3F8 Accuracy: -m0
  Conclusion: CDDA 100%
  Signature: 435F0715EC20708709ED4B031CBAC8D443BF0A90
FILE: 09 Stress.flac
  Size: 45009230 Hash: 069529061B454BA8126E1BEBB0CA3BBC Accuracy: -m0
  Conclusion: CDDA 100%
  Signature: 5B2B3E77A92B69B504D7BA2008B6102581426774
FILE: 08 New Lands.flac
  Size: 34343908 Hash: 53D2D816C8A1BEB283AF5014995B1458 Accuracy: -m0
  Conclusion: CDDA 99%
  Signature: 0D46AA60D6E5F1C6CFCC99FD08FE6806FEC5CA68
FILE: 07 Horsepower.flac
  Size: 41445366 Hash: 53B5780690539A50F3EAC014EAA9A2EE Accuracy: -m0
  Conclusion: CDDA 100%
  Signature: A69753636215E2B4545BFDC2E0CDD632429BD50E
FILE: 06 D.A.N.C.E..flac
  Size: 43634486 Hash: 5540EDC0BB23FC046ADC87479037FF64 Accuracy: -m0
  Conclusion: CDDA 99%
  Signature: 27F371B60B8D22694A826D7A3C33AE6C1EB72D88
FILE: 05 Canon.flac
  Size: 32635828 Hash: E9A45E6EF379F37500BBAC49FF52E0A8 Accuracy: -m0
  Conclusion: CDDA 100%
  Signature: 390608C8DF9DC55DFE303C048832071E6DFA2752
FILE: 04 Civilization.flac
  Size: 44067144 Hash: B55885F09E059831F4FC1EE037DC1915 Accuracy: -m0
  Conclusion: CDDA 99%
  Signature: D729D813A3683FD24E0FB24AA21ED3BC6036EF4D
FILE: 03 Phantom.flac
  Size: 37988264 Hash: 42358A31242B0010D0251EE3E079DAC2 Accuracy: -m0
  Conclusion: CDDA 100%
  Signature: CD3242F5C1FAD500D419BE3C80A5717CE68D8F04
FILE: 02 Helix.flac
  Size: 31213495 Hash: 33E71EA8B613BBDA38D65EE305AF2300 Accuracy: -m0
  Conclusion: CDDA 94%
  Signature: E4D94AC5604811BD0BE3EA5B49C6F87C8F68FBF9
FILE: 01 Genesis.flac
  Size: 54820746 Hash: 1AD396B7C2C7668D62B086561984809F Accuracy: -m0
  Conclusion: CDDA 100%
  Signature: 5FB892D74890C2182FE73445015378EC24F28616

Спектр

 
-Время раздачи: Круглосуточно (до первых сидов, далее по возможности)
Other forum [Profile] [PM]

Dracula

Longevity: 6 years 9 months

Posts: 11307

Торрент-статистика

Post 20-May-2013 14:32 (after 9 hours)

Топик был перенесен из форума Операционные системы в форум House, Techno, Hardcore, Hardstyle, Jumpstyle


RUGUI
 
Display posts from previous:    
Reply to topic

The time now is: Today 06:31

All times are GMT + 3 Hours



You cannot post new topics in this forum
You cannot reply to topics in this forum
You cannot edit your posts in this forum
You cannot delete your posts in this forum
You cannot vote in polls in this forum
You cannot attach files in this forum
You cannot download files in this forum