Today is a free download without charge Download

Винтаж - Very Dance (2013) [APE|Lossless]<Dance, Pop>

Reply to topic
 
Author
Message

UndegraundMen ®

Longevity: 7 years 11 months

Posts: 25145

Торрент-статистика

Post 16-May-2013 05:24

[Quote]

Винтаж - Very Dance (2013)- Год: 2013
Жанр: Dance, Pop
Продолжительность: 00:54:24
Кодек: APE (*.ape)
Битрейт: Lossless
Тип рипа: image+.cue
Страна-производитель диска: Россия
Издатель (лейбл): Velvet Music; Студия Союз
Номер по каталогу: SZCD-6175-13
Страна: Россия
Наличие сканов в содержимом раздачи: нет
Трек лист:
1.Welcome to VVD Танцуй в последний раз Feat. Roma Kenga
2.Play Feat. Kirill Clash
3.Алиса Feat. Юрий Усачев
4.НаНаНа Feat. Bobina
5.Свежая вода Feat. ChinKong
6.Kosmos (Солнце в кармане) Feat. DJ Sergio Galoyan
7.Hare Krishna Feat. DJ List
8.Звезда (Русалочка) Feat. Feel, DJ Feel
9.Kill my business Feat. DJ Грув DJ Groove
10.Позови меня Feat. DJ Saha Dith
11.Москва Feat. DJ Smash
12.Будем танцевать Feat. "Достучаться до небес"
13.Very Dance (Небо, Море)

Отчёт ЕАС&#58;

Код:
Exact Audio Copy V1.0 beta 3 from 29. August 2011
Отчёт EAC об извлечении, выполненном 15. мая 2013, 0:58
Винтаж / Very Dance
Дисковод: ASUS    DRW-24B3ST   Adapter: 2  ID: 0
Режим чтения                 : Достоверность
Использование точного потока : Да
Отключение кэша аудио        : Да
Использование указателей C2  : Нет
Коррекция смещения при чтении                     : 6
Способность читать области Lead-in и Lead-out     : Нет
Заполнение пропущенных сэмплов тишиной            : Да
Удаление блоков с тишиной в начале и конце        : Нет
При вычислениях CRC использовались нулевые сэмплы : Да
Интерфейс                                         : Встроенный Win32-интерфейс для Win NT/2000
Выходной формат : Внутренние WAV-операции
Формат сэмплов  : 44.100 Гц; 16 бит; стерео
TOC извлечённого CD
     Трек |   Старт  | Длительность | Начальный сектор | Конечный сектор
    ---------------------------------------------------------------------
       1  |  0:00.00 |    5:06.41   |           0      |      22990
       2  |  5:06.41 |    4:33.57   |       22991      |      43522
       3  |  9:40.23 |    3:15.55   |       43523      |      58202
       4  | 12:56.03 |    4:18.68   |       58203      |      77620
       5  | 17:14.71 |    5:01.66   |       77621      |     100261
       6  | 22:16.62 |    4:18.45   |      100262      |     119656
       7  | 26:35.32 |    3:54.21   |      119657      |     137227
       8  | 30:29.53 |    4:33.65   |      137228      |     157767
       9  | 35:03.43 |    3:26.62   |      157768      |     173279
      10  | 38:30.30 |    3:54.27   |      173280      |     190856
      11  | 42:24.57 |    4:14.56   |      190857      |     209962
      12  | 46:39.38 |    3:53.10   |      209963      |     227447
      13  | 50:32.48 |    3:51.49   |      227448      |     244821
Характеристики диапазона извлечения и сообщения об ошибках
Выбранный диапазон
     Имя файла F:\Винтаж - Very Dance.wav
     Пиковый уровень 97.7 %
     Скорость извлечения 7.9 X
     Качество диапазона 100.0 %
     CRC теста 0760242C
     CRC копии 0760242C
     Копирование... OK
Ошибок не произошло
AccurateRip: сводка
Трек  1  отсутствует в базе данных
Трек  2  отсутствует в базе данных
Трек  3  отсутствует в базе данных
Трек  4  отсутствует в базе данных
Трек  5  отсутствует в базе данных
Трек  6  отсутствует в базе данных
Трек  7  отсутствует в базе данных
Трек  8  отсутствует в базе данных
Трек  9  отсутствует в базе данных
Трек 10  отсутствует в базе данных
Трек 11  отсутствует в базе данных
Трек 12  отсутствует в базе данных
Трек 13  отсутствует в базе данных
Ни одного трека нет в базе AccurateRip
Конец отчёта
---- CUETools DB Plugin V2.1.3
[CTDB TOCID: QnH5OnUhYYMr3B12jXjo1.4O_g8-] disk not present in database, Submit result: QnH5OnUhYYMr3B12jXjo1.4O_g8- has been uploaded
==== Контрольная сумма отчёта D741B483C0B74717C93AB8D9742C44835E53B9E10A04EA46F014F51ABCF9F6E6 ====

Отчёт auCDtect Task manager&#58;

Код:
-----------------------
DON'T MODIFY THIS FILE
-----------------------
PERFORMER: auCDtect Task Manager, ver. 1.5.1RC6 build 1.5.1.7
Copyright (c) 2008-2010 y-soft. All rights reserved
http://y-soft.org
ANALYZER: auCDtect: CD records authenticity detector, version 0.8.2
Copyright (c) 2004 Oleg Berngardt. All rights reserved.
Copyright (c) 2004 Alexander Djourik. All rights reserved.
FILE: Винтаж - Very Dance.ape
  Size: 432889224 Hash: 566E60C70A82165B5ED0070782E7BB1C Accuracy: -m0
  Conclusion: CDDA 100%
  Signature: A6A95152CAF5BD0A9B9FBF11CAF9313FEFA8FA43
Other forum [Profile] [PM]

Dracula

Longevity: 7 years 2 months

Posts: 11300

Торрент-статистика

Post 16-May-2013 13:46 (after 8 hours)

Топик был перенесен из форума Классика отечественных фильмов в форум Dance


kogesan
 
Display posts from previous:    
Reply to topic

The time now is: Today 23:41

All times are GMT + 3 Hours



You cannot post new topics in this forum
You cannot reply to topics in this forum
You cannot edit your posts in this forum
You cannot delete your posts in this forum
You cannot vote in polls in this forum
You cannot attach files in this forum
You cannot download files in this forum