Today is a free download without charge Download

(Electronic, Synthpop) Depeche Mode - Soothe My Soul (CD Maxi-Single) - 2013, FLAC (image + .cue), lossless

Reply to topic
 
Author
Message

p2000s ®

Gender:

Longevity: 6 years 7 months

Posts: 89

Location: деактивирован, причина: последнее посещение 2017-11-29. darkos_bot 14.06.2019г

Торрент-статистика

Post 11-May-2013 14:19

[Quote]

Depeche Mode - Soothe My Soul (CD Maxi-Single)
Страна: UK
Жанр: Electronic, Synthpop
Год выпуска: 2013
Формат: FLAC (image + .cue)
Битрейт аудио: lossless
Продолжительность: 00:35:49
Трэклист:
01. Soothe My Soul [Steve Angello vs Jacques Lu Cont Remix] [07:03]
02. Soothe My Soul [Tom Furse - The Horrors Remix] [04:58]
03. Soothe My Soul [Billy F Gibbons And Joe Hardy Remix] [05:17]
04. Soothe My Soul [Joris Delacroix Remix] [06:55]
05. Soothe My Soul [Black Asteroid Remix] [05:35]
06. Soothe My Soul [Gregor Tresher Soothed Remix] [05:59]
Soothe My Soul
Depeche Mode

Log Exact Audio Copy:

Exact Audio Copy V1.0 beta 3 from 29. August 2011
EAC extraction logfile from 10. May 2013, 15:08
Depeche Mode / Soothe My Soul
Used drive : SlimtypeBD E DS4E1S Adapter: 0 ID: 1
Read mode : Secure
Utilize accurate stream : Yes
Defeat audio cache : Yes
Make use of C2 pointers : No
Read offset correction : 6
Overread into Lead-In and Lead-Out : No
Fill up missing offset samples with silence : Yes
Delete leading and trailing silent blocks : No
Null samples used in CRC calculations : Yes
Used interface : Native Win32 interface for Win NT & 2000
Used output format : User Defined Encoder
Selected bitrate : 896 kBit/s
Quality : High
Add ID3 tag : No
Command line compressor : C:\Program Files (x86)\Exact Audio Copy\Flac\flac.exe
Additional command line options : -8 -V -T "Date=%year%" -T "Genre=%genre%" -T "COMMENT=ripped by sewerok®" %source%
TOC of the extracted CD
Track | Start | Length | Start sector | End sector
---------------------------------------------------------
1 | 0:00.00 | 7:03.39 | 0 | 31763
2 | 7:03.39 | 4:58.30 | 31764 | 54143
3 | 12:01.69 | 5:17.12 | 54144 | 77930
4 | 17:19.06 | 6:55.04 | 77931 | 109059
5 | 24:14.10 | 5:35.29 | 109060 | 134213
6 | 29:49.39 | 5:59.59 | 134214 | 161197
Range status and errors
Selected range
Filename E:\Depeche Mode - Soothe My Soul [2013](CD Maxi-Single)\Depeche Mode - Soothe My Soul.wav
Peak level 100.0 %
Extraction speed 4.1 X
Range quality 100.0 %
Test CRC D0C4A0BF
Copy CRC D0C4A0BF
Copy OK
No errors occurred
AccurateRip summary
Track 1 not present in database
Track 2 not present in database
Track 3 not present in database
Track 4 not present in database
Track 5 not present in database
Track 6 not present in database
None of the tracks are present in the AccurateRip database
End of status report
==== Log checksum A2942E655FA06FE79511E1CAACC401C9E8FE04B5DD7B523529AD4415061C632A ====

Log AudioChecker:

AUDIOCHECKER v2.0 beta (build 457) - by Dester - opdester@freemail.hu
~~~~~~~~~~~~~~~~~~~~~~~~~~~~~~~~~~
-=== НЕ РЕДАКТИРУЙТЕ ЭТОТ ФАЙЛ! ===-
Путь: ...\Depeche Mode - Soothe My Soul [CD Maxi-Single] (2013)
1 -=- Depeche Mode - Soothe My Soul.flac -=- CDDA (100%)
34109716
Other forum [Profile] [PM]
Display posts from previous:    
Reply to topic

The time now is: Today 08:44

All times are GMT + 3 Hours



You cannot post new topics in this forum
You cannot reply to topics in this forum
You cannot edit your posts in this forum
You cannot delete your posts in this forum
You cannot vote in polls in this forum
You cannot attach files in this forum
You cannot download files in this forum