Today is a free download without charge Download

VA - Reggae Gold 2012 (2CD) (2012) [MP3|~245 кб/с (V0)]<Reggae, Ska, Dub>

Reply to topic
 
Author
Message

Omen ®

Longevity: 8 years 7 months

Posts: 181087

Торрент-статистика

Post 22-Jan-2013 19:06

[Quote]

-VA - Reggae Gold 2012 (2CD) (2012)- Год: 2012
Жанр: Reggae, Ska, Dub
Продолжительность: 02:04:32
Кодек: MP3
Битрейт: ~245 кб/с (V0)
Тип битрейта: VBR
1CD
Продолжительность: 01:10:27
Трек лист:
01.Sean Paul - She Doesn't Mind [00:03:47]
02.Popcaan - Only Man She Want [00:03:21]
03.Potential Kidd - Yah Suh Nice [00:02:43]
04.Kosnhens - Gal A Bubble [00:03:31]
05.Christopher Martin - Cheater's Prayer [00:03:23]
06.Busy Signal - Come Over (Missing You) [00:05:17]
07.Etana - Reggae [00:05:49]
08.Iba Mahr - Will I Wait In Vain [00:04:18]
09.Busy Signal - Kingston Town (Remix Ft.Damain Marley) [00:03:43]
10.Romain Virgo - I Know Better [00:04:16]
11.Konshens - Do Sum'n [00:03:38]
12.Cham - Wine Ft. O [00:03:46]
13.Gyptian - Overtime [00:03:09]
14.Melanie Fiona - Like I Love You [00:04:25]
15.Tarrus Riley - Not Missing You [00:04:10]
16.Beres Hammond - Keeping It Real [00:03:44]
17.Terry Linen - I Look To You [00:03:57]
18.Wayne Wonder - No Letting Go [00:03:22]

2CD

Продолжительность: 00:50:11
Трек лист:
1.Gyptian - Hold You [00:03:53]
2.Sean Paul - Temperature [00:03:36]
3.Beenie Man - Romie [00:03:47]
4.Bounty Killer - Benz And Bimma [00:03:46]
5.General Degree - When I Hold You Tonight [00:03:05]
6.Mr Vegas - Heads High [00:03:29]
7.Mavado - So Special [00:03:00]
8.Beres Hammaond And Buju Banton - Pull It Up [00:03:32]
9.I Wayne - Can't Satisfy Her [00:03:42]
10.Sizzla - Just One Of These Days [00:03:29]
11.Tanya Stephens - It's A Pity [00:04:15]
12.Queen Ifrica - Below The Waist [00:03:33]
13.Lady Saw - Healing Ft. Beenie Man [00:03:31]
14.Tok - Footprints [00:03:31]
15.Morgan Heritage - Down By The River [00:03:49]

MediaInfo

Код:
Общее
Полное имя                               : D:\Моя музыка\VA-Reggae_Gold_2012-2CD\000-va-reggae_gold_2012-2cd-2012-proof-yard.jpg
Формат                                   : JPEG
Размер файла                             : 297 Кбайт
Изображения
Формат                                   : JPEG
Ширина                                   : 1862 пикселя
Высота                                   : 777 пикселей
Цветовое пространство                    : YUV
Субдискретизация насыщенности            : 4:2:2
Битовая глубина                          : 8 бит
Метод сжатия                             : С потерями
Размер потока                            : 297 Кбайт (100%)
Общее
Полное имя                               : D:\Моя музыка\VA-Reggae_Gold_2012-2CD\01.Sean Paul - She Doesn't Mind.mp3
Формат                                   : MPEG Audio
Размер файла                             : 6,45 Мбайт
Продолжительность                        : 3 м. 47 с.
Режим общего битрейта                    : Переменный
Общий поток                              : 236 Кбит/сек
Альбом                                   : Reggae Gold 2012
Трек                                     : She Doesn't Mind
Трек/Положение                           : 1
Исполнитель                              : Sean Paul
Кодирование произвёл                     : -
Жанр                                     : Reggae
Дата записи                              : 2012
Библиотека кодирования                   : LAME3.98r
Обложка                                  : Yes
Тип обложки                              : Cover (front)
MIME-тип обложки                         : image/jpeg
URL                                      : http://www.vpreggae.com/REGGAE-GOLD-2012
Аудио
Формат                                   : MPEG Audio
Версия формата                           : Version 1
Профиль формата                          : Layer 3
Режим                                    : Joint stereo
Продолжительность                        : 3 м. 47 с.
Вид битрейта                             : Переменный
Битрейт                                  : 236 Кбит/сек
Минимальный битрейт                      : 32,0 Кбит/сек
Каналы                                   : 2 канала
Частота                                  : 44,1 КГц
Метод сжатия                             : С потерями
Размер потока                            : 6,42 Мбайт (100%)
Библиотека кодирования                   : LAME3.98r
Настройки программы                      : -m j -V 0 -q 0 -lowpass 19.5 --vbr-new -b 32
Язык                                     : English
Общее
Полное имя                               : D:\Моя музыка\VA-Reggae_Gold_2012-2CD\02.Popcaan - Only Man She Want.mp3
Формат                                   : MPEG Audio
Размер файла                             : 6,06 Мбайт
Продолжительность                        : 3 м. 21 с.
Режим общего битрейта                    : Переменный
Общий поток                              : 251 Кбит/сек
Альбом                                   : Reggae Gold 2012
Трек                                     : Only Man She Want
Трек/Положение                           : 2
Исполнитель                              : Popcaan
Кодирование произвёл                     : -
Жанр                                     : Reggae
Дата записи                              : 2012
Библиотека кодирования                   : LAME3.98r
Обложка                                  : Yes
Тип обложки                              : Cover (front)
MIME-тип обложки                         : image/jpeg
URL                                      : http://www.vpreggae.com/REGGAE-GOLD-2012
Аудио
Формат                                   : MPEG Audio
Версия формата                           : Version 1
Профиль формата                          : Layer 3
Режим                                    : Joint stereo
Расширение режима                        : MS Stereo
Продолжительность                        : 3 м. 21 с.
Вид битрейта                             : Переменный
Битрейт                                  : 251 Кбит/сек
Минимальный битрейт                      : 32,0 Кбит/сек
Каналы                                   : 2 канала
Частота                                  : 44,1 КГц
Метод сжатия                             : С потерями
Размер потока                            : 6,03 Мбайт (100%)
Библиотека кодирования                   : LAME3.98r
Настройки программы                      : -m j -V 0 -q 0 -lowpass 19.5 --vbr-new -b 32
Язык                                     : English
Общее
Полное имя                               : D:\Моя музыка\VA-Reggae_Gold_2012-2CD\03.Potential Kidd - Yah Suh Nice.mp3
Формат                                   : MPEG Audio
Размер файла                             : 4,57 Мбайт
Продолжительность                        : 2 м. 43 с.
Режим общего битрейта                    : Переменный
Общий поток                              : 233 Кбит/сек
Альбом                                   : Reggae Gold 2012
Трек                                     : Yah Suh Nice
Трек/Положение                           : 3
Исполнитель                              : Potential Kidd
Кодирование произвёл                     : -
Жанр                                     : Reggae
Дата записи                              : 2012
Библиотека кодирования                   : LAME3.98r
Обложка                                  : Yes
Тип обложки                              : Cover (front)
MIME-тип обложки                         : image/jpeg
URL                                      : http://www.vpreggae.com/REGGAE-GOLD-2012
Аудио
Формат                                   : MPEG Audio
Версия формата                           : Version 1
Профиль формата                          : Layer 3
Режим                                    : Joint stereo
Расширение режима                        : MS Stereo
Продолжительность                        : 2 м. 43 с.
Вид битрейта                             : Переменный
Битрейт                                  : 233 Кбит/сек
Минимальный битрейт                      : 32,0 Кбит/сек
Каналы                                   : 2 канала
Частота                                  : 44,1 КГц
Метод сжатия                             : С потерями
Размер потока                            : 4,55 Мбайт (99%)
Библиотека кодирования                   : LAME3.98r
Настройки программы                      : -m j -V 0 -q 0 -lowpass 19.5 --vbr-new -b 32
Язык                                     : English
Общее
Полное имя                               : D:\Моя музыка\VA-Reggae_Gold_2012-2CD\04.Kosnhens - Gal A Bubble.mp3
Формат                                   : MPEG Audio
Размер файла                             : 6,66 Мбайт
Продолжительность                        : 3 м. 31 с.
Режим общего битрейта                    : Переменный
Общий поток                              : 264 Кбит/сек
Альбом                                   : Reggae Gold 2012
Трек                                     : Gal A Bubble
Трек/Положение                           : 4
Исполнитель                              : Kosnhens
Кодирование произвёл                     : -
Жанр                                     : Reggae
Дата записи                              : 2012
Библиотека кодирования                   : LAME3.98r
Обложка                                  : Yes
Тип обложки                              : Cover (front)
MIME-тип обложки                         : image/jpeg
URL                                      : http://www.vpreggae.com/REGGAE-GOLD-2012
Аудио
Формат                                   : MPEG Audio
Версия формата                           : Version 1
Профиль формата                          : Layer 3
Режим                                    : Joint stereo
Продолжительность                        : 3 м. 31 с.
Вид битрейта                             : Переменный
Битрейт                                  : 264 Кбит/сек
Минимальный битрейт                      : 32,0 Кбит/сек
Каналы                                   : 2 канала
Частота                                  : 44,1 КГц
Метод сжатия                             : С потерями
Размер потока                            : 6,63 Мбайт (100%)
Библиотека кодирования                   : LAME3.98r
Настройки программы                      : -m j -V 0 -q 0 -lowpass 19.5 --vbr-new -b 32
Язык                                     : English
Общее
Полное имя                               : D:\Моя музыка\VA-Reggae_Gold_2012-2CD\05.Christopher Martin - Cheater's Prayer.mp3
Формат                                   : MPEG Audio
Размер файла                             : 6,35 Мбайт
Продолжительность                        : 3 м. 23 с.
Режим общего битрейта                    : Переменный
Общий поток                              : 261 Кбит/сек
Альбом                                   : Reggae Gold 2012
Трек                                     : Cheater's Prayer
Трек/Положение                           : 5
Исполнитель                              : Christopher Martin
Кодирование произвёл                     : -
Жанр                                     : Reggae
Дата записи                              : 2012
Библиотека кодирования                   : LAME3.98r
Обложка                                  : Yes
Тип обложки                              : Cover (front)
MIME-тип обложки                         : image/jpeg
URL                                      : http://www.vpreggae.com/REGGAE-GOLD-2012
Аудио
Формат                                   : MPEG Audio
Версия формата                           : Version 1
Профиль формата                          : Layer 3
Режим                                    : Joint stereo
Продолжительность                        : 3 м. 23 с.
Вид битрейта                             : Переменный
Битрейт                                  : 261 Кбит/сек
Минимальный битрейт                      : 32,0 Кбит/сек
Каналы                                   : 2 канала
Частота                                  : 44,1 КГц
Метод сжатия                             : С потерями
Размер потока                            : 6,32 Мбайт (100%)
Библиотека кодирования                   : LAME3.98r
Настройки программы                      : -m j -V 0 -q 0 -lowpass 19.5 --vbr-new -b 32
Язык                                     : English
Общее
Полное имя                               : D:\Моя музыка\VA-Reggae_Gold_2012-2CD\06.Busy Signal - Come Over (Missing You).mp3
Формат                                   : MPEG Audio
Размер файла                             : 9,02 Мбайт
Продолжительность                        : 5 м. 17 с.
Режим общего битрейта                    : Переменный
Общий поток                              : 238 Кбит/сек
Альбом                                   : Reggae Gold 2012
Трек                                     : Come Over (Missing You)
Трек/Положение                           : 6
Исполнитель                              : Busy Signal
Кодирование произвёл                     : -
Жанр                                     : Reggae
Дата записи                              : 2012
Библиотека кодирования                   : LAME3.98r
Обложка                                  : Yes
Тип обложки                              : Cover (front)
MIME-тип обложки                         : image/jpeg
URL                                      : http://www.vpreggae.com/REGGAE-GOLD-2012
Аудио
Формат                                   : MPEG Audio
Версия формата                           : Version 1
Профиль формата                          : Layer 3
Режим                                    : Joint stereo
Продолжительность                        : 5 м. 17 с.
Вид битрейта                             : Переменный
Битрейт                                  : 238 Кбит/сек
Минимальный битрейт                      : 32,0 Кбит/сек
Каналы                                   : 2 канала
Частота                                  : 44,1 КГц
Метод сжатия                             : С потерями
Размер потока                            : 8,99 Мбайт (100%)
Библиотека кодирования                   : LAME3.98r
Настройки программы                      : -m j -V 0 -q 0 -lowpass 19.5 --vbr-new -b 32
Язык                                     : English
Общее
Полное имя                               : D:\Моя музыка\VA-Reggae_Gold_2012-2CD\07.Etana - Reggae.mp3
Формат                                   : MPEG Audio
Размер файла                             : 10,5 Мбайт
Продолжительность                        : 5 м. 49 с.
Режим общего битрейта                    : Переменный
Общий поток                              : 250 Кбит/сек
Альбом                                   : Reggae Gold 2012
Трек                                     : Reggae
Трек/Положение                           : 7
Исполнитель                              : Etana
Кодирование произвёл                     : -
Жанр                                     : Reggae
Дата записи                              : 2012
Библиотека кодирования                   : LAME3.98r
Обложка                                  : Yes
Тип обложки                              : Cover (front)
MIME-тип обложки                         : image/jpeg
URL                                      : http://www.vpreggae.com/REGGAE-GOLD-2012
Аудио
Формат                                   : MPEG Audio
Версия формата                           : Version 1
Профиль формата                          : Layer 3
Режим                                    : Joint stereo
Продолжительность                        : 5 м. 49 с.
Вид битрейта                             : Переменный
Битрейт                                  : 250 Кбит/сек
Минимальный битрейт                      : 32,0 Кбит/сек
Каналы                                   : 2 канала
Частота                                  : 44,1 КГц
Метод сжатия                             : С потерями
Размер потока                            : 10,4 Мбайт (100%)
Библиотека кодирования                   : LAME3.98r
Настройки программы                      : -m j -V 0 -q 0 -lowpass 19.5 --vbr-new -b 32
Язык                                     : English
Общее
Полное имя                               : D:\Моя музыка\VA-Reggae_Gold_2012-2CD\08.Iba Mahr - Will I Wait In Vain.mp3
Формат                                   : MPEG Audio
Размер файла                             : 7,48 Мбайт
Продолжительность                        : 4 м. 18 с.
Режим общего битрейта                    : Переменный
Общий поток                              : 242 Кбит/сек
Альбом                                   : Reggae Gold 2012
Трек                                     : Will I Wait In Vain
Трек/Положение                           : 8
Исполнитель                              : Iba Mahr
Кодирование произвёл                     : -
Жанр                                     : Reggae
Дата записи                              : 2012
Библиотека кодирования                   : LAME3.98r
Обложка                                  : Yes
Тип обложки                              : Cover (front)
MIME-тип обложки                         : image/jpeg
URL                                      : http://www.vpreggae.com/REGGAE-GOLD-2012
Аудио
Формат                                   : MPEG Audio
Версия формата                           : Version 1
Профиль формата                          : Layer 3
Режим                                    : Joint stereo
Расширение режима                        : MS Stereo
Продолжительность                        : 4 м. 18 с.
Вид битрейта                             : Переменный
Битрейт                                  : 242 Кбит/сек
Минимальный битрейт                      : 32,0 Кбит/сек
Каналы                                   : 2 канала
Частота                                  : 44,1 КГц
Метод сжатия                             : С потерями
Размер потока                            : 7,45 Мбайт (100%)
Библиотека кодирования                   : LAME3.98r
Настройки программы                      : -m j -V 0 -q 0 -lowpass 19.5 --vbr-new -b 32
Язык                                     : English
Общее
Полное имя                               : D:\Моя музыка\VA-Reggae_Gold_2012-2CD\09.Busy Signal - Kingston Town (Remix Ft.Damain Marley).mp3
Формат                                   : MPEG Audio
Размер файла                             : 6,48 Мбайт
Продолжительность                        : 3 м. 43 с.
Режим общего битрейта                    : Переменный
Общий поток                              : 242 Кбит/сек
Альбом                                   : Reggae Gold 2012
Трек                                     : Kingston Town (Remix Ft.Damain Marley)
Трек/Положение                           : 9
Исполнитель                              : Busy Signal
Кодирование произвёл                     : -
Жанр                                     : Reggae
Дата записи                              : 2012
Библиотека кодирования                   : LAME3.98r
Обложка                                  : Yes
Тип обложки                              : Cover (front)
MIME-тип обложки                         : image/jpeg
URL                                      : http://www.vpreggae.com/REGGAE-GOLD-2012
Аудио
Формат                                   : MPEG Audio
Версия формата                           : Version 1
Профиль формата                          : Layer 3
Режим                                    : Joint stereo
Расширение режима                        : MS Stereo
Продолжительность                        : 3 м. 43 с.
Вид битрейта                             : Переменный
Битрейт                                  : 242 Кбит/сек
Минимальный битрейт                      : 32,0 Кбит/сек
Каналы                                   : 2 канала
Частота                                  : 44,1 КГц
Метод сжатия                             : С потерями
Размер потока                            : 6,45 Мбайт (100%)
Библиотека кодирования                   : LAME3.98r
Настройки программы                      : -m j -V 0 -q 0 -lowpass 19.5 --vbr-new -b 32
Язык                                     : English
Общее
Полное имя                               : D:\Моя музыка\VA-Reggae_Gold_2012-2CD\10.Romain Virgo - I Know Better.mp3
Формат                                   : MPEG Audio
Размер файла                             : 7,67 Мбайт
Продолжительность                        : 4 м. 16 с.
Режим общего битрейта                    : Переменный
Общий поток                              : 250 Кбит/сек
Альбом                                   : Reggae Gold 2012
Трек                                     : I Know Better
Трек/Положение                           : 10
Исполнитель                              : Romain Virgo
Кодирование произвёл                     : -
Жанр                                     : Reggae
Дата записи                              : 2012
Библиотека кодирования                   : LAME3.98r
Обложка                                  : Yes
Тип обложки                              : Cover (front)
MIME-тип обложки                         : image/jpeg
URL                                      : http://www.vpreggae.com/REGGAE-GOLD-2012
Аудио
Формат                                   : MPEG Audio
Версия формата                           : Version 1
Профиль формата                          : Layer 3
Режим                                    : Joint stereo
Расширение режима                        : MS Stereo
Продолжительность                        : 4 м. 16 с.
Вид битрейта                             : Переменный
Битрейт                                  : 250 Кбит/сек
Минимальный битрейт                      : 32,0 Кбит/сек
Каналы                                   : 2 канала
Частота                                  : 44,1 КГц
Метод сжатия                             : С потерями
Размер потока                            : 7,65 Мбайт (100%)
Библиотека кодирования                   : LAME3.98r
Настройки программы                      : -m j -V 0 -q 0 -lowpass 19.5 --vbr-new -b 32
Язык                                     : English
Общее
Полное имя                               : D:\Моя музыка\VA-Reggae_Gold_2012-2CD\11.Konshens - Do Sum'n.mp3
Формат                                   : MPEG Audio
Размер файла                             : 6,41 Мбайт
Продолжительность                        : 3 м. 38 с.
Режим общего битрейта                    : Переменный
Общий поток                              : 245 Кбит/сек
Альбом                                   : Reggae Gold 2012
Трек                                     : Do Sum'n
Трек/Положение                           : 11
Исполнитель                              : Konshens
Кодирование произвёл                     : -
Жанр                                     : Reggae
Дата записи                              : 2012
Библиотека кодирования                   : LAME3.98r
Обложка                                  : Yes
Тип обложки                              : Cover (front)
MIME-тип обложки                         : image/jpeg
URL                                      : http://www.vpreggae.com/REGGAE-GOLD-2012
Аудио
Формат                                   : MPEG Audio
Версия формата                           : Version 1
Профиль формата                          : Layer 3
Режим                                    : Joint stereo
Продолжительность                        : 3 м. 38 с.
Вид битрейта                             : Переменный
Битрейт                                  : 245 Кбит/сек
Минимальный битрейт                      : 32,0 Кбит/сек
Каналы                                   : 2 канала
Частота                                  : 44,1 КГц
Метод сжатия                             : С потерями
Размер потока                            : 6,39 Мбайт (100%)
Библиотека кодирования                   : LAME3.98r
Настройки программы                      : -m j -V 0 -q 0 -lowpass 19.5 --vbr-new -b 32
Язык                                     : English
Общее
Полное имя                               : D:\Моя музыка\VA-Reggae_Gold_2012-2CD\12.Cham - Wine Ft. O.mp3
Формат                                   : MPEG Audio
Размер файла                             : 7,11 Мбайт
Продолжительность                        : 3 м. 46 с.
Режим общего битрейта                    : Переменный
Общий поток                              : 263 Кбит/сек
Альбом                                   : Reggae Gold 2012
Трек                                     : Wine Ft. O
Трек/Положение                           : 12
Исполнитель                              : Cham
Кодирование произвёл                     : -
Жанр                                     : Reggae
Дата записи                              : 2012
Библиотека кодирования                   : LAME3.98r
Обложка                                  : Yes
Тип обложки                              : Cover (front)
MIME-тип обложки                         : image/jpeg
URL                                      : http://www.vpreggae.com/REGGAE-GOLD-2012
Аудио
Формат                                   : MPEG Audio
Версия формата                           : Version 1
Профиль формата                          : Layer 3
Режим                                    : Joint stereo
Продолжительность                        : 3 м. 46 с.
Вид битрейта                             : Переменный
Битрейт                                  : 263 Кбит/сек
Минимальный битрейт                      : 32,0 Кбит/сек
Каналы                                   : 2 канала
Частота                                  : 44,1 КГц
Метод сжатия                             : С потерями
Размер потока                            : 7,09 Мбайт (100%)
Библиотека кодирования                   : LAME3.98r
Настройки программы                      : -m j -V 0 -q 0 -lowpass 19.5 --vbr-new -b 32
Язык                                     : English
Общее
Полное имя                               : D:\Моя музыка\VA-Reggae_Gold_2012-2CD\13.Gyptian - Overtime.mp3
Формат                                   : MPEG Audio
Размер файла                             : 5,84 Мбайт
Продолжительность                        : 3 м. 9 с.
Режим общего битрейта                    : Переменный
Общий поток                              : 258 Кбит/сек
Альбом                                   : Reggae Gold 2012
Трек                                     : Overtime
Трек/Положение                           : 13
Исполнитель                              : Gyptian
Кодирование произвёл                     : -
Жанр                                     : Reggae
Дата записи                              : 2012
Библиотека кодирования                   : LAME3.98r
Обложка                                  : Yes
Тип обложки                              : Cover (front)
MIME-тип обложки                         : image/jpeg
URL                                      : http://www.vpreggae.com/REGGAE-GOLD-2012
Аудио
Формат                                   : MPEG Audio
Версия формата                           : Version 1
Профиль формата                          : Layer 3
Режим                                    : Joint stereo
Расширение режима                        : MS Stereo
Продолжительность                        : 3 м. 9 с.
Вид битрейта                             : Переменный
Битрейт                                  : 258 Кбит/сек
Минимальный битрейт                      : 32,0 Кбит/сек
Каналы                                   : 2 канала
Частота                                  : 44,1 КГц
Метод сжатия                             : С потерями
Размер потока                            : 5,82 Мбайт (100%)
Библиотека кодирования                   : LAME3.98r
Настройки программы                      : -m j -V 0 -q 0 -lowpass 19.5 --vbr-new -b 32
Язык                                     : English
Общее
Полное имя                               : D:\Моя музыка\VA-Reggae_Gold_2012-2CD\14.Melanie Fiona - Like I Love You.mp3
Формат                                   : MPEG Audio
Размер файла                             : 8,09 Мбайт
Продолжительность                        : 4 м. 25 с.
Режим общего битрейта                    : Переменный
Общий поток                              : 254 Кбит/сек
Альбом                                   : Reggae Gold 2012
Трек                                     : Like I Love You
Трек/Положение                           : 14
Исполнитель                              : Melanie Fiona
Кодирование произвёл                     : -
Жанр                                     : Reggae
Дата записи                              : 2012
Библиотека кодирования                   : LAME3.98r
Обложка                                  : Yes
Тип обложки                              : Cover (front)
MIME-тип обложки                         : image/jpeg
URL                                      : http://www.vpreggae.com/REGGAE-GOLD-2012
Аудио
Формат                                   : MPEG Audio
Версия формата                           : Version 1
Профиль формата                          : Layer 3
Режим                                    : Joint stereo
Расширение режима                        : MS Stereo
Продолжительность                        : 4 м. 25 с.
Вид битрейта                             : Переменный
Битрейт                                  : 254 Кбит/сек
Минимальный битрейт                      : 32,0 Кбит/сек
Каналы                                   : 2 канала
Частота                                  : 44,1 КГц
Метод сжатия                             : С потерями
Размер потока                            : 8,06 Мбайт (100%)
Библиотека кодирования                   : LAME3.98r
Настройки программы                      : -m j -V 0 -q 0 -lowpass 19.5 --vbr-new -b 32
Язык                                     : English
Общее
Полное имя                               : D:\Моя музыка\VA-Reggae_Gold_2012-2CD\15.Tarrus Riley - Not Missing You.mp3
Формат                                   : MPEG Audio
Размер файла                             : 6,59 Мбайт
Продолжительность                        : 4 м. 10 с.
Режим общего битрейта                    : Переменный
Общий поток                              : 220 Кбит/сек
Альбом                                   : Reggae Gold 2012
Трек                                     : Not Missing You
Трек/Положение                           : 15
Исполнитель                              : Tarrus Riley
Кодирование произвёл                     : -
Жанр                                     : Reggae
Дата записи                              : 2012
Библиотека кодирования                   : LAME3.98r
Обложка                                  : Yes
Тип обложки                              : Cover (front)
MIME-тип обложки                         : image/jpeg
URL                                      : http://www.vpreggae.com/REGGAE-GOLD-2012
Аудио
Формат                                   : MPEG Audio
Версия формата                           : Version 1
Профиль формата                          : Layer 3
Режим                                    : Joint stereo
Расширение режима                        : MS Stereo
Продолжительность                        : 4 м. 10 с.
Вид битрейта                             : Переменный
Битрейт                                  : 220 Кбит/сек
Минимальный битрейт                      : 32,0 Кбит/сек
Каналы                                   : 2 канала
Частота                                  : 44,1 КГц
Метод сжатия                             : С потерями
Размер потока                            : 6,56 Мбайт (100%)
Библиотека кодирования                   : LAME3.98r
Настройки программы                      : -m j -V 0 -q 0 -lowpass 19.5 --vbr-new -b 32
Язык                                     : English
Общее
Полное имя                               : D:\Моя музыка\VA-Reggae_Gold_2012-2CD\16.Beres Hammond - Keeping It Real.mp3
Формат                                   : MPEG Audio
Размер файла                             : 6,55 Мбайт
Продолжительность                        : 3 м. 44 с.
Режим общего битрейта                    : Переменный
Общий поток                              : 244 Кбит/сек
Альбом                                   : Reggae Gold 2012
Трек                                     : Keeping It Real
Трек/Положение                           : 16
Исполнитель                              : Beres Hammond
Кодирование произвёл                     : -
Жанр                                     : Reggae
Дата записи                              : 2012
Библиотека кодирования                   : LAME3.98r
Обложка                                  : Yes
Тип обложки                              : Cover (front)
MIME-тип обложки                         : image/jpeg
URL                                      : http://www.vpreggae.com/REGGAE-GOLD-2012
Аудио
Формат                                   : MPEG Audio
Версия формата                           : Version 1
Профиль формата                          : Layer 3
Режим                                    : Joint stereo
Расширение режима                        : MS Stereo
Продолжительность                        : 3 м. 44 с.
Вид битрейта                             : Переменный
Битрейт                                  : 244 Кбит/сек
Минимальный битрейт                      : 32,0 Кбит/сек
Каналы                                   : 2 канала
Частота                                  : 44,1 КГц
Метод сжатия                             : С потерями
Размер потока                            : 6,52 Мбайт (100%)
Библиотека кодирования                   : LAME3.98r
Настройки программы                      : -m j -V 0 -q 0 -lowpass 19.5 --vbr-new -b 32
Язык                                     : English
Общее
Полное имя                               : D:\Моя музыка\VA-Reggae_Gold_2012-2CD\17.Terry Linen - I Look To You.mp3
Формат                                   : MPEG Audio
Размер файла                             : 6,81 Мбайт
Продолжительность                        : 3 м. 57 с.
Режим общего битрейта                    : Переменный
Общий поток                              : 240 Кбит/сек
Альбом                                   : Reggae Gold 2012
Трек                                     : I Look To You
Трек/Положение                           : 17
Исполнитель                              : Terry Linen
Кодирование произвёл                     : -
Жанр                                     : Reggae
Дата записи                              : 2012
Библиотека кодирования                   : LAME3.98r
Обложка                                  : Yes
Тип обложки                              : Cover (front)
MIME-тип обложки                         : image/jpeg
URL                                      : http://www.vpreggae.com/REGGAE-GOLD-2012
Аудио
Формат                                   : MPEG Audio
Версия формата                           : Version 1
Профиль формата                          : Layer 3
Режим                                    : Joint stereo
Продолжительность                        : 3 м. 57 с.
Вид битрейта                             : Переменный
Битрейт                                  : 240 Кбит/сек
Минимальный битрейт                      : 32,0 Кбит/сек
Каналы                                   : 2 канала
Частота                                  : 44,1 КГц
Метод сжатия                             : С потерями
Размер потока                            : 6,79 Мбайт (100%)
Библиотека кодирования                   : LAME3.98r
Настройки программы                      : -m j -V 0 -q 0 -lowpass 19.5 --vbr-new -b 32
Язык                                     : English
Общее
Полное имя                               : D:\Моя музыка\VA-Reggae_Gold_2012-2CD\18.Wayne Wonder - No Letting Go.mp3
Формат                                   : MPEG Audio
Размер файла                             : 5,41 Мбайт
Продолжительность                        : 3 м. 22 с.
Режим общего битрейта                    : Переменный
Общий поток                              : 223 Кбит/сек
Альбом                                   : Reggae Gold 2012
Трек                                     : No Letting Go
Трек/Положение                           : 18
Исполнитель                              : Wayne Wonder
Кодирование произвёл                     : -
Жанр                                     : Reggae
Дата записи                              : 2012
Библиотека кодирования                   : LAME3.98r
Обложка                                  : Yes
Тип обложки                              : Cover (front)
MIME-тип обложки                         : image/jpeg
Примечание                               : -|- YARD MP3 FORCE -|-
URL                                      : http://www.vpreggae.com/REGGAE-GOLD-2012
Аудио
Формат                                   : MPEG Audio
Версия формата                           : Version 1
Профиль формата                          : Layer 3
Режим                                    : Joint stereo
Расширение режима                        : MS Stereo
Продолжительность                        : 3 м. 22 с.
Вид битрейта                             : Переменный
Битрейт                                  : 223 Кбит/сек
Минимальный битрейт                      : 32,0 Кбит/сек
Каналы                                   : 2 канала
Частота                                  : 44,1 КГц
Метод сжатия                             : С потерями
Размер потока                            : 5,38 Мбайт (100%)
Библиотека кодирования                   : LAME3.98r
Настройки программы                      : -m j -V 0 -q 0 -lowpass 19.5 --vbr-new -b 32
Язык                                     : English
Общее
Полное имя                               : D:\Моя музыка\VA-Reggae_Gold_2012-2CD\19.Gyptian - Hold You.mp3
Формат                                   : MPEG Audio
Размер файла                             : 7,22 Мбайт
Продолжительность                        : 3 м. 53 с.
Режим общего битрейта                    : Переменный
Общий поток                              : 258 Кбит/сек
Альбом                                   : Reggae Gold 2012
Трек                                     : Hold You
Трек/Положение                           : 19
Исполнитель                              : Gyptian
Кодирование произвёл                     : -
Жанр                                     : Reggae
Дата записи                              : 2012
Библиотека кодирования                   : LAME3.98r
Обложка                                  : Yes
Тип обложки                              : Cover (front)
MIME-тип обложки                         : image/jpeg
Примечание                               : -|- YARD MP3 FORCE -|-
URL                                      : http://www.vpreggae.com/REGGAE-GOLD-2012
Аудио
Формат                                   : MPEG Audio
Версия формата                           : Version 1
Профиль формата                          : Layer 3
Режим                                    : Joint stereo
Расширение режима                        : MS Stereo
Продолжительность                        : 3 м. 53 с.
Вид битрейта                             : Переменный
Битрейт                                  : 258 Кбит/сек
Минимальный битрейт                      : 32,0 Кбит/сек
Каналы                                   : 2 канала
Частота                                  : 44,1 КГц
Метод сжатия                             : С потерями
Размер потока                            : 7,19 Мбайт (100%)
Библиотека кодирования                   : LAME3.98r
Настройки программы                      : -m j -V 0 -q 0 -lowpass 19.5 --vbr-new -b 32
Язык                                     : English
Общее
Полное имя                               : D:\Моя музыка\VA-Reggae_Gold_2012-2CD\20.Sean Paul - Temperature.mp3
Формат                                   : MPEG Audio
Размер файла                             : 6,20 Мбайт
Продолжительность                        : 3 м. 36 с.
Режим общего битрейта                    : Переменный
Общий поток                              : 240 Кбит/сек
Альбом                                   : Reggae Gold 2012
Трек                                     : Temperature
Трек/Положение                           : 20
Исполнитель                              : Sean Paul
Кодирование произвёл                     : -
Жанр                                     : Reggae
Дата записи                              : 2012
Библиотека кодирования                   : LAME3.98r
Обложка                                  : Yes
Тип обложки                              : Cover (front)
MIME-тип обложки                         : image/jpeg
Примечание                               : -|- YARD MP3 FORCE -|-
URL                                      : http://www.vpreggae.com/REGGAE-GOLD-2012
Аудио
Формат                                   : MPEG Audio
Версия формата                           : Version 1
Профиль формата                          : Layer 3
Режим                                    : Joint stereo
Расширение режима                        : MS Stereo
Продолжительность                        : 3 м. 36 с.
Вид битрейта                             : Переменный
Битрейт                                  : 240 Кбит/сек
Минимальный битрейт                      : 32,0 Кбит/сек
Каналы                                   : 2 канала
Частота                                  : 44,1 КГц
Метод сжатия                             : С потерями
Размер потока                            : 6,18 Мбайт (100%)
Библиотека кодирования                   : LAME3.98r
Настройки программы                      : -m j -V 0 -q 0 -lowpass 19.5 --vbr-new -b 32
Язык                                     : English
Общее
Полное имя                               : D:\Моя музыка\VA-Reggae_Gold_2012-2CD\21.Beenie Man - Romie.mp3
Формат                                   : MPEG Audio
Размер файла                             : 5,92 Мбайт
Продолжительность                        : 3 м. 47 с.
Режим общего битрейта                    : Переменный
Общий поток                              : 217 Кбит/сек
Альбом                                   : Reggae Gold 2012
Трек                                     : Romie
Трек/Положение                           : 21
Исполнитель                              : Beenie Man
Кодирование произвёл                     : -
Жанр                                     : Reggae
Дата записи                              : 2012
Библиотека кодирования                   : LAME3.98r
Обложка                                  : Yes
Тип обложки                              : Cover (front)
MIME-тип обложки                         : image/jpeg
Примечание                               : -|- YARD MP3 FORCE -|-
URL                                      : http://www.vpreggae.com/REGGAE-GOLD-2012
Аудио
Формат                                   : MPEG Audio
Версия формата                           : Version 1
Профиль формата                          : Layer 3
Режим                                    : Joint stereo
Расширение режима                        : MS Stereo
Продолжительность                        : 3 м. 47 с.
Вид битрейта                             : Переменный
Битрейт                                  : 217 Кбит/сек
Минимальный битрейт                      : 32,0 Кбит/сек
Каналы                                   : 2 канала
Частота                                  : 44,1 КГц
Метод сжатия                             : С потерями
Размер потока                            : 5,89 Мбайт (100%)
Библиотека кодирования                   : LAME3.98r
Настройки программы                      : -m j -V 0 -q 0 -lowpass 19.5 --vbr-new -b 32
Язык                                     : English
Общее
Полное имя                               : D:\Моя музыка\VA-Reggae_Gold_2012-2CD\22.Bounty Killer - Benz And Bimma.mp3
Формат                                   : MPEG Audio
Размер файла                             : 7,65 Мбайт
Продолжительность                        : 3 м. 46 с.
Режим общего битрейта                    : Переменный
Общий поток                              : 282 Кбит/сек
Альбом                                   : Reggae Gold 2012
Трек                                     : Benz And Bimma
Трек/Положение                           : 22
Исполнитель                              : Bounty Killer
Кодирование произвёл                     : -
Жанр                                     : Reggae
Дата записи                              : 2012
Библиотека кодирования                   : LAME3.98r
Обложка                                  : Yes
Тип обложки                              : Cover (front)
MIME-тип обложки                         : image/jpeg
Примечание                               : -|- YARD MP3 FORCE -|-
URL                                      : http://www.vpreggae.com/REGGAE-GOLD-2012
Аудио
Формат                                   : MPEG Audio
Версия формата                           : Version 1
Профиль формата                          : Layer 3
Режим                                    : Joint stereo
Расширение режима                        : MS Stereo
Продолжительность                        : 3 м. 46 с.
Вид битрейта                             : Переменный
Битрейт                                  : 282 Кбит/сек
Минимальный битрейт                      : 32,0 Кбит/сек
Каналы                                   : 2 канала
Частота                                  : 44,1 КГц
Метод сжатия                             : С потерями
Размер потока                            : 7,63 Мбайт (100%)
Библиотека кодирования                   : LAME3.98r
Настройки программы                      : -m j -V 0 -q 0 -lowpass 19.5 --vbr-new -b 32
Язык                                     : English
Общее
Полное имя                               : D:\Моя музыка\VA-Reggae_Gold_2012-2CD\23.General Degree - When I Hold You Tonight.mp3
Формат                                   : MPEG Audio
Размер файла                             : 5,29 Мбайт
Продолжительность                        : 3 м. 5 с.
Режим общего битрейта                    : Переменный
Общий поток                              : 239 Кбит/сек
Альбом                                   : Reggae Gold 2012
Трек                                     : When I Hold You Tonight
Трек/Положение                           : 23
Исполнитель                              : General Degree
Кодирование произвёл                     : -
Жанр                                     : Reggae
Дата записи                              : 2012
Библиотека кодирования                   : LAME3.98r
Обложка                                  : Yes
Тип обложки                              : Cover (front)
MIME-тип обложки                         : image/jpeg
Примечание                               : -|- YARD MP3 FORCE -|-
URL                                      : http://www.vpreggae.com/REGGAE-GOLD-2012
Аудио
Формат                                   : MPEG Audio
Версия формата                           : Version 1
Профиль формата                          : Layer 3
Режим                                    : Joint stereo
Расширение режима                        : MS Stereo
Продолжительность                        : 3 м. 5 с.
Вид битрейта                             : Переменный
Битрейт                                  : 239 Кбит/сек
Минимальный битрейт                      : 32,0 Кбит/сек
Каналы                                   : 2 канала
Частота                                  : 44,1 КГц
Метод сжатия                             : С потерями
Размер потока                            : 5,26 Мбайт (100%)
Библиотека кодирования                   : LAME3.98r
Настройки программы                      : -m j -V 0 -q 0 -lowpass 19.5 --vbr-new -b 32
Язык                                     : English
Общее
Полное имя                               : D:\Моя музыка\VA-Reggae_Gold_2012-2CD\24.Mr Vegas - Heads High.mp3
Формат                                   : MPEG Audio
Размер файла                             : 6,21 Мбайт
Продолжительность                        : 3 м. 29 с.
Режим общего битрейта                    : Переменный
Общий поток                              : 247 Кбит/сек
Альбом                                   : Reggae Gold 2012
Трек                                     : Heads High
Трек/Положение                           : 24
Исполнитель                              : Mr Vegas
Кодирование произвёл                     : -
Жанр                                     : Reggae
Дата записи                              : 2012
Библиотека кодирования                   : LAME3.98r
Обложка                                  : Yes
Тип обложки                              : Cover (front)
MIME-тип обложки                         : image/jpeg
Примечание                               : -|- YARD MP3 FORCE -|-
URL                                      : http://www.vpreggae.com/REGGAE-GOLD-2012
Аудио
Формат                                   : MPEG Audio
Версия формата                           : Version 1
Профиль формата                          : Layer 3
Режим                                    : Joint stereo
Продолжительность                        : 3 м. 29 с.
Вид битрейта                             : Переменный
Битрейт                                  : 247 Кбит/сек
Минимальный битрейт                      : 32,0 Кбит/сек
Каналы                                   : 2 канала
Частота                                  : 44,1 КГц
Метод сжатия                             : С потерями
Размер потока                            : 6,18 Мбайт (100%)
Библиотека кодирования                   : LAME3.98r
Настройки программы                      : -m j -V 0 -q 0 -lowpass 19.5 --vbr-new -b 32
Язык                                     : English
Общее
Полное имя                               : D:\Моя музыка\VA-Reggae_Gold_2012-2CD\25.Mavado - So Special.mp3
Формат                                   : MPEG Audio
Размер файла                             : 5,17 Мбайт
Продолжительность                        : 3 м. 0 с.
Режим общего битрейта                    : Переменный
Общий поток                              : 239 Кбит/сек
Альбом                                   : Reggae Gold 2012
Трек                                     : So Special
Трек/Положение                           : 25
Исполнитель                              : Mavado
Кодирование произвёл                     : -
Жанр                                     : Reggae
Дата записи                              : 2012
Библиотека кодирования                   : LAME3.98r
Обложка                                  : Yes
Тип обложки                              : Cover (front)
MIME-тип обложки                         : image/jpeg
Примечание                               : -|- YARD MP3 FORCE -|-
URL                                      : http://www.vpreggae.com/REGGAE-GOLD-2012
Аудио
Формат                                   : MPEG Audio
Версия формата                           : Version 1
Профиль формата                          : Layer 3
Режим                                    : Joint stereo
Расширение режима                        : MS Stereo
Продолжительность                        : 3 м. 0 с.
Вид битрейта                             : Переменный
Битрейт                                  : 239 Кбит/сек
Минимальный битрейт                      : 32,0 Кбит/сек
Каналы                                   : 2 канала
Частота                                  : 44,1 КГц
Метод сжатия                             : С потерями
Размер потока                            : 5,14 Мбайт (100%)
Библиотека кодирования                   : LAME3.98r
Настройки программы                      : -m j -V 0 -q 0 -lowpass 19.5 --vbr-new -b 32
Язык                                     : English
Общее
Полное имя                               : D:\Моя музыка\VA-Reggae_Gold_2012-2CD\26.Beres Hammaond And Buju Banton - Pull It Up.mp3
Формат                                   : MPEG Audio
Размер файла                             : 6,35 Мбайт
Продолжительность                        : 3 м. 32 с.
Режим общего битрейта                    : Переменный
Общий поток                              : 250 Кбит/сек
Альбом                                   : Reggae Gold 2012
Трек                                     : Pull It Up
Трек/Положение                           : 26
Исполнитель                              : Beres Hammaond And Buju Banton
Кодирование произвёл                     : -
Жанр                                     : Reggae
Дата записи                              : 2012
Библиотека кодирования                   : LAME3.98r
Обложка                                  : Yes
Тип обложки                              : Cover (front)
MIME-тип обложки                         : image/jpeg
Примечание                               : -|- YARD MP3 FORCE -|-
URL                                      : http://www.vpreggae.com/REGGAE-GOLD-2012
Аудио
Формат                                   : MPEG Audio
Версия формата                           : Version 1
Профиль формата                          : Layer 3
Режим                                    : Joint stereo
Расширение режима                        : MS Stereo
Продолжительность                        : 3 м. 32 с.
Вид битрейта                             : Переменный
Битрейт                                  : 250 Кбит/сек
Минимальный битрейт                      : 32,0 Кбит/сек
Каналы                                   : 2 канала
Частота                                  : 44,1 КГц
Метод сжатия                             : С потерями
Размер потока                            : 6,33 Мбайт (100%)
Библиотека кодирования                   : LAME3.98r
Настройки программы                      : -m j -V 0 -q 0 -lowpass 19.5 --vbr-new -b 32
Язык                                     : English
Общее
Полное имя                               : D:\Моя музыка\VA-Reggae_Gold_2012-2CD\27.I Wayne - Can't Satisfy Her.mp3
Формат                                   : MPEG Audio
Размер файла                             : 6,45 Мбайт
Продолжительность                        : 3 м. 42 с.
Режим общего битрейта                    : Переменный
Общий поток                              : 243 Кбит/сек
Альбом                                   : Reggae Gold 2012
Трек                                     : Can't Satisfy Her
Трек/Положение                           : 27
Исполнитель                              : I Wayne
Кодирование произвёл                     : -
Жанр                                     : Reggae
Дата записи                              : 2012
Библиотека кодирования                   : LAME3.98r
Обложка                                  : Yes
Тип обложки                              : Cover (front)
MIME-тип обложки                         : image/jpeg
Примечание                               : -|- YARD MP3 FORCE -|-
URL                                      : http://www.vpreggae.com/REGGAE-GOLD-2012
Аудио
Формат                                   : MPEG Audio
Версия формата                           : Version 1
Профиль формата                          : Layer 3
Режим                                    : Joint stereo
Продолжительность                        : 3 м. 42 с.
Вид битрейта                             : Переменный
Битрейт                                  : 243 Кбит/сек
Минимальный битрейт                      : 32,0 Кбит/сек
Каналы                                   : 2 канала
Частота                                  : 44,1 КГц
Метод сжатия                             : С потерями
Размер потока                            : 6,42 Мбайт (100%)
Библиотека кодирования                   : LAME3.98r
Настройки программы                      : -m j -V 0 -q 0 -lowpass 19.5 --vbr-new -b 32
Язык                                     : English
Общее
Полное имя                               : D:\Моя музыка\VA-Reggae_Gold_2012-2CD\28.Sizzla - Just One Of These Days.mp3
Формат                                   : MPEG Audio
Размер файла                             : 5,95 Мбайт
Продолжительность                        : 3 м. 29 с.
Режим общего битрейта                    : Переменный
Общий поток                              : 238 Кбит/сек
Альбом                                   : Reggae Gold 2012
Трек                                     : Just One Of These Days
Трек/Положение                           : 28
Исполнитель                              : Sizzla
Кодирование произвёл                     : -
Жанр                                     : Reggae
Дата записи                              : 2012
Библиотека кодирования                   : LAME3.98r
Обложка                                  : Yes
Тип обложки                              : Cover (front)
MIME-тип обложки                         : image/jpeg
Примечание                               : -|- YARD MP3 FORCE -|-
URL                                      : http://www.vpreggae.com/REGGAE-GOLD-2012
Аудио
Формат                                   : MPEG Audio
Версия формата                           : Version 1
Профиль формата                          : Layer 3
Режим                                    : Joint stereo
Расширение режима                        : MS Stereo
Продолжительность                        : 3 м. 29 с.
Вид битрейта                             : Переменный
Битрейт                                  : 238 Кбит/сек
Минимальный битрейт                      : 32,0 Кбит/сек
Каналы                                   : 2 канала
Частота                                  : 44,1 КГц
Метод сжатия                             : С потерями
Размер потока                            : 5,93 Мбайт (100%)
Библиотека кодирования                   : LAME3.98r
Настройки программы                      : -m j -V 0 -q 0 -lowpass 19.5 --vbr-new -b 32
Язык                                     : English
Общее
Полное имя                               : D:\Моя музыка\VA-Reggae_Gold_2012-2CD\29.Tanya Stephens - It's A Pity.mp3
Формат                                   : MPEG Audio
Размер файла                             : 8,40 Мбайт
Продолжительность                        : 4 м. 15 с.
Режим общего битрейта                    : Переменный
Общий поток                              : 275 Кбит/сек
Альбом                                   : Reggae Gold 2012
Трек                                     : It's A Pity
Трек/Положение                           : 29
Исполнитель                              : Tanya Stephens
Кодирование произвёл                     : -
Жанр                                     : Reggae
Дата записи                              : 2012
Библиотека кодирования                   : LAME3.98r
Обложка                                  : Yes
Тип обложки                              : Cover (front)
MIME-тип обложки                         : image/jpeg
Примечание                               : -|- YARD MP3 FORCE -|-
URL                                      : http://www.vpreggae.com/REGGAE-GOLD-2012
Аудио
Формат                                   : MPEG Audio
Версия формата                           : Version 1
Профиль формата                          : Layer 3
Режим                                    : Joint stereo
Продолжительность                        : 4 м. 15 с.
Вид битрейта                             : Переменный
Битрейт                                  : 275 Кбит/сек
Минимальный битрейт                      : 32,0 Кбит/сек
Каналы                                   : 2 канала
Частота                                  : 44,1 КГц
Метод сжатия                             : С потерями
Размер потока                            : 8,38 Мбайт (100%)
Библиотека кодирования                   : LAME3.98r
Настройки программы                      : -m j -V 0 -q 0 -lowpass 19.5 --vbr-new -b 32
Язык                                     : English
Общее
Полное имя                               : D:\Моя музыка\VA-Reggae_Gold_2012-2CD\30.Queen Ifrica - Below The Waist.mp3
Формат                                   : MPEG Audio
Размер файла                             : 6,33 Мбайт
Продолжительность                        : 3 м. 33 с.
Режим общего битрейта                    : Переменный
Общий поток                              : 248 Кбит/сек
Альбом                                   : Reggae Gold 2012
Трек                                     : Below The Waist
Трек/Положение                           : 30
Исполнитель                              : Queen Ifrica
Кодирование произвёл                     : -
Жанр                                     : Reggae
Дата записи                              : 2012
Библиотека кодирования                   : LAME3.98r
Обложка                                  : Yes
Тип обложки                              : Cover (front)
MIME-тип обложки                         : image/jpeg
Примечание                               : -|- YARD MP3 FORCE -|-
URL                                      : http://www.vpreggae.com/REGGAE-GOLD-2012
Аудио
Формат                                   : MPEG Audio
Версия формата                           : Version 1
Профиль формата                          : Layer 3
Режим                                    : Joint stereo
Расширение режима                        : MS Stereo
Продолжительность                        : 3 м. 33 с.
Вид битрейта                             : Переменный
Битрейт                                  : 248 Кбит/сек
Минимальный битрейт                      : 32,0 Кбит/сек
Каналы                                   : 2 канала
Частота                                  : 44,1 КГц
Метод сжатия                             : С потерями
Размер потока                            : 6,30 Мбайт (100%)
Библиотека кодирования                   : LAME3.98r
Настройки программы                      : -m j -V 0 -q 0 -lowpass 19.5 --vbr-new -b 32
Язык                                     : English
Общее
Полное имя                               : D:\Моя музыка\VA-Reggae_Gold_2012-2CD\31.Lady Saw - Healing Ft. Beenie Man.mp3
Формат                                   : MPEG Audio
Размер файла                             : 6,76 Мбайт
Продолжительность                        : 3 м. 31 с.
Режим общего битрейта                    : Переменный
Общий поток                              : 267 Кбит/сек
Альбом                                   : Reggae Gold 2012
Трек                                     : Healing Ft. Beenie Man
Трек/Положение                           : 31
Исполнитель                              : Lady Saw
Кодирование произвёл                     : -
Жанр                                     : Reggae
Дата записи                              : 2012
Библиотека кодирования                   : LAME3.98r
Обложка                                  : Yes
Тип обложки                              : Cover (front)
MIME-тип обложки                         : image/jpeg
Примечание                               : -|- YARD MP3 FORCE -|-
URL                                      : http://www.vpreggae.com/REGGAE-GOLD-2012
Аудио
Формат                                   : MPEG Audio
Версия формата                           : Version 1
Профиль формата                          : Layer 3
Режим                                    : Joint stereo
Продолжительность                        : 3 м. 31 с.
Вид битрейта                             : Переменный
Битрейт                                  : 267 Кбит/сек
Минимальный битрейт                      : 32,0 Кбит/сек
Каналы                                   : 2 канала
Частота                                  : 44,1 КГц
Метод сжатия                             : С потерями
Размер потока                            : 6,74 Мбайт (100%)
Библиотека кодирования                   : LAME3.98r
Настройки программы                      : -m j -V 0 -q 0 -lowpass 19.5 --vbr-new -b 32
Язык                                     : English
Общее
Полное имя                               : D:\Моя музыка\VA-Reggae_Gold_2012-2CD\32.Tok - Footprints.mp3
Формат                                   : MPEG Audio
Размер файла                             : 6,09 Мбайт
Продолжительность                        : 3 м. 31 с.
Режим общего битрейта                    : Переменный
Общий поток                              : 241 Кбит/сек
Альбом                                   : Reggae Gold 2012
Трек                                     : Footprints
Трек/Положение                           : 32
Исполнитель                              : Tok
Кодирование произвёл                     : -
Жанр                                     : Reggae
Дата записи                              : 2012
Библиотека кодирования                   : LAME3.98r
Обложка                                  : Yes
Тип обложки                              : Cover (front)
MIME-тип обложки                         : image/jpeg
Примечание                               : -|- YARD MP3 FORCE -|-
URL                                      : http://www.vpreggae.com/REGGAE-GOLD-2012
Аудио
Формат                                   : MPEG Audio
Версия формата                           : Version 1
Профиль формата                          : Layer 3
Режим                                    : Joint stereo
Расширение режима                        : MS Stereo
Продолжительность                        : 3 м. 31 с.
Вид битрейта                             : Переменный
Битрейт                                  : 241 Кбит/сек
Минимальный битрейт                      : 32,0 Кбит/сек
Каналы                                   : 2 канала
Частота                                  : 44,1 КГц
Метод сжатия                             : С потерями
Размер потока                            : 6,06 Мбайт (100%)
Библиотека кодирования                   : LAME3.98r
Настройки программы                      : -m j -V 0 -q 0 -lowpass 19.5 --vbr-new -b 32
Язык                                     : English
Общее
Полное имя                               : D:\Моя музыка\VA-Reggae_Gold_2012-2CD\33.Morgan Heritage - Down By The River.mp3
Формат                                   : MPEG Audio
Размер файла                             : 7,20 Мбайт
Продолжительность                        : 3 м. 49 с.
Режим общего битрейта                    : Переменный
Общий поток                              : 262 Кбит/сек
Альбом                                   : Reggae Gold 2012
Трек                                     : Down By The River
Трек/Положение                           : 33
Исполнитель                              : Morgan Heritage
Кодирование произвёл                     : -
Жанр                                     : Reggae
Дата записи                              : 2012
Библиотека кодирования                   : LAME3.98r
Обложка                                  : Yes
Тип обложки                              : Cover (front)
MIME-тип обложки                         : image/jpeg
Примечание                               : -|- YARD MP3 FORCE -|-
URL                                      : http://www.vpreggae.com/REGGAE-GOLD-2012
Аудио
Формат                                   : MPEG Audio
Версия формата                           : Version 1
Профиль формата                          : Layer 3
Режим                                    : Joint stereo
Продолжительность                        : 3 м. 49 с.
Вид битрейта                             : Переменный
Битрейт                                  : 262 Кбит/сек
Минимальный битрейт                      : 32,0 Кбит/сек
Каналы                                   : 2 канала
Частота                                  : 44,1 КГц
Метод сжатия                             : С потерями
Размер потока                            : 7,17 Мбайт (100%)
Библиотека кодирования                   : LAME3.98r
Настройки программы                      : -m j -V 0 -q 0 -lowpass 19.5 --vbr-new -b 32
Язык                                     : English

Дополнительная информация&#58;

Жаркая музыка!
Время раздачи: с 6:00 до 22:00
Other forum [Profile] [PM]

Dracula

Longevity: 7 years 8 months

Posts: 11289

Торрент-статистика

Post 25-Apr-2013 19:42 (after 3 months 3 days)

Топик был перенесен из форума Rap, Hip-Hop, R'n'B в форум Reggae


RUGUI
 
Display posts from previous:    
Reply to topic

The time now is: Today 11:19

All times are GMT + 3 Hours



You cannot post new topics in this forum
You cannot reply to topics in this forum
You cannot edit your posts in this forum
You cannot delete your posts in this forum
You cannot vote in polls in this forum
You cannot attach files in this forum
You cannot download files in this forum