Today is a free download without charge Download

Три русских богатыря / Three Russian Bogaturs ( Борис Кравченко) ( Комедия) (2012) WEB-DLRip

Reply to topic
 
Author
Message

Koralina ®

Longevity: 7 years 7 months

Posts: 904

Location: Lithuania

Торрент-статистика

Post 22-Apr-2013 20:06

[Quote]

Три русских богатыря / Three Russian Bogaturs (2012) WEB-DLRip
Русское название: Три русских богатыря
Оригинальное название: Three Russian Bogaturs
Год выпуска: 2012
Жанр: Рисованная анимация, Комедия
Страна: Россия
Производство: Студия "Красная МЕДУЗА"
Описание:
Мультсериал о приключения трех богатырей практически повсюду, начиная от компьютерных игр прошлого столетия, заканчивая спасением Красной Шапочки в заколдованном лесу и даже спасение Земли от захватчиков. Короткометражные серии наполнены позитивом и хорошим не стандартным юмором, который мы увидим в жанре анимационной мультипликации. Главное достоинство наших героев то, что в любой сложной ситуации они находят выход, и как всегда все идет в их пользу.
Режиссер: Борис Кравченко
Продолжительность: 6 x ~00:03:00
Релиз группа:
Формат: AVI
Видеокодек: Xvid
Качество видео: WEB-DLRip
Аудиокодек: MP3 2ch
Видео: 720x400 (1.80:1), 24.000 fps, XviD build 65 ~1713 kbps avg, 0.25 bit/pixel
Аудио: 48 kHz, MPEG Layer 3, 2 ch, ~223.99 kbps avg

Список серий и скриншоты

01. Super Mario & Three russian bogaturs (00:02:55)
Суперквест! Илья Муромец, Алеша Попович и Добрыня Никитич попали в компьютерную игру!
     
02. 300 Spartans i Three russian bogaturs (00:02:45)
Встретились на дороге в краях дальних три храбрых богатыря с целой ордой спартанцев.
Захотели спартанцы разбогатеть добром богатырей, но не тут то было...
     
03. Titanic & Three russian bogaturs (00:02:02)
На древнем русском пляже случилось служить богатырям русским.
И заметили храбрые войны, что движется напасть ледяная на корабль, беззащитный...
     
04. Red Hood & Three russian bogaturs (00:02:52)
Маленькая девочка боится пройти через лес, в котором живет злой и страшный серый волк.
Только три храбрых богатыря ей помогут!
     
05. Godzilla vs Three russian bogaturs (00:02:30)
На землю родную напал ужасный гигантский ящер.
Спасти мирное население по силам только Илье Муромцу, Алеше Поповичу и Добрыни Никитичу.
     
06. Dart Vader vs Three russian bogaturs (00:02:09)
Галактика в опасности! На этот раз богатырям придется победить внеземного врага.
     

Медиаинфо

Код:
Format                                   : AVI
Format/Info                              : Audio Video Interleave
File size                                : 37.8 MiB
Duration                                 : 2mn 52s
Overall bit rate mode                    : Variable
Overall bit rate                         : 1 842 Kbps
Director                                 : CrimeanFox
Writing application                      : VirtualDubMod 1.5.10.3 | http://www.virtualdub-fr.org || (build 2550/release)
Writing library                          : VirtualDub build 32706/release
Copyright                                : RG.Vanila.films
Video
ID                                       : 0
Format                                   : MPEG-4 Visual
Format profile                           : Advanced Simple@L5
Format settings, BVOP                    : 2
Format settings, QPel                    : No
Format settings, GMC                     : No warppoints
Format settings, Matrix                  : Default (MPEG)
Codec ID                                 : XVID
Codec ID/Hint                            : XviD
Duration                                 : 2mn 52s
Bit rate                                 : 1 605 Kbps
Width                                    : 720 pixels
Height                                   : 400 pixels
Display aspect ratio                     : 16:9
Frame rate                               : 24.000 fps
Color space                              : YUV
Chroma subsampling                       : 4:2:0
Bit depth                                : 8 bits
Scan type                                : Progressive
Compression mode                         : Lossy
Bits/(Pixel*Frame)                       : 0.232
Stream size                              : 33.0 MiB (87%)
Writing library                          : XviD 65
Audio
ID                                       : 1
Format                                   : MPEG Audio
Format version                           : Version 1
Format profile                           : Layer 3
Mode                                     : Joint stereo
Mode extension                           : MS Stereo
Codec ID                                 : 55
Codec ID/Hint                            : MP3
Duration                                 : 2mn 52s
Bit rate mode                            : Variable
Bit rate                                 : 224 Kbps
Channel(s)                               : 2 channels
Sampling rate                            : 48.0 KHz
Compression mode                         : Lossy
Stream size                              : 4.60 MiB (12%)
Alignment                                : Aligned on interleaves
Interleave, duration                     : 24 ms (0.58 video frame)
Interleave, preload duration             : 483 ms
Writing library                          : LAME3.96.1
Скриншоты:
         

_________________
Other forum [Profile] [PM]
Display posts from previous:    
Reply to topic

The time now is: Today 16:27

All times are GMT + 3 Hours



You cannot post new topics in this forum
You cannot reply to topics in this forum
You cannot edit your posts in this forum
You cannot delete your posts in this forum
You cannot vote in polls in this forum
You cannot attach files in this forum
You cannot download files in this forum