Today is a free download without charge Download

(Pop, Dance) Sophie Ellis-Bextor - Make a scene - 2011 (оригинал) lossless

Reply to topic
 
Author
Message

Paullo ®

Gender:

Longevity: 11 years

Posts: 393

Location: деактивировано, причина: - Последний визит: 2017-06-22 darkos_bot 12.06.19г

Торрент-статистика

Post 01-May-2011 12:05

[Quote]

Sophie Ellis-Bextor - Make a scene
Год: 2011
Страна: UK
Жанр: Pop, Dance
Тип издания: оригинал
Продолжительность: 00:49:30
Тексты: вшиты
Программа-риповщик : foobar2000 + iTunes (lossless)
Битрейт: lossless
Треклист:
01. Revolution
02. Bittersweet
03. Off & on
04. Heartbreak (Make me a dancer)
05. Not giving up on love
06. Can't fight this feeling
07. Starlight
08. Under your touch
09. Make a scene
10. Magic
11. Dial my number
12. Homewrecker
13. Synchronised
14. Cut straight to the heart

Скриншоты

Exact Audio Copy V0.99 prebeta 5 from 4. May 2009
EAC extraction logfile from 28. April 2011, 20:32
Sophie Ellis-Bextor / Make a scene
Used drive : Optiarc DVD RW AD-5200A Adapter: 0 ID: 0
Read mode : Secure
Utilize accurate stream : Yes
Defeat audio cache : Yes
Make use of C2 pointers : No
Read offset correction : 48
Overread into Lead-In and Lead-Out : No
Fill up missing offset samples with silence : Yes
Delete leading and trailing silent blocks : No
Null samples used in CRC calculations : Yes
Used interface : Installed external ASPI interface
Gap handling : Appended to previous track
Used output format : User Defined Encoder
Selected bitrate : 320 kBit/s
Quality : High
Add ID3 tag : No
Command line compressor : C:\Program Files\Exact Audio Copy\Flac\flac.exe
Additional command line options : -8 -V -T "ARTIST=%a" -T "TITLE=%t" -T "ALBUM=%g" -T "DATE=%y" -T "TRACKNUMBER=%n" -T "GENRE=%m" -T "COMMENT=EAC FLAC -8" %s
TOC of the extracted CD
Track | Start | Length | Start sector | End sector
---------------------------------------------------------
1 | 0:00.00 | 2:44.01 | 0 | 12300
2 | 2:44.01 | 3:26.55 | 12301 | 27805
3 | 6:10.56 | 3:31.60 | 27806 | 43690
4 | 9:42.41 | 3:24.29 | 43691 | 59019
5 | 13:06.70 | 2:55.38 | 59020 | 72182
6 | 16:02.33 | 3:39.33 | 72183 | 88640
7 | 19:41.66 | 4:19.43 | 88641 | 108108
8 | 24:01.34 | 3:52.39 | 108109 | 125547
9 | 27:53.73 | 3:49.67 | 125548 | 142789
10 | 31:43.65 | 4:33.68 | 142790 | 163332
11 | 36:17.58 | 3:37.09 | 163333 | 179616
12 | 39:54.67 | 3:24.54 | 179617 | 194970
13 | 43:19.46 | 3:12.01 | 194971 | 209371
14 | 46:31.47 | 3:37.03 | 209372 | 225649
Track 1
Filename C:\Documents and Settings\Admin\Мои документы\Моя музыка\Sophie Ellis-Bextor - Make a scene (FLAC) [2010]\01. Revolution.wav
Pre-gap length 0:00:02.00
Peak level 100.0 %
Track quality 99.9 %
Test CRC 60C0A574
Copy CRC 60C0A574
Track not present in AccurateRip database
Copy OK
Track 2
Filename C:\Documents and Settings\Admin\Мои документы\Моя музыка\Sophie Ellis-Bextor - Make a scene (FLAC) [2010]\02. Bittersweet.wav
Peak level 100.0 %
Track quality 100.0 %
Test CRC FA00568D
Copy CRC FA00568D
Track not present in AccurateRip database
Copy OK
Track 3
Filename C:\Documents and Settings\Admin\Мои документы\Моя музыка\Sophie Ellis-Bextor - Make a scene (FLAC) [2010]\03. Off & On.wav
Peak level 100.0 %
Track quality 100.0 %
Test CRC 63E2AAD2
Copy CRC 63E2AAD2
Track not present in AccurateRip database
Copy OK
Track 4
Filename C:\Documents and Settings\Admin\Мои документы\Моя музыка\Sophie Ellis-Bextor - Make a scene (FLAC) [2010]\04. Heartbreak (Make me a dancer).wav
Peak level 100.0 %
Track quality 100.0 %
Test CRC 1EF98149
Copy CRC 1EF98149
Track not present in AccurateRip database
Copy OK
Track 5
Filename C:\Documents and Settings\Admin\Мои документы\Моя музыка\Sophie Ellis-Bextor - Make a scene (FLAC) [2010]\05. Not giving up on love.wav
Peak level 100.0 %
Track quality 100.0 %
Test CRC 0FADBBA3
Copy CRC 0FADBBA3
Track not present in AccurateRip database
Copy OK
Track 6
Filename C:\Documents and Settings\Admin\Мои документы\Моя музыка\Sophie Ellis-Bextor - Make a scene (FLAC) [2010]\06. Can't fight this feeling.wav
Peak level 100.0 %
Track quality 100.0 %
Test CRC 84393EE1
Copy CRC 84393EE1
Track not present in AccurateRip database
Copy OK
Track 7
Filename C:\Documents and Settings\Admin\Мои документы\Моя музыка\Sophie Ellis-Bextor - Make a scene (FLAC) [2010]\07. Starlight.wav
Peak level 100.0 %
Track quality 100.0 %
Test CRC 14215223
Copy CRC 14215223
Track not present in AccurateRip database
Copy OK
Track 8
Filename C:\Documents and Settings\Admin\Мои документы\Моя музыка\Sophie Ellis-Bextor - Make a scene (FLAC) [2010]\08. Under your touch.wav
Peak level 100.0 %
Track quality 100.0 %
Test CRC DBB08A6B
Copy CRC DBB08A6B
Track not present in AccurateRip database
Copy OK
Track 9
Filename C:\Documents and Settings\Admin\Мои документы\Моя музыка\Sophie Ellis-Bextor - Make a scene (FLAC) [2010]\09. Make a scene.wav
Peak level 100.0 %
Track quality 100.0 %
Test CRC 8EE66438
Copy CRC 8EE66438
Track not present in AccurateRip database
Copy OK
Track 10
Filename C:\Documents and Settings\Admin\Мои документы\Моя музыка\Sophie Ellis-Bextor - Make a scene (FLAC) [2010]\10. Magic.wav
Peak level 100.0 %
Track quality 100.0 %
Test CRC 37C32EB7
Copy CRC 37C32EB7
Track not present in AccurateRip database
Copy OK
Track 11
Filename C:\Documents and Settings\Admin\Мои документы\Моя музыка\Sophie Ellis-Bextor - Make a scene (FLAC) [2010]\11. Dial my number.wav
Peak level 100.0 %
Track quality 100.0 %
Test CRC 322847CF
Copy CRC 322847CF
Track not present in AccurateRip database
Copy OK
Track 12
Filename C:\Documents and Settings\Admin\Мои документы\Моя музыка\Sophie Ellis-Bextor - Make a scene (FLAC) [2010]\12. Homewrecker.wav
Peak level 100.0 %
Track quality 100.0 %
Test CRC 89BC762F
Copy CRC 89BC762F
Track not present in AccurateRip database
Copy OK
Track 13
Filename C:\Documents and Settings\Admin\Мои документы\Моя музыка\Sophie Ellis-Bextor - Make a scene (FLAC) [2010]\13. Synchronised.wav
Peak level 100.0 %
Track quality 100.0 %
Test CRC B4E86D7A
Copy CRC B4E86D7A
Track not present in AccurateRip database
Copy OK
Track 14
Filename C:\Documents and Settings\Admin\Мои документы\Моя музыка\Sophie Ellis-Bextor - Make a scene (FLAC) [2010]\14. Cut straight to the heart.wav
Peak level 100.0 %
Track quality 100.0 %
Test CRC E4A69961
Copy CRC E4A69961
Track not present in AccurateRip database
Copy OK
None of the tracks are present in the AccurateRip database
No errors occurred
End of status report

_________________
сами мы не местные...
Other forum [Profile] [PM]

JVC

Gender:

Longevity: 10 years

Posts: 337

Торрент-статистика

Post 01-May-2011 13:02 (after 57 minutes)

[Quote]

Супер исполнительница и супер альбом!!! Музычка Музычка Музычка Огромное спасибо!!! Роза Роза Роза Скачаю, поддержу Thumbs up Thumbs up Thumbs up

_________________
Other forum [Profile] [PM]
Display posts from previous:    
Reply to topic

The time now is: Today 06:38

All times are GMT + 3 Hours



You cannot post new topics in this forum
You cannot reply to topics in this forum
You cannot edit your posts in this forum
You cannot delete your posts in this forum
You cannot vote in polls in this forum
You cannot attach files in this forum
You cannot download files in this forum