Today is a free download without charge Download

(Rock) Земфира - Спасибо - 2007 (оригинал) ALAC, lossless

Reply to topic
 
Author
Message

Paullo ®

Gender:

Longevity: 9 years 5 months

Posts: 393

Location: деактивировано, причина: - Последний визит: 2017-06-22 darkos_bot 12.06.19г

Торрент-статистика

Post 01-May-2011 12:00

[Quote]

Земфира - Спасибо
Год: 2007
Страна: Россия
Жанр: Rock
Тип издания: оригинал
Продолжительность: 00:42:58
Тексты: вшиты
Кодек: ALAC
Программа-риповщик : foobar2000 + iTunes (lossless)
Битрейт: lossless
Треклист:
1. В Метро 2:51
2. Воскресенье 2:29
3. Дом 3:50
4. Мы Разбиваемся 3:22
5. Мальчик 3:46
6. Господа 3:24
7. Я Полюбила Вас 2:44
8. Возьми Меня 4:26
9. Снег Начнётся 4:24
10. 1000 Лет 4:10
11. Во Мне 4:05
12. Спасибо 3:21

Скриншоты

Exact Audio Copy V0.99 prebeta 4 from 23. January 2008
Отчёт EAC об извлечении, выполненном 3. ноября 2008, 15:50
Земфира / Спасибо
Дисковод: _NEC DVD_RW ND-2500A Adapter: 0 ID: 0
Режим чтения : Достоверность
Использование точного потока : Да
Отключение кэша аудио : Да
Использование указателей C2 : Нет
Коррекция смещения при чтении : 48
Способность читать области Lead-in и Lead-out : Нет
Заполнение пропущенных сэмплов тишиной : Да
Удаление блоков с тишиной в начале и конце : Нет
При вычислениях CRC использовались нулевые сэмплы : Да
Интерфейс : Встроенный Win32-интерфейс для Win NT/2000
Выходной формат : Внутренние WAV-операции
Формат сэмплов : 44.100 Гц; 16 бит; стерео
TOC извлечённого CD
Трек | Старт | Длительность | Начальный сектор | Конечный сектор
---------------------------------------------------------------------
1 | 0:00.00 | 2:51.74 | 0 | 12898
2 | 2:51.74 | 2:29.44 | 12899 | 24117
3 | 5:21.43 | 3:50.59 | 24118 | 41426
4 | 9:12.27 | 3:22.04 | 41427 | 56580
5 | 12:34.31 | 3:46.70 | 56581 | 73600
6 | 16:21.26 | 3:24.25 | 73601 | 88925
7 | 19:45.51 | 2:44.64 | 88926 | 101289
8 | 22:30.40 | 4:26.23 | 101290 | 121262
9 | 26:56.63 | 4:24.73 | 121263 | 141135
10 | 31:21.61 | 4:10.08 | 141136 | 159893
11 | 35:31.69 | 4:05.45 | 159894 | 178313
12 | 39:37.39 | 3:21.11 | 178314 | 193399
Характеристики диапазона извлечения и сообщения об ошибках
Выбранный диапазон
Имя файла Z:\edit\саунд\Земфира\Конечный вариант\2007 - Спасибо\Земфира - Спасибо.wav
Пиковый уровень 99.9 %
Качество диапазона 100.0 %
CRC копии 5ACF8276
Копирование... OK
Ошибок не произошло
Конец отчёта

_________________
сами мы не местные...
Other forum [Profile] [PM]
Display posts from previous:    
Reply to topic

The time now is: Today 11:35

All times are GMT + 3 Hours



You cannot post new topics in this forum
You cannot reply to topics in this forum
You cannot edit your posts in this forum
You cannot delete your posts in this forum
You cannot vote in polls in this forum
You cannot attach files in this forum
You cannot download files in this forum