Today is a free download without charge Download

nobody.one - Live Tomsk [2012, post-rock, instrumental, HDCam]

Reply to topic
 
Author
Message

Omen ®

Longevity: 7 years 1 month

Posts: 181090

Торрент-статистика

Post 03-Dec-2012 06:27

[Quote]

nobody.one - Live Tomsk
Жанр: post-rock, instrumental
Продолжительность: 129 мин
Год выпуска: 2012
Описание: 1 мая 2012 г. Концерт в томском клубе "Америка" в рамках Horizon Tour 2012.
Снято на 2 камеры, звук записан с пульта.
Доп. информация:
Первая камера - Руслан Кучин
Вторая камера, монтаж - Евгений Потибенко
Запись звука - Сергей Цюх
Фото для обложки предоставлено Юлией.
Организация концерта и съемки - Продюсерский центр Total Rock.
Качество: HDCam
Контейнер: MP4
Видео кодек: H.264
Аудио кодек: AAC
Видео: H.264, 1280x720, 6214 кбит/с, 25 кадров в сек
Аудио: AAC, 221 кбит/с, 48 кГц, 2 (стерео)
Разогрев:

Cyanide
Молодая рок-группа, ученики рок-школы ROCK STARS (Новосибирск)
Треклист:
1. For whom the bell tolls(metallica cover)
2. Symphony of Destruction(megadeth cover)
3. The Key of Freedom
4. Tanks in the City

Tsibulin Project
Инструментальный проект в стиле fusion rock - это сайд-проект гитариста Евгения Цибулина.
Евгений является активным участником (композитор/исполнитель) известной death metal группы DehydrateD.
Треклист:
1. Life of night city
2. If you leave me
3. One our Day
4. Wonderful Slippery Thing (Guthrie Govan cover)
5. The Autumn melody
nobody.one (в представлении не нуждается)
Треклист:
Intro (Ennio Morricone – A fistful of dollars, х/ф Убить Билла 2)
1. Challenge
2. Bob
3. Airblow
4. JB
5. Milena
6. Deadman
7. Horizon
8. Change
9. Though
10. Set
11. Hell’O
12. Swabbie The Smuggler
13. Leerg
14. Sunday
15. Shuffled God
16. Farvel
17. The Duck Song
18. Lifeline
20. Atitude (sepultura cover)
21. Immigrant Song, Whole Lotta Love, Bring it on home - Led Zeppelin cover

Отчёт MediaInfo / BDInfo

GeneralComplete name : D:\Video\разогрев + nobody.one (live tomsk).mp4Format : MPEG-4Format profile : Base Media / Version 2Codec ID : mp42File size : 5.61 GiBDuration : 2h 9mnOverall bit rate mode : VariableOverall bit rate : 6 219 KbpsEncoded date : UTC 2012-07-15 04:43:54Tagged date : UTC 2012-07-15 04:43:54©TIM : 00:00:00:00©TSC : 25©TSZ : 1
VideoID : 1Format : AVCFormat/Info : Advanced Video CodecFormat profile : Main@L3.2Format settings, CABAC : YesFormat settings, ReFrames : 3 framesCodec ID : avc1Codec ID/Info : Advanced Video CodingDuration : 2h 9mnBit rate : 5 993 KbpsWidth : 1 280 pixelsHeight : 720 pixelsDisplay aspect ratio : 16:9Frame rate mode : ConstantFrame rate : 25.000 fpsStandard : PALColor space : YUVChroma subsampling : 4:2:0Bit depth : 8 bitsScan type : ProgressiveBits/(Pixel*Frame) : 0.260Stream size : 5.41 GiB (96%)Language : EnglishEncoded date : UTC 2012-07-15 04:43:54Tagged date : UTC 2012-07-15 04:43:54
AudioID : 2Format : AACFormat/Info : Advanced Audio CodecFormat profile : LCCodec ID : 40Duration : 2h 9mnSource duration : 2h 9mnBit rate mode : VariableBit rate : 221 KbpsMaximum bit rate : 331 KbpsChannel(s) : 2 channelsChannel positions : Front: L RSampling rate : 48.0 KHzCompression mode : LossyStream size : 205 MiB (4%)Source stream size : 205 MiB (4%)Language : EnglishEncoded date : UTC 2012-07-15 04:43:54Tagged date : UTC 2012-07-15 04:43:54

Скриншоты

Other forum [Profile] [PM]
Display posts from previous:    
Reply to topic

The time now is: Today 12:15

All times are GMT + 3 Hours



You cannot post new topics in this forum
You cannot reply to topics in this forum
You cannot edit your posts in this forum
You cannot delete your posts in this forum
You cannot vote in polls in this forum
You cannot attach files in this forum
You cannot download files in this forum