Today is a free download without charge Download

(Atlantic Records) The Streets - Computers and Blues - 2011 (tracks) ALAC, lossless

Reply to topic
 
Author
Message

Paullo ®

Gender:

Longevity: 9 years 5 months

Posts: 393

Location: деактивировано, причина: - Последний визит: 2017-06-22 darkos_bot 12.06.19г

Торрент-статистика

Post 07-Mar-2011 15:02

[Quote]

The Streets - Computers and Blues
Год[: 2011
Страна: UK
Жанр: Grime, Hip-Hop
Тип издания: tracks
Продолжительность: 43:29
Тексты: Вшиты частично
Кодек: ALAC
Программа-риповщик : foobar2000 + iTunes (lossless)
Битрейт: lossless
Источник: what.cd (Alabasterclam)-Треклист:
01. Outside Inside (3:01)
02. Going Through Hell (featuring Robert Harvey of The Music) (3:08)
03. Roof Of Your Car (3:12)
04. Puzzled By People (3:08)
05. Without Thinking (3:18)
06. Blip On A Screen (3:34)
07. Those That Don't Know (2:54)
08. Soldiers (featuring Robert Harvey of The Music) (3:37)
09. We Can Never Be Friends (3:37)
10. ABC (1:11)
11. OMG (3:27)
12. Trying To Kill M.E. (3:58)
13. Trust Me (2:16)
14. Lock The Locks (featuring Clare Maguire) (3:08)-

Скриншоты

Лог проверки (foobar2000)

fooCDtect - foobar2000 + auCDtect, baralgin.
auCDtect: CD records authenticity detector, version 0.8.2
Copyright (c) 2004 Oleg Berngardt. All rights reserved.
Copyright (c) 2004 Alexander Djourik. All rights reserved.
mode: 0
===========================================
Track: ABC
Quality: CDDA 100%
===========================================
Track: Blip On A Screen
Quality: CDDA 100%
===========================================
Track: Going Through Hell (feat. Robert Harvey of The Music)
Quality: CDDA 100%
===========================================
Track: Lock The Locks (feat. Clare Maguire)
Quality: CDDA 100%
===========================================
Track: OMG
Quality: CDDA 100%
===========================================
Track: Outside Inside
Quality: CDDA 100%
===========================================
Track: Puzzled By People
Quality: CDDA 100%
===========================================
Track: Roof Of Your Car
Quality: CDDA 100%
===========================================
Track: Soldiers (feat. Robert Harvey of The Music)
Quality: CDDA 100%
===========================================
Track: Those That Don't Know
Quality: CDDA 100%
===========================================
Track: Trust Me
Quality: CDDA 100%
===========================================
Track: Trying To Kill M.E.
Quality: CDDA 99%
===========================================
Track: We Can Never Be Friends
Quality: CDDA 100%
===========================================
Track: Without Thinking
Quality: CDDA 100%
===========================================

Лог создания рипа

Exact Audio Copy V0.99 prebeta 5 from 4. May 2009
EAC extraction logfile from 6. February 2011, 8:33
Streets / Computers And Blues
Used drive : ASUS DRW-1814BL Adapter: 0 ID: 0
Read mode : Secure
Utilize accurate stream : Yes
Defeat audio cache : Yes
Make use of C2 pointers : No
Read offset correction : 6
Overread into Lead-In and Lead-Out : No
Fill up missing offset samples with silence : Yes
Delete leading and trailing silent blocks : No
Null samples used in CRC calculations : Yes
Used interface : Native Win32 interface for Win NT & 2000
Gap handling : Appended to previous track
Used output format : User Defined Encoder
Selected bitrate : 320 kBit/s
Quality : High
Add ID3 tag : No
Command line compressor : C:\Program Files (x86)\Exact Audio Copy\Flac\flac.exe
Additional command line options : -V -8 -T "artist=%a" -T "title=%t" -T "album=%g" -T "date=%y" -T "tracknumber=%n" -T "genre=%m" %s
TOC of the extracted CD
Track | Start | Length | Start sector | End sector
---------------------------------------------------------
1 | 0:00.00 | 3:01.34 | 0 | 13608
2 | 3:01.34 | 3:08.13 | 13609 | 27721
3 | 6:09.47 | 3:12.32 | 27722 | 42153
4 | 9:22.04 | 3:08.28 | 42154 | 56281
5 | 12:30.32 | 3:17.49 | 56282 | 71105
6 | 15:48.06 | 3:34.03 | 71106 | 87158
7 | 19:22.09 | 2:54.33 | 87159 | 100241
8 | 22:16.42 | 3:36.45 | 100242 | 116486
9 | 25:53.12 | 3:36.65 | 116487 | 132751
10 | 29:30.02 | 1:11.37 | 132752 | 138113
11 | 30:41.39 | 3:26.38 | 138114 | 153601
12 | 34:08.02 | 3:58.09 | 153602 | 171460
13 | 38:06.11 | 2:16.07 | 171461 | 181667
14 | 40:22.18 | 3:07.53 | 181668 | 195745
Track 1
Filename F:\Albums\The Streets\Computers and Blues\01 - Outside Inside.wav
Pre-gap length 0:00:02.00
Peak level 100.0 %
Track quality 100.0 %
Test CRC CE645D97
Copy CRC CE645D97
Track not present in AccurateRip database
Copy OK
Track 2
Filename F:\Albums\The Streets\Computers and Blues\02 - Going Through Hell.wav
Peak level 100.0 %
Track quality 100.0 %
Test CRC C8921261
Copy CRC C8921261
Track not present in AccurateRip database
Copy OK
Track 3
Filename F:\Albums\The Streets\Computers and Blues\03 - Roof Of Your Car.wav
Pre-gap length 0:00:00.62
Peak level 100.0 %
Track quality 100.0 %
Test CRC 5ED34132
Copy CRC 5ED34132
Track not present in AccurateRip database
Copy OK
Track 4
Filename F:\Albums\The Streets\Computers and Blues\04 - Puzzled By People.wav
Pre-gap length 0:00:00.52
Peak level 100.0 %
Track quality 100.0 %
Test CRC 07FDB984
Copy CRC 07FDB984
Track not present in AccurateRip database
Copy OK
Track 5
Filename F:\Albums\The Streets\Computers and Blues\05 - Without Thinking.wav
Pre-gap length 0:00:00.45
Peak level 100.0 %
Track quality 100.0 %
Test CRC 7D7F2ED3
Copy CRC 7D7F2ED3
Track not present in AccurateRip database
Copy OK
Track 6
Filename F:\Albums\The Streets\Computers and Blues\06 - Blip On A Screen.wav
Pre-gap length 0:00:00.13
Peak level 100.0 %
Track quality 100.0 %
Test CRC 801BEBD1
Copy CRC 801BEBD1
Track not present in AccurateRip database
Copy OK
Track 7
Filename F:\Albums\The Streets\Computers and Blues\07 - Those That Don't Know.wav
Pre-gap length 0:00:00.30
Peak level 100.0 %
Track quality 100.0 %
Test CRC 448BB371
Copy CRC 448BB371
Track not present in AccurateRip database
Copy OK
Track 8
Filename F:\Albums\The Streets\Computers and Blues\08 - Soldiers.wav
Peak level 100.0 %
Track quality 100.0 %
Test CRC 6D804ED7
Copy CRC 6D804ED7
Track not present in AccurateRip database
Copy OK
Track 9
Filename F:\Albums\The Streets\Computers and Blues\09 - We Can Never Be Friends.wav
Pre-gap length 0:00:00.41
Peak level 100.0 %
Track quality 100.0 %
Test CRC 86654BE9
Copy CRC 86654BE9
Track not present in AccurateRip database
Copy OK
Track 10
Filename F:\Albums\The Streets\Computers and Blues\10 - ABC.wav
Pre-gap length 0:00:00.49
Peak level 100.0 %
Track quality 100.0 %
Test CRC 63787AFA
Copy CRC 63787AFA
Track not present in AccurateRip database
Copy OK
Track 11
Filename F:\Albums\The Streets\Computers and Blues\11 - OMG.wav
Pre-gap length 0:00:00.27
Peak level 100.0 %
Track quality 100.0 %
Test CRC 97E15B3D
Copy CRC 97E15B3D
Track not present in AccurateRip database
Copy OK
Track 12
Filename F:\Albums\The Streets\Computers and Blues\12 - Trying To Kill M.E..wav
Peak level 100.0 %
Track quality 100.0 %
Test CRC 13DB0671
Copy CRC 13DB0671
Track not present in AccurateRip database
Copy OK
Track 13
Filename F:\Albums\The Streets\Computers and Blues\13 - Trust Me.wav
Pre-gap length 0:00:00.69
Peak level 100.0 %
Track quality 100.0 %
Test CRC D187CDF1
Copy CRC D187CDF1
Track not present in AccurateRip database
Copy OK
Track 14
Filename F:\Albums\The Streets\Computers and Blues\14 - Lock The Locks.wav
Peak level 100.0 %
Track quality 99.9 %
Test CRC 2F527992
Copy CRC 2F527992
Track not present in AccurateRip database
Copy OK
None of the tracks are present in the AccurateRip database
No errors occurred
End of status report

_________________
сами мы не местные...


Last edited by Paullo on 2011-03-07 16:36; edited 1 time in total
Other forum [Profile] [PM]
Similar theme
Forum Topic Author Torrent Replies Last Post
./templates/default/images/folder_dl.gif Rock (Progressive Rock, Hard Rock) [CD] Rush - Rush In Rio (3CD) - 2003 (Atlantic Recording Corporation Japan), FLAC (image+.cue), lossless Omen
1 | 0

0 | 2031

16

2015-05-18 12:45
Omen Latest
Display posts from previous:    
Reply to topic

The time now is: Today 22:06

All times are GMT + 3 Hours



You cannot post new topics in this forum
You cannot reply to topics in this forum
You cannot edit your posts in this forum
You cannot delete your posts in this forum
You cannot vote in polls in this forum
You cannot attach files in this forum
You cannot download files in this forum