Today is a free download without charge Download

(Hip-Hop) Talib Kweli - Gutter Rainbows - 2011 ALAC, lossless

Reply to topic
 
Author
Message

Paullo ®

Gender:

Longevity: 9 years 5 months

Posts: 393

Location: деактивировано, причина: - Последний визит: 2017-06-22 darkos_bot 12.06.19г

Торрент-статистика

Post 07-Mar-2011 14:55

[Quote]

Talib Kweli - Gutter Rainbows
Год: 2011
Страна: USA
Жанр: Hip-Hop
Продолжительность: 00:48:02
Кодек: ALAC
Программа-риповщик : foobar2000 + iTunes (lossless)
Битрейт: lossless
Тексты: Вшиты
Источник: what.cd (thashit)-Треклист:
01. After The Rain (produced by 88-Keys)
02. Gutter Rainbows (produced by M-Phazes)
03. So Low (produced by Shuko)
04. Palookas (Feat. Sean Price) (produced by Marco Polo)
05. Mr. International (Feat. Nigel Hall) (produced by S1)
06. I’m On One (produced by KHRYSIS!)
07. Wait For You (Feat. Kendra Ross) (produced by S1)
08. Ain’t Waiting (Feat. Outasight) (produced by 6th sense)
09. Cold Rain (produced by Ski Beatz)
10. Friends & Family (produced by E. Jones)
11. Tater Tot (produced by Nick Speed)
12. How You Love Me (Feat. Blaq Toven) (produced by Blaq Toven)
13. Uh Oh (Feat. Jean Grae) (produced by Oh No)
14. Self Savior (Feat. Chace Infinite) (produced by Maurice Brown)-

Лог создания рипа

Exact Audio Copy V0.99 prebeta 5 from 4. May 2009
EAC extraction logfile from 27. January 2011, 3:00
Gutter Rainbows / Talib Kweli
Used drive : SlimtypeDVD A DS8A2S Adapter: 1 ID: 0
Read mode : Secure
Utilize accurate stream : Yes
Defeat audio cache : No
Make use of C2 pointers : No
Read offset correction : 6
Overread into Lead-In and Lead-Out : No
Fill up missing offset samples with silence : Yes
Delete leading and trailing silent blocks : No
Null samples used in CRC calculations : Yes
Used interface : Native Win32 interface for Win NT & 2000
Gap handling : Appended to previous track
Used output format : User Defined Encoder
Selected bitrate : 128 kBit/s
Quality : High
Add ID3 tag : No
Command line compressor : C:\Program Files (x86)\FLAC\flac.exe
Additional command line options : -V -8 -T "artist=%a" -T "title=%t" -T "album=%g" -T "date=%y" -T "tracknumber=%n" -T "genre=%m" %s
TOC of the extracted CD
Track | Start | Length | Start sector | End sector
---------------------------------------------------------
1 | 0:00.00 | 1:27.12 | 0 | 6536
2 | 1:27.12 | 4:10.50 | 6537 | 25336
3 | 5:37.62 | 3:14.56 | 25337 | 39942
4 | 8:52.43 | 3:57.59 | 39943 | 57776
5 | 12:50.27 | 3:36.42 | 57777 | 74018
6 | 16:26.69 | 3:55.31 | 74019 | 91674
7 | 20:22.25 | 3:45.54 | 91675 | 108603
8 | 24:08.04 | 3:57.55 | 108604 | 126433
9 | 28:05.59 | 2:36.13 | 126434 | 138146
10 | 30:41.72 | 3:58.00 | 138147 | 155996
11 | 34:39.72 | 2:56.51 | 155997 | 169247
12 | 37:36.48 | 4:04.36 | 169248 | 187583
13 | 41:41.09 | 4:15.48 | 187584 | 206756
14 | 45:56.57 | 3:14.31 | 206757 | 221337
Track 1
Filename r:\eac\Talib Kweli - 2011 - Gutter Rainbows [FLAC]\01 - After The Rain.wav
Pre-gap length 0:00:02.00
Peak level 97.7 %
Track quality 100.0 %
Test CRC 2287CA0C
Copy CRC 2287CA0C
Track not present in AccurateRip database
Copy OK
Track 2
Filename r:\eac\Talib Kweli - 2011 - Gutter Rainbows [FLAC]\02 - Gutter Rainbows.wav
Pre-gap length 0:00:00.25
Peak level 97.7 %
Track quality 100.0 %
Test CRC C2C493D1
Copy CRC C2C493D1
Track not present in AccurateRip database
Copy OK
Track 3
Filename r:\eac\Talib Kweli - 2011 - Gutter Rainbows [FLAC]\03 - So Low.wav
Pre-gap length 0:00:00.25
Peak level 97.7 %
Track quality 100.0 %
Test CRC 33F53FE7
Copy CRC 33F53FE7
Track not present in AccurateRip database
Copy OK
Track 4
Filename r:\eac\Talib Kweli - 2011 - Gutter Rainbows [FLAC]\04 - Palookas (feat. Sean Price).wav
Pre-gap length 0:00:00.01
Peak level 97.7 %
Track quality 100.0 %
Test CRC CDFCFA61
Copy CRC CDFCFA61
Track not present in AccurateRip database
Copy OK
Track 5
Filename r:\eac\Talib Kweli - 2011 - Gutter Rainbows [FLAC]\05 - Mr. International (feat. Nigel Hall).wav
Pre-gap length 0:00:00.31
Peak level 97.7 %
Track quality 100.0 %
Test CRC 7D4BDA8D
Copy CRC 7D4BDA8D
Track not present in AccurateRip database
Copy OK
Track 6
Filename r:\eac\Talib Kweli - 2011 - Gutter Rainbows [FLAC]\06 - I'm On One.wav
Pre-gap length 0:00:00.01
Peak level 100.0 %
Track quality 99.9 %
Test CRC 3F4BE499
Copy CRC 3F4BE499
Track not present in AccurateRip database
Copy OK
Track 7
Filename r:\eac\Talib Kweli - 2011 - Gutter Rainbows [FLAC]\07 - Wait For You (feat. Kendra Ross).wav
Pre-gap length 0:00:00.02
Peak level 97.7 %
Track quality 100.0 %
Test CRC F0040C4C
Copy CRC F0040C4C
Track not present in AccurateRip database
Copy OK
Track 8
Filename r:\eac\Talib Kweli - 2011 - Gutter Rainbows [FLAC]\08 - Ain't Waiting (feat. Outasight).wav
Pre-gap length 0:00:00.01
Peak level 97.7 %
Track quality 99.9 %
Test CRC E1FA432D
Copy CRC E1FA432D
Track not present in AccurateRip database
Copy OK
Track 9
Filename r:\eac\Talib Kweli - 2011 - Gutter Rainbows [FLAC]\09 - Cold Rain.wav
Pre-gap length 0:00:00.01
Peak level 97.7 %
Track quality 100.0 %
Test CRC E314096E
Copy CRC E314096E
Track not present in AccurateRip database
Copy OK
Track 10
Filename r:\eac\Talib Kweli - 2011 - Gutter Rainbows [FLAC]\10 - Friends & Family.wav
Peak level 97.7 %
Track quality 100.0 %
Test CRC 13A816AD
Copy CRC 13A816AD
Track not present in AccurateRip database
Copy OK
Track 11
Filename r:\eac\Talib Kweli - 2011 - Gutter Rainbows [FLAC]\11 - Tater Tot.wav
Pre-gap length 0:00:00.19
Peak level 97.7 %
Track quality 100.0 %
Test CRC 8C2F011A
Copy CRC 8C2F011A
Track not present in AccurateRip database
Copy OK
Track 12
Filename r:\eac\Talib Kweli - 2011 - Gutter Rainbows [FLAC]\12 - How You Love Me (feat. Blaq Toven).wav
Pre-gap length 0:00:00.01
Peak level 97.7 %
Track quality 100.0 %
Test CRC 86C19173
Copy CRC 86C19173
Track not present in AccurateRip database
Copy OK
Track 13
Filename r:\eac\Talib Kweli - 2011 - Gutter Rainbows [FLAC]\13 - Uh Oh (feat. Jean Grae).wav
Pre-gap length 0:00:00.02
Peak level 97.7 %
Track quality 100.0 %
Test CRC F46C64F1
Copy CRC F46C64F1
Track not present in AccurateRip database
Copy OK
Track 14
Filename r:\eac\Talib Kweli - 2011 - Gutter Rainbows [FLAC]\14 - Self Savior (feat. Chace Infinite).wav
Pre-gap length 0:00:00.26
Peak level 97.7 %
Track quality 100.0 %
Test CRC 1244AD64
Copy CRC 1244AD64
Track not present in AccurateRip database
Copy OK
None of the tracks are present in the AccurateRip database
No errors occurred
End of status report

Скриншоты

Лог извлечения/проверки (foobar2000)

fooCDtect - foobar2000 + auCDtect, baralgin.
auCDtect: CD records authenticity detector, version 0.8.2
Copyright (c) 2004 Oleg Berngardt. All rights reserved.
Copyright (c) 2004 Alexander Djourik. All rights reserved.
mode: 0
===========================================
Track: After The Rain
Quality: CDDA 100%
===========================================
Track: Ain't Waiting (feat Outasight)
Quality: CDDA 100%
===========================================
Track: Cold Rain
Quality: CDDA 100%
===========================================
Track: Friends & Family
Quality: CDDA 100%
===========================================
Track: Gutter Rainbows
Quality: CDDA 100%
===========================================
Track: How You Love Me (feat Blaq Toven)
Quality: CDDA 100%
===========================================
Track: I'm On One
Quality: CDDA 100%
===========================================
Track: Mr. International (feat Nigel Hall)
Quality: CDDA 100%
===========================================
Track: Palookas (feat Sean Price)
Quality: CDDA 100%
===========================================
Track: Self Savior (feat Chace Infinite)
Quality: CDDA 100%
===========================================
Track: So Low
Quality: CDDA 100%
===========================================
Track: Tater Tot
Quality: CDDA 100%
===========================================
Track: Uh Oh (feat Jean Grae)
Quality: CDDA 100%
===========================================
Track: Wait For You (feat Kendra Ross)
Quality: CDDA 99%
===========================================

_________________
сами мы не местные...


Last edited by Paullo on 2011-03-07 16:11; edited 1 time in total
Other forum [Profile] [PM]
Display posts from previous:    
Reply to topic

The time now is: Today 14:19

All times are GMT + 3 Hours



You cannot post new topics in this forum
You cannot reply to topics in this forum
You cannot edit your posts in this forum
You cannot delete your posts in this forum
You cannot vote in polls in this forum
You cannot attach files in this forum
You cannot download files in this forum