Today is a free download without charge Download

(Dubstep / Gorestep) Borgore - Gorestep Vol. 1.1 - 2009 ALAC, lossless

Reply to topic
 
Author
Message

Paullo ®

Gender:

Longevity: 9 years 5 months

Posts: 393

Location: деактивировано, причина: - Последний визит: 2017-06-22 darkos_bot 12.06.19г

Торрент-статистика

Post 07-Mar-2011 00:40

[Quote]

Borgore - Gorestep Vol. 1.1 Год: 2009
Страна: Израиль
Жанр: Dubstep / Gorestep
Продолжительность: 42:29
Кодек: ALAC
Программа-риповщик : foobar2000 + iTunes (lossless)
Битрейт: lossless-Треклист:
01. Intro (3:45)
02. Saturday Night (3:18)
03. Mama's Boy (4:17)
04. Love (the Gagging Version) (4:22)
05. Borgore Ina Trouble (3:35)
06. Sunday Morning (4:34)
07. 5 Years VIP (Bjork's Cover) (Ft Adi Ulmansky) (5:08)
08. Kill a Man (Ft Shay) (4:35)
09. Summertime (Ft Yael Borger) (5:10)
10. Outro (3:41)-Доп. информация: Асаф Боргер (BORGORE) - молодой но один из самых актуальных артистов на мировой дабстеп сцене.
За прошедший год более 15 релизов на таких лейблахкак AUDIO FREAKS, TRILL BASS, Z AUDIO, SHIFT и еще пачке других.
Он, сразу после своего американского турне, впервые, направляется в Россию.
Сет Боргора - это не просто сумасшедшая подборка новейших бутлегов и еще не вышедших треков, но и выступление создателя подстиля «gorestep» - успевшего заинтересовать таких продюсеров как Rusko, 16bit да и добрую половину молодых дабстепперов.-

Скриншот

Лог foobar2000

fooCDtect - foobar2000 + auCDtect, baralgin.
auCDtect: CD records authenticity detector, version 0.8.2
Copyright (c) 2004 Oleg Berngardt. All rights reserved.
Copyright (c) 2004 Alexander Djourik. All rights reserved.
mode: 0
===========================================
Track: 5 Years VIP (Bjork's Cover) (Ft Adi Ulmansky)
Quality: MPEG 95%
===========================================
Track: Borgore Ina Trouble
Quality: CDDA 100%
===========================================
Track: Intro
Quality: MPEG 95%
===========================================
Track: Kill a Man (Ft Shay)
Quality: MPEG 95%
===========================================
Track: Love (the Gagging Version)
Quality: MPEG 95%
===========================================
Track: Mama's Boy
Quality: CDDA 99%
===========================================
Track: Outro
Quality: MPEG 95%
===========================================
Track: Saturday Night
Quality: CDDA 100%
===========================================
Track: Summertime (Ft Yael Borger)
Quality: MPEG 95%
===========================================
Track: Sunday Morning
Quality: CDDA 100%
===========================================

EAC

[pre]Exact Audio Copy V0.99 prebeta 5 from 4. May 2009
EAC extraction logfile from 7. July 2009, 20:09
Borgore / Gorestep Vol. 1.1
Used drive : ASUS DRW-2014S1 Adapter: 0 ID: 0
Read mode : Secure
Utilize accurate stream : Yes
Defeat audio cache : Yes
Make use of C2 pointers : No
Read offset correction : 6
Overread into Lead-In and Lead-Out : No
Fill up missing offset samples with silence : Yes
Delete leading and trailing silent blocks : No
Null samples used in CRC calculations : Yes
Used interface : Native Win32 interface for Win NT & 2000
Gap handling : Appended to previous track
Used output format : User Defined Encoder
Selected bitrate : 128 kBit/s
Quality : High
Add ID3 tag : No
Command line compressor : C:\Program Files\Exact Audio Copy\Flac\flac.exe
Additional command line options : -V -8 -T "artist=%a" -T "title=%t" -T "album=%g" -T "date=%y" -T "tracknumber=%n" -T "genre=%m" %s
TOC of the extracted CD
Track | Start | Length | Start sector | End sector
---------------------------------------------------------
1 | 0:00.00 | 3:45.31 | 0 | 16905
2 | 3:45.31 | 3:18.72 | 16906 | 31827
3 | 7:04.28 | 4:17.72 | 31828 | 51174
4 | 11:22.25 | 4:22.21 | 51175 | 70845
5 | 15:44.46 | 3:35.39 | 70846 | 87009
6 | 19:20.10 | 4:34.08 | 87010 | 107567
7 | 23:54.18 | 5:08.50 | 107568 | 130717
8 | 29:02.68 | 4:35.23 | 130718 | 151365
9 | 33:38.16 | 5:10.41 | 151366 | 174656
10 | 38:48.57 | 3:41.03 | 174657 | 191234
Track 1
Filename C:\EACrips\Borgore - Gorestep Vol. 1.1 [2009]\01 - Intro.wav
Pre-gap length 0:00:02.00
Peak level 100.0 %
Track quality 100.0 %
Test CRC B1CD2C5F
Copy CRC B1CD2C5F
Track not present in AccurateRip database
Copy OK
Track 2
Filename C:\EACrips\Borgore - Gorestep Vol. 1.1 [2009]\02 - Saturday Night.wav
Peak level 100.0 %
Track quality 100.0 %
Test CRC CAB300AA
Copy CRC CAB300AA
Track not present in AccurateRip database
Copy OK
Track 3
Filename C:\EACrips\Borgore - Gorestep Vol. 1.1 [2009]\03 - Mama's Boy.wav
Peak level 100.0 %
Track quality 100.0 %
Test CRC 1368F2A9
Copy CRC 1368F2A9
Track not present in AccurateRip database
Copy OK
Track 4
Filename C:\EACrips\Borgore - Gorestep Vol. 1.1 [2009]\04 - Love (the Gagging Version).wav
Peak level 100.0 %
Track quality 100.0 %
Test CRC 1D75A045
Copy CRC 1D75A045
Track not present in AccurateRip database
Copy OK
Track 5
Filename C:\EACrips\Borgore - Gorestep Vol. 1.1 [2009]\05 - Borgore Ina Trouble.wav
Peak level 100.0 %
Track quality 99.9 %
Test CRC 12DD8CD3
Copy CRC 12DD8CD3
Track not present in AccurateRip database
Copy OK
Track 6
Filename C:\EACrips\Borgore - Gorestep Vol. 1.1 [2009]\06 - Sunday Morning.wav
Peak level 100.0 %
Track quality 100.0 %
Test CRC 4C5569A6
Copy CRC 4C5569A6
Track not present in AccurateRip database
Copy OK
Track 7
Filename C:\EACrips\Borgore - Gorestep Vol. 1.1 [2009]\07 - 5 Years VIP (Bjork's Cover) (Ft Adi Ulmansky).wav
Peak level 100.0 %
Track quality 100.0 %
Test CRC 0FAC765A
Copy CRC 0FAC765A
Track not present in AccurateRip database
Copy OK
Track 8
Filename C:\EACrips\Borgore - Gorestep Vol. 1.1 [2009]\08 - Kill a Man (Ft Shay).wav
Peak level 100.0 %
Track quality 100.0 %
Test CRC D988D12B
Copy CRC D988D12B
Track not present in AccurateRip database
Copy OK
Track 9
Filename C:\EACrips\Borgore - Gorestep Vol. 1.1 [2009]\09 - Summertime (Ft Yael Borger).wav
Peak level 92.4 %
Track quality 100.0 %
Test CRC 29494519
Copy CRC 29494519
Track not present in AccurateRip database
Copy OK
Track 10
Filename C:\EACrips\Borgore - Gorestep Vol. 1.1 [2009]\10 - Outro.wav
Peak level 100.0 %
Track quality 100.0 %
Test CRC 4E32D88C
Copy CRC 4E32D88C
Track not present in AccurateRip database
Copy OK
None of the tracks are present in the AccurateRip database
No errors occurred
End of status report
Тексты вшиты кроме песни Kill a Man.

_________________
сами мы не местные...
Other forum [Profile] [PM]
Display posts from previous:    
Reply to topic

The time now is: Today 08:04

All times are GMT + 3 Hours



You cannot post new topics in this forum
You cannot reply to topics in this forum
You cannot edit your posts in this forum
You cannot delete your posts in this forum
You cannot vote in polls in this forum
You cannot attach files in this forum
You cannot download files in this forum