Today is a free download without charge Download

(Dixieland, swing) Jerry Fuller Sextet - Clarinet Portrait - 1959, FLAC (tracks+.cue), lossless

Reply to topic
 
Author
Message

Koralina ®

Longevity: 8 years 3 months

Posts: 994

Location: Lithuania

Торрент-статистика

Post 28-Nov-2011 10:30

[Quote]

Jerry Fuller Sextet - Clarinet Portrait - 1959 Жанр: Dixieland, swing
Страна исполнителя: USA
Дата записи: March 17,19 and 20, 1959, at Third Street Studios, Los Angeles, CA
Год издания: 2008
Страна - производитель диска: USA
Издатель (лейбл): V.S.O.P.
Номер по каталогу: #119 CD ANDEX A-3008
Тип: Studio
Аудио кодек: FLAC (*.flac)
Тип рипа: (tracks + .cue)
Битрейт аудио: lossless
Наличие сканов в содержимом раздачи: full scans, png, 300 dpi
Продолжительность: 41:37
Источник (релизер): коллекция Л Рендера, мой рип

Трэклист:

1. I'M GETTING SENTIMENTAL OVER YOU (Bassman, Washington)
2. THAT'S A PLENTY (L. Pollack, R. Gilbert)
3. MINOR EPIC (Gene Estes)
4. ON GREEN DOLPHIN STREET (B. Kaper, N. Washington)
5. JUDY (H. Carmichael, S. Lerner)
6. SOMEBODY LOVES ME (Gershwin, Mac Donald, De Silva)
7. MAKIN' WHOOPEE (Donaldson, Kahn)
8. RAZ-MA-TAZ (Bob Florence)
9. BENNY'S IDEA (Jerry Fuller)
10. GEORGIA ON MY MIND (H. Carmichael, S, Gorrell)
Состав:
Jerry Fuller - clarinet
Howards Roberts - guitar
Bob Florence - piano
Frank Capp - drums
Gene Estes - vibes
Mel Pollan - bass
About:
magnebit
allmusic

Scott Yanow

When one looks at the lineup of musicians featured on Clarinet Portrait, a few names will jump out to jazz collectors, particularly those fans familiar with the Los Angeles scene. Pianist Bob Florence is today quite famous as a big bandleader, a masterful arranger and a fine pianist. The late Howard Roberts, a major bop guitarist, was an important force in the Hollywood studios for a couple of decades and an important educator. Gene Estes, who is also gone but not forgotten, was best known as a beloved drummer but always loved playing vibes whenever he had the opportunity. Drummer Frank Capp, who has been on a countless number of rewarding jazz sessions and dates, co-founded and co-led the Juggernaut since 1977 and has been its sole leader since pianist Nat Pierce's death in 1992. Much more obscure is bassist Mel Pollan who was very busy in the studios during the second half of the 1950s, playing with Les Brown and the Dave Pell Octet for brief periods and appearing on many television and motion picture soundtracks.
But what about Jerry Fuller, the main star of Clarinet Portrait? Although still with us and occasionally active, Fuller never became a household name despite his talents and a couple of high profile associations.
He was born September 15, 1929 in Santa Maria, California. Fuller grew up loving the music of Benny Goodman and throughout his career he has had a similar tone on clarinet although at times a slightly more modern style. Since the swing era was all finished by the time he matured, Fuller's first important musical job was in Los Angeles with trumpeter Jimmy Zito's dixieland band in 1949. After having a stint with Will Osborne's big band, he served in the Army, being discharged in 1953. Back in Los Angeles, he spent a year as a member of Pete Daily's Chicagoans (four titles recorded for an obscure MCA album survive from this period) and worked in the studios. During 1955-59, Fuller was the clarinetist with Jack Teagarden's band, appearing on several records in 1958 and being with Mr. T. on a long U.S. State Department-sponsored tour of Asia.
At the time that he made Clarinet Portrait, his recording debut as a leader (March 17, 19 and 20, 1959), Jerry Fuller had just left Teagarden and was a month away from joining the Dukes Of Dixieland. Although he was closely associated with dixieland groups, Fuller does not play dixieland on Clarinet Portrait, even with the inclusion of "That's A Plenty." Fuller instead displays his roots in Benny Goodman and performs melodic swing in a West Coast jazz setting.
While most jazz combo dates begin with an uptempo number. Fuller confounds expectations by taking Tommy Dorsey's theme song "I'm Getting Sentimental Over You" very slow. Fuller, paying tribute to the recently deceased trombonist (who would have enjoyed this version), takes the first chorus and splits the second one with vibraphonist Estes.
"That's A Plenty" is quite a bit faster and has Fuller, Estes and the rhythm section romping in a similar fashion as the Benny Goodman Sextet from the mid-1940s. Most vibraphonists of the time emulated either Lionel Hampton or Milt Jackson but Estes is closer to Red Norvo. Howard Roberts hints at Charlie Christian during his boppish spot before Fuller creates a heated four-chorus solo which, after a transition, is followed by three more hot choruses, a rare dixieland drum break by Frank Capp and a tag.
"Minor Epic" is quite a bit different. Straddling the boundary between 1950s hard bop and cool jazz, the piece is modern for the period. Fuller fits in well, sharing a chorus with Estes before Roberts constructs a fine statement. "On Green Dolphin Street" is one of those songs (such as "Stella By Starlight" and "'Round Midnight") that have been recorded way too many times through the years. However in 1959 the song was still fresh, having been recently popularized in the jazz world by Miles Davis. Jerry Fuller's rendition is lively, cooking and has excellent solos by Fuller, Estes, Roberts and Bob Florence, being superior to most of the 10.000 versions to follow.
"Judy" is one of Hoagy Carmichael's lesser-known originals. Fuller lovingly caresses the charming melody while Florence plays a lyrical half-chorus worthy of Teddy Wilson. "Somebody Loves Me" is given a seamless performance with each solo flowing naturally into the next one. and the key change near the performance's conclusion sounding not only logical but inevitable. "Makin' Whoopee" is taken at a relaxed pace with the melody always kept close by.
From its title, one might expect "Raz-Ma-Tazz" to be a satire of 1920s jazz, but in reality this is a surprisingly modern West Coast jazz piece that could have been played during the time by clarinetist Buddy DeFranco or perhaps the Red Norvo Trio. Although well disguised its chord structure is similar to Fats Waller's "I've Got A Feeling I'm Falling."
"Benny's Idea," an uptempo riff blues, disguises nothing, being a happy romp in the style of Benny Goodman. It gives all of the key soloists an opportunity to stretch out and they excel, showing the similarities between swing and cool jazz. A tasteful rendition of "Georgia On My Mind" concludes this enjoyable outing.
As a member of the Dukes Of Dixieland during much of 1959-65, Jerry Fuller had a fairly high visibility in the jazz world appearing on many records and holding his own next to trumpeter Frank Assunto and trombonist Fred Assunto. Fuller also worked in the studios (especially in the orchestras employed for television variety shows) and along the way he performed with cornetist Bobby Hackett. pianist Teddy Wilson, vibraphonist Lionel Hampton and drummer Gene Krupa.
Surprisingly the clarinetist Fuller has made relatively few records in the years since he left the Dukes. He co-led the Jerry Fuller-Don DeMicheal Swingtet. a group with vibraphonist DeMichael during 1975-76 that made one album for an obscure label, and in 2004 he recorded a Christmas CD with the nostalgic-swing group Style Is Back In Style
76 at this writing. Jerry Fuller lives in Boston and is occasionally active. His classic Benny Goodman swing style remains timeless and a joy to hear.
Scott Yanow is the author of nine books on jazz including Swing, Jazz On Film Trumpet Kings. Jazz On Record 1917-76 and Bebop

Содержание индексной карты (.CUE):

REM GENRE "Swing & Blues"
REM DATE 1959
REM DISCID 7809C00A
REM COMMENT "ExactAudioCopy v1.0b2"
PERFORMER "Jerry Fuller Sextet"
TITLE "Clarinet Portrait"
FILE "01 - I'm Getting Sentimental Over You.wav" WAVE
TRACK 01 AUDIO
TITLE "I'm Getting Sentimental Over You"
PERFORMER "Jerry Fuller Sextet"
PREGAP 00:02:00
INDEX 01 00:00:00
FILE "02 - That's A Plenty.wav" WAVE
TRACK 02 AUDIO
TITLE "That's A Plenty"
PERFORMER "Jerry Fuller Sextet"
INDEX 01 00:00:00
TRACK 03 AUDIO
TITLE "Minor Epic"
PERFORMER "Jerry Fuller Sextet"
INDEX 00 04:21:56
FILE "03 - Minor Epic.wav" WAVE
INDEX 01 00:00:00
TRACK 04 AUDIO
TITLE "On Green Dolphin Street"
PERFORMER "Jerry Fuller Sextet"
INDEX 00 04:12:68
FILE "04 - On Green Dolphin Street.wav" WAVE
INDEX 01 00:00:00
TRACK 05 AUDIO
TITLE "Judy"
PERFORMER "Jerry Fuller Sextet"
INDEX 00 04:39:20
FILE "05 - Judy.wav" WAVE
INDEX 01 00:00:00
FILE "06 - Somebody Loves Me.wav" WAVE
TRACK 06 AUDIO
TITLE "Somebody Loves Me"
PERFORMER "Jerry Fuller Sextet"
INDEX 01 00:00:00
FILE "07 - Makin' Whoopee.wav" WAVE
TRACK 07 AUDIO
TITLE "Makin' Whoopee"
PERFORMER "Jerry Fuller Sextet"
INDEX 01 00:00:00
FILE "08 - Raz-Ma-Taz.wav" WAVE
TRACK 08 AUDIO
TITLE "Raz-Ma-Taz"
PERFORMER "Jerry Fuller Sextet"
INDEX 01 00:00:00
FILE "09 - Benny's Idea.wav" WAVE
TRACK 09 AUDIO
TITLE "Benny's Idea"
PERFORMER "Jerry Fuller Sextet"
INDEX 01 00:00:00
FILE "10 - Georgia On My Mind.wav" WAVE
TRACK 10 AUDIO
TITLE "Georgia On My Mind"
PERFORMER "Jerry Fuller Sextet"
INDEX 01 00:00:00

Лог создания рипа

Exact Audio Copy V1.0 beta 2 from 29. April 2011
EAC extraction logfile from 15. November 2011, 19:39
Jerry Fuller Sextet / Clarinet Portrait
Used drive : HL-DT-STDVDRAM GSA-T50N Adapter: 1 ID: 0
Read mode : Secure
Utilize accurate stream : Yes
Defeat audio cache : Yes
Make use of C2 pointers : No
Read offset correction : 667
Overread into Lead-In and Lead-Out : No
Fill up missing offset samples with silence : Yes
Delete leading and trailing silent blocks : No
Null samples used in CRC calculations : Yes
Used interface : Native Win32 interface for Win NT & 2000
Gap handling : Appended to previous track
Used output format : User Defined Encoder
Selected bitrate : 1024 kBit/s
Quality : High
Add ID3 tag : No
Command line compressor : C:\Program Files\Exact Audio Copy\Flac\flac.exe
Additional command line options : -8 -V -T "ARTIST=%artist%" -T "TITLE=%title%" -T "ALBUM=%albumtitle%" -T "DATE=%year%" -T "TRACKNUMBER=%tracknr%" -T "GENRE=%genre%" -T "PERFORMER=%albuminterpret%" -T "COMMENT=EAC V1.0 beta 2, Secure Mode, Test & Copy, Acc
TOC of the extracted CD
Track | Start | Length | Start sector | End sector
---------------------------------------------------------
1 | 0:02.00 | 3:58.64 | 150 | 18063
2 | 4:00.64 | 4:23.56 | 18064 | 37844
3 | 8:24.45 | 4:14.57 | 37845 | 56951
4 | 12:39.27 | 4:40.00 | 56952 | 77951
5 | 17:19.27 | 3:06.28 | 77952 | 91929
6 | 20:25.55 | 4:06.07 | 91930 | 110386
7 | 24:31.62 | 3:40.62 | 110387 | 126948
8 | 28:12.49 | 3:29.24 | 126949 | 142647
9 | 31:41.73 | 6:30.25 | 142648 | 171922
10 | 38:12.23 | 3:25.62 | 171923 | 187359
Track 1
Filename C:\music\Musicgate's rips\Jerry Fuller Sextet - Clarinet Portrait - 1959\01 - I'm Getting Sentimental Over You.wav
Pre-gap length 0:00:04.00
Peak level 91.7 %
Extraction speed 2.5 X
Track quality 100.0 %
Test CRC 36289906
Copy CRC 36289906
Track not present in AccurateRip database
Copy OK
Track 2
Filename C:\music\Musicgate's rips\Jerry Fuller Sextet - Clarinet Portrait - 1959\02 - That's A Plenty.wav
Peak level 100.0 %
Extraction speed 2.8 X
Track quality 100.0 %
Test CRC 4ABDD4C1
Copy CRC 4ABDD4C1
Track not present in AccurateRip database
Copy OK
Track 3
Filename C:\music\Musicgate's rips\Jerry Fuller Sextet - Clarinet Portrait - 1959\03 - Minor Epic.wav
Pre-gap length 0:00:02.00
Peak level 94.1 %
Extraction speed 3.0 X
Track quality 100.0 %
Test CRC F95E4220
Copy CRC F95E4220
Track not present in AccurateRip database
Copy OK
Track 4
Filename C:\music\Musicgate's rips\Jerry Fuller Sextet - Clarinet Portrait - 1959\04 - On Green Dolphin Street.wav
Pre-gap length 0:00:01.85
Peak level 88.8 %
Extraction speed 3.3 X
Track quality 100.0 %
Test CRC A791499C
Copy CRC A791499C
Track not present in AccurateRip database
Copy OK
Track 5
Filename C:\music\Musicgate's rips\Jerry Fuller Sextet - Clarinet Portrait - 1959\05 - Judy.wav
Pre-gap length 0:00:00.73
Peak level 92.6 %
Extraction speed 3.3 X
Track quality 100.0 %
Test CRC 651275CC
Copy CRC 651275CC
Track not present in AccurateRip database
Copy OK
Track 6
Filename C:\music\Musicgate's rips\Jerry Fuller Sextet - Clarinet Portrait - 1959\06 - Somebody Loves Me.wav
Peak level 97.5 %
Extraction speed 3.6 X
Track quality 100.0 %
Test CRC 8A300CA1
Copy CRC 8A300CA1
Track not present in AccurateRip database
Copy OK
Track 7
Filename C:\music\Musicgate's rips\Jerry Fuller Sextet - Clarinet Portrait - 1959\07 - Makin' Whoopee.wav
Peak level 95.9 %
Extraction speed 3.7 X
Track quality 100.0 %
Test CRC 0EC40B36
Copy CRC 0EC40B36
Track not present in AccurateRip database
Copy OK
Track 8
Filename C:\music\Musicgate's rips\Jerry Fuller Sextet - Clarinet Portrait - 1959\08 - Raz-Ma-Taz.wav
Peak level 93.0 %
Extraction speed 3.9 X
Track quality 100.0 %
Test CRC 38E3D0E0
Copy CRC 38E3D0E0
Track not present in AccurateRip database
Copy OK
Track 9
Filename C:\music\Musicgate's rips\Jerry Fuller Sextet - Clarinet Portrait - 1959\09 - Benny's Idea.wav
Peak level 91.6 %
Extraction speed 4.3 X
Track quality 100.0 %
Test CRC B96426DD
Copy CRC B96426DD
Track not present in AccurateRip database
Copy OK
Track 10
Filename C:\music\Musicgate's rips\Jerry Fuller Sextet - Clarinet Portrait - 1959\10 - Georgia On My Mind.wav
Peak level 100.0 %
Extraction speed 4.3 X
Track quality 100.0 %
Test CRC C3BCDE26
Copy CRC C3BCDE26
Track not present in AccurateRip database
Copy OK
None of the tracks are present in the AccurateRip database
No errors occurred
End of status report
==== Log checksum F9579E7A6A2687AA57C06E79614BC51DE5D1A43B2A454025843F9339DD77FB70 ====

Лог проверки качества


_________________
Other forum [Profile] [PM]

vlad41

Longevity: 7 years 10 months

Posts: 3

Торрент-статистика

Post 11-Aug-2012 16:53 (after 8 months 13 days)

[Quote]

Пасибо!!! А не раздаче кто будет?
Other forum [Profile] [PM]
Display posts from previous:    
Reply to topic

The time now is: Today 03:37

All times are GMT + 3 Hours



You cannot post new topics in this forum
You cannot reply to topics in this forum
You cannot edit your posts in this forum
You cannot delete your posts in this forum
You cannot vote in polls in this forum
You cannot attach files in this forum
You cannot download files in this forum