Today is a free download without charge Download

Search found 500 matches

Author Message

Орлов Владимир

Post 05-Feb-2020 19:06

[Quote]

--Братство--
Информация о фильме
Название: Братство
Год выхода: 2019
Жанр: Драма, боевик, история, военный
Режиссер: Павел Лунгин--В ролях: Кирилл Пирогов, Ян Цапник, Виталий Кищенко, Фёдор Лавров, Олег Васильков, Антон Момот, Михаил Кремер, Кирилл Ермичев, Роман Колотухин, Василий Буткевич--О фильме: 1988 год, канун вывода советских войск из Афганистана. Командование 108-й мотострелковой дивизии планирует отход через перевал Саланг, подконтрольный группировке моджахедов Инженера Хошема. Разведка пытается договориться о перемирии с душманами, но дело осложняется тем, что в плен к Хошему попадает советский военный пилот. Начинается сложная игра, в которой переплетаются противоположные интересы множества самых разных людей: штабистов, исламистов, спецназа, разведки, чиновников из афганского правительства, сотрудников советских спецслужб, таджиков и пуштунов. А в самом центре этого водоворота оказываются солдаты разведроты, для которых важнее любых политических соображений остается правило — не бросать своих.-- --Страна: Россия
Студия: Мастерская Павла Лунгина
Продолжительность: 01:53:40
Перевод: Не требуется Лицензия Blu-Ray FRA --Файл
Качество: BDRip 1080p
Формат: MKV
Кодек: MPEG-4 AVC
Видео: 1920x1080 (16:9), 23,976 fps, MPEG-4 AVC ~ 8005 Кbps avg, 0.161 bit/pixel
Аудио: AC3, 48 kHz, 6 ch, ~640.00 kbps avg | русский | Blu-Ray FRA
Аудио: DTS, 48 kHz, 6 ch, ~1510.00 kbps avg | русский | Blu-Ray FRA
Аудио: DTS, 48 kHz, 6 ch, ~1509.00 kbps avg | французский |
Субтитры: Французские (Full)
--

Тех.данные видеофайла

Общее
Уникальный идентификатор : 264465618420759620155555672058489658156 (0xC6F639B25B1338DE6AE2546605EEDB2C)
Полное имя : Bratstvo.2019.MULTi.1080p.BluRay.x264.mkv
Формат : Matroska
Версия формата : Version 4
Размер файла : 9,26 Гбайт
Продолжительность : 1 ч. 53 м.
Общий поток : 11,7 Мбит/сек
Название фильма : Братство (2019)
Дата кодирования : UTC 2020-02-05 11:50:55
Программа кодирования : mkvmerge v41.0.0 ('Smarra') 64-bit
Библиотека кодирования : libebml v1.3.9 + libmatroska v1.5.2
Обложка : Yes
Attachments : cover.jpg
Видео
Идентификатор : 1
Формат : AVC
Формат/Информация : Advanced Video Codec
Профиль формата : High@L4.1
Настройки формата : CABAC / 4 Ref Frames
Параметр CABAC формата : Да
Параметр RefFrames формата : 4 кадра
Идентификатор кодека : V_MPEG4/ISO/AVC
Продолжительность : 1 ч. 53 м.
Битрейт : 8005 Кбит/сек
Ширина : 1920 пикселей
Высота : 1080 пикселей
Соотношение сторон : 16:9
Режим частоты кадров : Постоянный
Частота кадров : 23,976 (24000/1001) кадра/сек
Цветовое пространство : YUV
Субдискретизация насыщенности : 4:2:0
Битовая глубина : 8 бит
Тип развёртки : Прогрессивная
Бит/(Пиксели*Кадры) : 0.161
Размер потока : 6,35 Гбайт (69%)
Заголовок : UTT
Библиотека кодирования : x264 core 152 r2851 ba24899
Настройки программы : cabac=1 / ref=4 / deblock=1:-3:-3 / analyse=0x3:0x113 / me=umh / subme=10 / psy=1 / psy_rd=1.00:0.00 / mixed_ref=1 / me_range=24 / chroma_me=1 / trellis=2 / 8x8dct=1 / cqm=0 / deadzone=21,11 / fast_pskip=1 / chroma_qp_offset=-2 / threads=24 / lookahead_threads=4 / sliced_threads=0 / nr=0 / decimate=1 / interlaced=0 / bluray_compat=0 / constrained_intra=0 / bframes=8 / b_pyramid=2 / b_adapt=2 / b_bias=0 / direct=3 / weightb=1 / open_gop=0 / weightp=2 / keyint=230 / keyint_min=23 / scenecut=40 / intra_refresh=0 / rc_lookahead=60 / rc=2pass / mbtree=1 / bitrate=8005 / ratetol=1.0 / qcomp=0.60 / qpmin=0 / qpmax=69 / qpstep=4 / cplxblur=20.0 / qblur=0.5 / vbv_maxrate=62500 / vbv_bufsize=78125 / nal_hrd=none / filler=0 / ip_ratio=1.40 / aq=1:1.00
Язык : French
Default : Да
Forced : Нет
Аудио #1
Идентификатор : 2
Формат : AC-3
Формат/Информация : Audio Coding 3
Коммерческое название : Dolby Digital
Идентификатор кодека : A_AC3
Продолжительность : 1 ч. 53 м.
Вид битрейта : Постоянный
Битрейт : 640 Кбит/сек
Каналы : 6 каналов
ChannelLayout : L R C LFE Ls Rs
Частота : 48,0 КГц
Частота кадров : 31,250 кадров/сек (1536 SPF)
Метод сжатия : С потерями
Размер потока : 520 Мбайт (5%)
Заголовок : Blu-ray FRA
Язык : Russian
Default : Да
Forced : Да
Аудио #2
Идентификатор : 3
Формат : DTS
Формат/Информация : Digital Theater Systems
Идентификатор кодека : A_DTS
Продолжительность : 1 ч. 53 м.
Вид битрейта : Постоянный
Битрейт : 1509 Кбит/сек
Каналы : 6 каналов
ChannelLayout : C L R Ls Rs LFE
Частота : 48,0 КГц
Частота кадров : 93,750 кадра/сек (512 SPF)
Битовая глубина : 24 бит
Метод сжатия : С потерями
Размер потока : 1,20 Гбайт (13%)
Заголовок : Blu-ray FRA
Язык : Russian
Default : Нет
Forced : Нет
Аудио #3
Идентификатор : 4
Формат : DTS
Формат/Информация : Digital Theater Systems
Идентификатор кодека : A_DTS
Продолжительность : 1 ч. 53 м.
Вид битрейта : Постоянный
Битрейт : 1509 Кбит/сек
Каналы : 6 каналов
ChannelLayout : C L R Ls Rs LFE
Частота : 48,0 КГц
Частота кадров : 93,750 кадра/сек (512 SPF)
Битовая глубина : 24 бит
Метод сжатия : С потерями
Размер потока : 1,20 Гбайт (13%)
Язык : French
Default : Нет
Forced : Нет
Текст
Идентификатор : 5
Формат : UTF-8
Идентификатор кодека : S_TEXT/UTF8
Идентификатор кодека/Информация : UTF-8 Plain Text
Продолжительность : 1 ч. 49 м.
Битрейт : 44 бит/сек
ElementCount : 1057
Размер потока : 35,6 Кбайт (0%)
Заголовок : Full
Язык : French
Default : Нет
Forced : Нет
Меню
00:00:00.000 : en:00:00:00.000
00:08:36.516 : en:00:08:36.516
00:21:33.501 : en:00:21:33.501
00:36:35.443 : en:00:36:35.443
00:49:51.071 : en:00:49:51.071
00:59:56.635 : en:00:59:56.635
01:10:45.658 : en:01:10:45.658
01:18:43.469 : en:01:18:43.469
01:28:27.719 : en:01:28:27.719
01:38:17.475 : en:01:38:17.475

Скриншоты

           

Орлов Владимир

Post 05-Feb-2020 19:02

[Quote]

--Братство --
Информация о фильме
Название: Братство
Год выхода: 2019
Жанр: Драма, боевик, история, военный
Режиссер: Павел Лунгин--В ролях: Кирилл Пирогов, Ян Цапник, Виталий Кищенко, Фёдор Лавров, Олег Васильков, Антон Момот, Михаил Кремер, Кирилл Ермичев, Роман Колотухин, Василий Буткевич--О фильме: 1988 год, канун вывода советских войск из Афганистана. Командование 108-й мотострелковой дивизии планирует отход через перевал Саланг, подконтрольный группировке моджахедов Инженера Хошема. Разведка пытается договориться о перемирии с душманами, но дело осложняется тем, что в плен к Хошему попадает советский военный пилот. Начинается сложная игра, в которой переплетаются противоположные интересы множества самых разных людей: штабистов, исламистов, спецназа, разведки, чиновников из афганского правительства, сотрудников советских спецслужб, таджиков и пуштунов. А в самом центре этого водоворота оказываются солдаты разведроты, для которых важнее любых политических соображений остается правило — не бросать своих.-- --Страна: Россия
Студия: Мастерская Павла Лунгина
Продолжительность: 01:53:40
Перевод: Не требуется Лицензия Blu-Ray FRA --Файл
Качество: BDRip 720p
Формат: MKV
Кодек: MPEG-4 AVC
Видео: 1280x720 (16:9), 23,976 fps, MPEG-4 AVC ~ 5462 Кbps avg, 0.247 bit/pixel
Аудио: AC3, 48 kHz, 6 ch, ~640.00 kbps avg | русский | Blu-Ray FRA
Аудио: DTS, 48 kHz, 6 ch, ~1510.00 kbps avg | русский | Blu-Ray FRA
Субтитры: Отсутствуют--

Тех.данные видеофайла

Общее
Уникальный идентификатор : 248352559385841082848138434721425701491 (0xBAD6F68CFA2435A27C458A21A6A8BA73)
Полное имя : Bratstvo.2019.FRENCH.720p.BluRay.DTS.x264.mkv
Формат : Matroska
Версия формата : Version 4
Размер файла : 6,04 Гбайт
Продолжительность : 1 ч. 53 м.
Общий поток : 7611 Кбит/сек
Название фильма : Братство (2019)
Дата кодирования : UTC 2020-02-05 12:25:17
Программа кодирования : mkvmerge v41.0.0 ('Smarra') 64-bit
Библиотека кодирования : libebml v1.3.9 + libmatroska v1.5.2
Обложка : Yes
Attachments : cover.jpg
Видео
Идентификатор : 1
Формат : AVC
Формат/Информация : Advanced Video Codec
Профиль формата : High@L4.1
Настройки формата : CABAC / 5 Ref Frames
Параметр CABAC формата : Да
Параметр RefFrames формата : 5 кадров
Идентификатор кодека : V_MPEG4/ISO/AVC
Продолжительность : 1 ч. 53 м.
Битрейт : 5462 Кбит/сек
Ширина : 1280 пикселей
Высота : 720 пикселей
Соотношение сторон : 16:9
Режим частоты кадров : Постоянный
Частота кадров : 23,976 (24000/1001) кадра/сек
Цветовое пространство : YUV
Субдискретизация насыщенности : 4:2:0
Битовая глубина : 8 бит
Тип развёртки : Прогрессивная
Бит/(Пиксели*Кадры) : 0.247
Размер потока : 4,33 Гбайт (72%)
Заголовок : UTT
Библиотека кодирования : x264 core 152 r2851 ba24899
Настройки программы : cabac=1 / ref=5 / deblock=1:-3:-3 / analyse=0x3:0x113 / me=umh / subme=10 / psy=1 / psy_rd=1.00:0.00 / mixed_ref=1 / me_range=24 / chroma_me=1 / trellis=2 / 8x8dct=1 / cqm=0 / deadzone=21,11 / fast_pskip=1 / chroma_qp_offset=-2 / threads=22 / lookahead_threads=4 / sliced_threads=0 / nr=0 / decimate=1 / interlaced=0 / bluray_compat=0 / constrained_intra=0 / bframes=8 / b_pyramid=2 / b_adapt=2 / b_bias=0 / direct=3 / weightb=1 / open_gop=0 / weightp=2 / keyint=230 / keyint_min=23 / scenecut=40 / intra_refresh=0 / rc_lookahead=60 / rc=2pass / mbtree=1 / bitrate=5462 / ratetol=1.0 / qcomp=0.60 / qpmin=0 / qpmax=69 / qpstep=4 / cplxblur=20.0 / qblur=0.5 / vbv_maxrate=62500 / vbv_bufsize=78125 / nal_hrd=none / filler=0 / ip_ratio=1.40 / aq=1:1.00
Язык : French
Default : Да
Forced : Нет
Аудио #1
Идентификатор : 2
Формат : AC-3
Формат/Информация : Audio Coding 3
Коммерческое название : Dolby Digital
Идентификатор кодека : A_AC3
Продолжительность : 1 ч. 53 м.
Вид битрейта : Постоянный
Битрейт : 640 Кбит/сек
Каналы : 6 каналов
ChannelLayout : L R C LFE Ls Rs
Частота : 48,0 КГц
Частота кадров : 31,250 кадров/сек (1536 SPF)
Метод сжатия : С потерями
Размер потока : 520 Мбайт (8%)
Заголовок : Blu-ray FRA
Язык : Russian
Default : Да
Forced : Да
Аудио #2
Идентификатор : 3
Формат : DTS
Формат/Информация : Digital Theater Systems
Идентификатор кодека : A_DTS
Продолжительность : 1 ч. 53 м.
Вид битрейта : Постоянный
Битрейт : 1509 Кбит/сек
Каналы : 6 каналов
ChannelLayout : C L R Ls Rs LFE
Частота : 48,0 КГц
Частота кадров : 93,750 кадра/сек (512 SPF)
Битовая глубина : 24 бит
Метод сжатия : С потерями
Размер потока : 1,20 Гбайт (20%)
Заголовок : Blu-ray FRA
Язык : Russian
Default : Нет
Forced : Нет
Меню
00:00:00.000 : en:00:00:00.000
00:08:36.516 : en:00:08:36.516
00:21:33.501 : en:00:21:33.501
00:36:35.443 : en:00:36:35.443
00:49:51.071 : en:00:49:51.071
00:59:56.635 : en:00:59:56.635
01:10:45.658 : en:01:10:45.658
01:18:43.469 : en:01:18:43.469
01:28:27.719 : en:01:28:27.719
01:38:17.475 : en:01:38:17.475

Скриншоты

           

Орлов Владимир

Post 05-Feb-2020 18:58

[Quote]

--Братство--
Информация о фильме
Название: Братство
Год выхода: 2019
Жанр: Драма, боевик, история, военный
Режиссер: Павел Лунгин-В ролях: Кирилл Пирогов, Ян Цапник, Виталий Кищенко, Фёдор Лавров, Олег Васильков, Антон Момот, Михаил Кремер, Кирилл Ермичев, Роман Колотухин, Василий Буткевич--О фильме: 1988 год, канун вывода советских войск из Афганистана. Командование 108-й мотострелковой дивизии планирует отход через перевал Саланг, подконтрольный группировке моджахедов Инженера Хошема. Разведка пытается договориться о перемирии с душманами, но дело осложняется тем, что в плен к Хошему попадает советский военный пилот. Начинается сложная игра, в которой переплетаются противоположные интересы множества самых разных людей: штабистов, исламистов, спецназа, разведки, чиновников из афганского правительства, сотрудников советских спецслужб, таджиков и пуштунов. А в самом центре этого водоворота оказываются солдаты разведроты, для которых важнее любых политических соображений остается правило — не бросать своих.-- --Страна: Россия
Студия: Мастерская Павла Лунгина
Продолжительность: 01:53:40
Перевод: Не требуется Лицензия Blu-Ray FRA --Файл
Качество: HDRip
Формат: AVI
Кодек: XviD
Видео: 704x400 (16:9), 23,976 fps, XviD ~ 2292 Kbps avg, 0.339 bit/pixel
Аудио: AC3, 48 kHz, 6 ch, ~448.00 kbps avg | русский | Blu-Ray FRA
Субтитры: Отсутствуют--

Скриншоты

           

Орлов Владимир

Post 05-Feb-2020 18:55

[Quote]

--Братство--
Информация о фильме
Название: Братство
Год выхода: 2019
Жанр: Драма, боевик, история, военный
Режиссер: Павел Лунгин--В ролях: Кирилл Пирогов, Ян Цапник, Виталий Кищенко, Фёдор Лавров, Олег Васильков, Антон Момот, Михаил Кремер, Кирилл Ермичев, Роман Колотухин, Василий Буткевич--О фильме: 1988 год, канун вывода советских войск из Афганистана. Командование 108-й мотострелковой дивизии планирует отход через перевал Саланг, подконтрольный группировке моджахедов Инженера Хошема. Разведка пытается договориться о перемирии с душманами, но дело осложняется тем, что в плен к Хошему попадает советский военный пилот. Начинается сложная игра, в которой переплетаются противоположные интересы множества самых разных людей: штабистов, исламистов, спецназа, разведки, чиновников из афганского правительства, сотрудников советских спецслужб, таджиков и пуштунов. А в самом центре этого водоворота оказываются солдаты разведроты, для которых важнее любых политических соображений остается правило — не бросать своих.-- --Страна: Россия
Студия: Мастерская Павла Лунгина
Продолжительность: 01:53:40
Перевод: Не требуется Лицензия Blu-Ray FRA --Файл
Качество: HDRip
Формат: AVI
Кодек: XviD
Видео: 704x400 (16:9), 23,976 fps, XviD ~ 1640 Kbps avg, 0.243 bit/pixel
Аудио: AC3, 48 kHz, 2 ch, ~192.00 kbps avg | русский | Blu-Ray FRA
Субтитры: Отсутствуют--

Скриншоты

           

mayor

Post 13-Jan-2020 18:41

[Quote]

- Новогодний ремонт - Производство: Россия / ВитЭл
Жанр: Комедия, мелодрама
Режиссер: Артур Пинхасов
Актеры: Зоя Бербер, Сергей Комаров, Артём Осипов, Эрик Бигуля, Вадим Галыгин, Ирина Розанова, Виталия Корниенко, Данил Стеклов, Макар Запорожский, Исмаил Коне
Описание:
У Марго есть 24 часа, чтобы сделать ремонт в квартире к приезду дочери и мамы. В попытке найти решение, она случайно отправляет сообщение с просьбой о помощи всем контактам в телефоне. С этого момента дверной звонок звучит непрерывно, а в квартире Риты один за другим появляются старые и новые друзья — русский депутат, учитель-еврей, армянин — владелец ресторана. Последним как снег на голову падает американец с предложением жениться. Все вместе решают: Маргариту в США отпускать нельзя! Пусть это будет непросто, но русские ведь просто так не сдаются…

Возраст: 12+ (зрителям, достигшим 12 лет)
Дата российской премьеры: 7 ноября 2019
Продолжительность: 01:22:44
Качество видео: WEB-DLRip [http://sendfile.su/1540641]
Перевод: Не требуется (русский)
Субтитры: Отсутствуют
Видео: Xvid, 688x288, ~1114 kbps
Аудио: MP3, 2 ch, 128 kbps

Доп.Информация:

Общее
Полное имя : E:\Novogodniy.remont.2019.WEB-DLRip.740 mb.avi
Формат : AVI
Формат/Информация : Audio Video Interleave
Размер файла : 742 Мбайт
Продолжительность : 1 ч. 22 м.
Общий поток : 1252 Кбит/сек
Программа кодирования : VirtualDubMod 1.5.10.3 | www.virtualdub-fr.org || (build 2550/release)
Библиотека кодирования : VirtualDubMod build 2550/release
Видео
Идентификатор : 0
Формат : MPEG-4 Visual
Профиль формата : Advanced Simple@L5
Параметр BVOP формата : 1
Параметр QPel формата : Нет
Параметр GMC формата : Без точки перехода
Параметр матрицы формата : Выборочная
Идентификатор кодека : XVID
Идентификатор кодека/Подсказка : XviD
Продолжительность : 1 ч. 22 м.
Битрейт : 1114 Кбит/сек
Ширина : 688 пикселей
Высота : 288 пикселей
Соотношение сторон : 2,40:1
Частота кадров : 25,000 кадров/сек
Цветовое пространство : YUV
Субдискретизация насыщенности : 4:2:0
Битовая глубина : 8 бит
Тип развёртки : Прогрессивная
Метод сжатия : С потерями
Бит/(Пиксели*Кадры) : 0.225
Размер потока : 661 Мбайт (89%)
Библиотека кодирования : XviD 73
Аудио
Идентификатор : 1
Формат : MPEG Audio
Версия формата : Version 1
Профиль формата : Layer 3
Идентификатор кодека : 55
Идентификатор кодека/Подсказка : MP3
Продолжительность : 1 ч. 22 м.
Вид битрейта : Постоянный
Битрейт : 128 Кбит/сек
Каналы : 2 канала
Частота : 48,0 КГц
Метод сжатия : С потерями
Размер потока : 75,9 Мбайт (10%)
Выравнивание : Соединение по промежуткам
Продолжительность промежутка : 40 мс. (1,00 видеокадр)
Время предзагрузки промежутка : 504 мс.
Библиотека кодирования : LAME3.99r
Настройки программы : -m s -V 4 -q 2 -lowpass 17 -b 128
Скриншоты:
       

Скриншоты:

       

mayor

Post 08-Jan-2020 17:13

[Quote]

- Люби их всех - Производство: Россия / Кинокомпания CTB, Park Cinema Production
Жанр: Драма, триллер
Режиссер: Мария Агранович
Актеры: Алена Михайлова, Александр Кузнецов, Сергей Гармаш, Александр Тронов, Александра Киселева, Кирилл Сафонов
Описание:
У нее всегда есть план. Для каждого свой. Для каждого свое имя. Одному нужна Вера. Другому — Надежда. И почти всем Любовь. К каждому из мужчин у нее особый подход. Но они всегда платят: и чтобы ее завоевать, и чтобы от нее избавиться. Но кто знает, где кончается обман, на который идут только ради денег, и начинается настоящее чувство? И кто знает кто она: простая столичная содержанка, коварная мошенница, талантливая актриса или женщина, которая умеет (только) любить? Любить их всех.

Возраст: 18+ (зрителям, достигшим 18 лет. запрещено для детей)
Дата мировой премьеры: 23 ноября 2019
Дата российской премьеры: 3 октября 2019, «Наше Кино»
Продолжительность: 01:38:14
Качество видео: WEBRip [https://my-files.ru/rmi6k5]
Перевод: Не требуется (русский)
Субтитры: Отсутствуют
Видео: Xvid, 688x288, ~920 kbps
Аудио: MP3, 2 ch, 128 kbps

Доп.Информация:

Общее
Полное имя : E:\Lubi_ih_vseh_2019_WEBRip.740.mb.avi
Формат : AVI
Формат/Информация : Audio Video Interleave
Размер файла : 744 Мбайт
Продолжительность : 1 ч. 38 м.
Общий поток : 1059 Кбит/сек
Программа кодирования : VirtualDubMod 1.5.10.3 | www.virtualdub-fr.org || (build 2550/release)
Библиотека кодирования : VirtualDubMod build 2550/release
Видео
Идентификатор : 0
Формат : MPEG-4 Visual
Профиль формата : Advanced Simple@L5
Параметр BVOP формата : 1
Параметр QPel формата : Нет
Параметр GMC формата : Без точки перехода
Параметр матрицы формата : Выборочная
Идентификатор кодека : XVID
Идентификатор кодека/Подсказка : XviD
Продолжительность : 1 ч. 38 м.
Битрейт : 921 Кбит/сек
Ширина : 688 пикселей
Высота : 288 пикселей
Соотношение сторон : 2,40:1
Частота кадров : 25,000 кадров/сек
Цветовое пространство : YUV
Субдискретизация насыщенности : 4:2:0
Битовая глубина : 8 бит
Тип развёртки : Прогрессивная
Метод сжатия : С потерями
Бит/(Пиксели*Кадры) : 0.186
Размер потока : 647 Мбайт (87%)
Библиотека кодирования : XviD 73
Аудио
Идентификатор : 1
Формат : MPEG Audio
Версия формата : Version 1
Профиль формата : Layer 3
Идентификатор кодека : 55
Идентификатор кодека/Подсказка : MP3
Продолжительность : 1 ч. 38 м.
Вид битрейта : Постоянный
Битрейт : 128 Кбит/сек
Каналы : 2 канала
Частота : 48,0 КГц
Метод сжатия : С потерями
Размер потока : 89,9 Мбайт (12%)
Выравнивание : Соединение по промежуткам
Продолжительность промежутка : 40 мс. (1,00 видеокадр)
Время предзагрузки промежутка : 504 мс.
Библиотека кодирования : LAME3.99r
Настройки программы : -m s -V 4 -q 2 -lowpass 17 -b 128
Скриншоты:
       

Скриншоты:

         

mayor

Post 01-Jan-2020 17:27

[Quote]

Одесский пароход--- Год выпуска: 2020
Страна: Россия
Жанр: Фильм, Комедия, Экранизация
Продолжительность: 01:22
Перевод: Не требуется- Режиссер: Сергей Урсуляк- В ролях:
Роман Мадянов, Чулпан Хаматова, Владимир Машков, Тимофей Трибунцев, Сергей Маковецкий, Марина Александрова, Павел Деревянко, Ирина Муравьёва, Михаил Пореченков, Сергей Гармаш
Описание:
По мотивам произведений Михаила Жванецкого. В основе сюжета новой комедии – знаменитые миниатюры Одесский пароход, Два яблока, Собрание на ликеро-водочном заводе и другие произведения одного из самых прославленных писателей-юмористов страны Михаила Жванецкого. Всего – 13 миниатюр. Судьбы героев каждой истории переплетаются, и перед зрителем предстанет панорама жизни, в которой так и не удалось заслушать начальника транспортного цеха, экипаж самолета интересуется у пассажиров, не умеет ли кто сажать самолет, буфетчица встает за штурвал парохода, а отец учит сына арифметике, уничтожая все яблоки в доме…

Качество: SATRip
Формат: MPEG-4
Видео кодек: XVID
Аудио кодек: MP3
Видео: AVC, 720x400 (16:9), 1 696 kbps, 25 fps
Аудио: AC3 / 2.0 / 48 kHz / 192 kbps /

ОтчетМедиаИнфо

General
Complete name : D:\Одесский пароход 2020.avi
Format : AVI
Format/Info : Audio Video Interleave
Format profile : OpenDML
File size : 1.09 GiB
Duration : 1 h 22 min
Overall bit rate : 1 905 kb/s
Movie name : # from 7turza #
Writing application : Lavf58.29.100
Video
ID : 0
Format : MPEG-4 Visual
Format profile : Advanced Simple@L5
Format settings : BVOP1
Format settings, BVOP : 1
Format settings, QPel : No
Format settings, GMC : No warppoints
Format settings, Matrix : Default (H.263)
Codec ID : XVID
Codec ID/Hint : XviD
Duration : 1 h 22 min
Bit rate : 1 696 kb/s
Width : 720 pixels
Height : 400 pixels
Display aspect ratio : 16:9
Frame rate : 25.000 FPS
Color space : YUV
Chroma subsampling : 4:2:0
Bit depth : 8 bits
Scan type : Progressive
Compression mode : Lossy
Bits/(Pixel*Frame) : 0.236
Stream size : 996 MiB (89%)
Writing library : XviD 67
Audio
ID : 1
Format : MPEG Audio
Format version : Version 1
Format profile : Layer 3
Format settings : Joint stereo / MS Stereo
Codec ID : 55
Codec ID/Hint : MP3
Duration : 1 h 22 min
Bit rate mode : Constant
Bit rate : 192 kb/s
Channel(s) : 2 channels
Sampling rate : 48.0 kHz
Compression mode : Lossy
Stream size : 113 MiB (10%)
Alignment : Aligned on interleaves
Interleave, duration : 24 ms (0.60 video frame)
Скриншоты
         

Орлов Владимир

Post 05-Dec-2019 23:52

[Quote]

--Время женщин--
Информация о фильме
Оригинальное название: Время женщин
Год выхода: 2018
Жанр: мелодрама
Режиссер: Андрей Троицкий, Владимир Мирзоев, Инна Щербань--В ролях: Полина Ауг, Макар Запорожский, Евгений Цыганов, Евгения Соляных, Надежда Игошина, Анна Нахапетова, Денис Клявер--О фильме: Мира — деревенская девушка — загадывает жениха. Вскоре в их доме на ночлег остается офицер, а через время выясняется, что девушка беременна. Перед Мирой встает вопрос — считать это случаем или судьбой, сохранить или уничтожить ребенка. Русская смерть — Валя мечтала жить в Венеции, продала московскую квартиру, уехала. Младшая, Надежда, осталась одна, на даче. Через пару лет, разочаровавшись в Венеции, Валя вернулась. Теперь, «так по-чеховски», обе сестры живут в доме с мезонином, это одиночество вдвоем. Они застряли между прошлым и будущим. За воротами — пугающая и непонятная повседневность, в которую «каждый раз выходишь, как в Одиссею». Однажды в доме появляется Алексей — зрелый мужчина с интеллигентным лицом. Его подцепила Надя, но и Валентине он нравится. Классический любовный треугольник? Нет, у наших сестер на Алексея совсем другие планы… Вера, балерина Большого театра вышла на пенсию. Протанцевав в кордебалете 20 лет, так и не успела создать семью, не родила ребенка. Чтобы на что-то жить устроилась в отель преподавать йогу. Поклонников было много, но она влюбилась в женатого и не совсем порядочного мужчину. Каждый день Верки похож на предыдущий. Так бы и жила, если бы однажды в их город не приехал экспериментальный испанский театр «Фламенко» с балетом «Кармен».-- --Выпущено: Россия / Vega Film
Продолжительность: 01:22:16
Озвучивание: Оригинальное iTunes--Файл
Формат: MKV
Качество: WEB-DL 1080p
Видео: AVC, 5286 Kb/s, 1920x1080
Аудио: AAC, 2 ch, 160 Kb/s
Субтитры: Нет
Дополнительно: Сохранены оригинальные чаптеры.--

Тех.данные видеофайла

Video
ID: 1
Format: AVC
Format/Info: Advanced Video Codec
Format profile: High@L4
Format settings: CABAC / 4 Ref Frames
Format settings, CABAC: Yes
Format settings, Reference: 4 frames
Codec ID: V_MPEG4/ISO/AVC
Duration: 1 h 22 min
Width: 1 920 pixels
Height: 1 080 pixels
Display aspect ratio: 16:9
Frame rate mode: Constant
Frame rate: 25.000 FPS
Color space: YUV
Chroma subsampling: 4:2:0
Bit depth: 8 bits
Scan type: Progressive
Title: VREMYA_ZHENSH4IN_2018_WEB-DL_1080p-BLUEBIRD
Language: English
Default: Yes
Forced: No
Color range: Limited
Color primaries: BT.709
Transfer characteristics: BT.709
Matrix coefficients: BT.709
Audio
ID: 2
Format: AAC LC
Format/Info: Advanced Audio Codec Low Complexity
Codec ID: A_AAC-2
Duration: 1 h 22 min
Channel(s): 2 channels
Channel layout: L R
Sampling rate: 48.0 kHz
Frame rate: 46.875 FPS (1024 SPF)
Compression mode: Lossy
Title: [ORIGINAL] AAC 2.0 @ 160 kbps
Language: Russian
Default: Yes
Forced: No
Menu
00:00:00.000: en:Глава 1
00:04:03.120: en:Глава 2
00:12:39.279: en:Глава 3
00:18:16.679: en:Глава 4
00:23:30.719: en:Глава 5
00:28:07.999: en:Глава 6
00:29:54.519: en:Глава 7
00:34:57.279: en:Глава 8
00:43:26.679: en:Глава 9
00:49:02.079: en:Глава 10
00:54:44.639: en:Глава 11
00:56:57.599: en:Глава 12
01:00:30.679: en:Глава 13
01:06:06.079: en:Глава 14
01:11:58.919: en:Глава 15
01:20:36.359: en:Глава 16

Скриншоты

       

Орлов Владимир

Post 05-Dec-2019 23:31

[Quote]

--Время женщин--
Информация о фильме
Оригинальное название: Время женщин
Год выхода: 2018
Жанр: мелодрама
Режиссер: Андрей Троицкий, Владимир Мирзоев, Инна Щербань--В ролях: Полина Ауг, Макар Запорожский, Евгений Цыганов, Евгения Соляных, Надежда Игошина, Анна Нахапетова, Денис Клявер--О фильме: Мира — деревенская девушка — загадывает жениха. Вскоре в их доме на ночлег остается офицер, а через время выясняется, что девушка беременна. Перед Мирой встает вопрос — считать это случаем или судьбой, сохранить или уничтожить ребенка. Русская смерть — Валя мечтала жить в Венеции, продала московскую квартиру, уехала. Младшая, Надежда, осталась одна, на даче. Через пару лет, разочаровавшись в Венеции, Валя вернулась. Теперь, «так по-чеховски», обе сестры живут в доме с мезонином, это одиночество вдвоем. Они застряли между прошлым и будущим. За воротами — пугающая и непонятная повседневность, в которую «каждый раз выходишь, как в Одиссею». Однажды в доме появляется Алексей — зрелый мужчина с интеллигентным лицом. Его подцепила Надя, но и Валентине он нравится. Классический любовный треугольник? Нет, у наших сестер на Алексея совсем другие планы… Вера, балерина Большого театра вышла на пенсию. Протанцевав в кордебалете 20 лет, так и не успела создать семью, не родила ребенка. Чтобы на что-то жить устроилась в отель преподавать йогу. Поклонников было много, но она влюбилась в женатого и не совсем порядочного мужчину. Каждый день Верки похож на предыдущий. Так бы и жила, если бы однажды в их город не приехал экспериментальный испанский театр «Фламенко» с балетом «Кармен».-- --Выпущено: Россия / Vega Film
Продолжительность: 01:22:16
Озвучивание: Оригинальное iTunes--Файл
Формат: AVI (XviD)
Качество: WEB-DLRip
Видео: 2175 Kb/s, 720x304
Аудио: AC3, 2 ch, 192 Kb/s--

Скриншоты

           

kilmister777

Post 24-Nov-2019 12:03

[Quote]

Пришелец- Год выпуска: 2018
Страна: Россия
Жанр: приключения, фантастика, драма
Продолжительность: 01:30:22
Перевод: Не требуется- -Режиссер: Александр Куликов-В ролях: Андрей Смоляков, Юрий Цурило, Григорий Сиятвинда, Максим Виторган, Александр Куликов, Анна Банщикова, Евгения Шипова-Описание: В результате цепи трагических случайностей на далекой планете в одиночестве оказывается космонавт. Его жизнь находится в постоянной опасности. Нечто необъяснимое, вступившее с ним в контакт, навсегда изменит его. С этой минуты он станет потерянным и для себя и для людей. И сколько раз ему придется умереть, чтобы доказать, что он жив...-Качество: BDRip
Формат: AVI
Видео кодек: XviD
Аудио кодек: AC3
Видео: 720x304 (2.37:1), 24 fps, XviD build 73 ~1856 kbps avg, 0.35 bit/pixel
Аудио: 48 kHz, AC3 Dolby Digital, 3/2 (L,C,R,l,r) + LFE ch, ~448 kbps-

Скриншоты

       

Clavik

Post 02-Oct-2019 09:40

[Quote]

Хорошее убийство / Good kill (2014) BDRip [H.264/720p]- Производство: США / Voltage Pictures, Dune Films, Sobini Films
Жанр: Драма, военный
Режиссер: Эндрю Никкол
Актеры: Итан Хоук, Брюс Гринвуд, Зои Кравиц, Джейк Эйбел, Дженьюэри Джонс, Фатима Эль-Бахрауй, Эль-Хттаби Абделуахаб, Райан Монтано, Дилан Кенин, Стэффорд Дуглас
Описание:
Томас Эган — боевой пилот из Лас-Вегаса, которому доверяют управление беспилотным самолётом, бороздящим небо над Афганистаном. Двенадцать часов в день он сражается с силами Талибана, а потом едет в свой дом в тихом американском пригороде, где бой продолжается — с женой и собственными детьми. В какой-то момент героя перестаёт устраивать образ врага, и в голове возникает вопрос: является ли его боевой долг борьбой с терроризмом либо же убийства только увеличивают количество и силы противника.
Эган — солдат, он должен выполнять приказ, даже если этот приказ кажется ему неправильным. Но где та грань, переступив которую, ты сам станешь ничем не лучше террориста?

Возраст: 16+ (зрителям, достигшим 16 лет)
Рейтинг MPAA: R (лицам до 17 лет обязательно присутствие взрослого)
Продолжительность: 01:42:48
Качество видео: BDRip
Перевод: Многоголосый
Субтитры: отсутствуют
Видео: AVC/H.264, 1280x536, ~6200 kbps
Аудио 1: DTS, 6 ch, 768 kbps | Русский - MVO
Аудио 2: AC3, 6 ch, 448 kbps | Русский – MVO (НТВ+)
Аудио 3: AC3, 6 ch, 448 kbps | Английский (Оригинал)

MediaInfo:

Общее
Уникальный идентификатор : 203299958992685445502496073750007263942 (0x98F225DAEAF6F4368DC5CA850ACC32C6)
Полное имя : F:\-\Хорошее убийство\Хорошее убийство. 2014 BDRip 720p.mkv
Формат : Matroska
Версия формата : Version 4 / Version 2
Размер файла : 5,64 Гбайт
Продолжительность : 1 ч. 42 м.
Общий поток : 7854 Кбит/сек
Название фильма : Release for Topmost
Дата кодирования : UTC 2019-10-01 15:34:54
Программа кодирования : mkvmerge v6.2.0 ('Promised Land') built on Apr 28 2013 12:22:01
Библиотека кодирования : libebml v1.3.0 + libmatroska v1.4.0
Attachment : Yes
Видео
Идентификатор : 1
Формат : AVC
Формат/Информация : Advanced Video Codec
Профиль формата : [url=mailto:High@L4.1]High@L4.1[/url]
Параметр CABAC формата : Да
Параметр ReFrames формата : 12 кадров
Идентификатор кодека : V_MPEG4/ISO/AVC
Продолжительность : 1 ч. 42 м.
Битрейт : 6200 Кбит/сек
Ширина : 1280 пикселей
Высота : 536 пикселей
Соотношение сторон : 2,40:1
Режим частоты кадров : Постоянный
Частота кадров : 23,976 кадра/сек
Цветовое пространство : YUV
Субдискретизация насыщенности : 4:2:0
Битовая глубина : 8 бит
Тип развёртки : Прогрессивная
Бит/(Пиксели*Кадры) : 0.377
Размер потока : 4,33 Гбайт (77%)
Заголовок : Хорошее убийство. 2014 BDRip 720p (Release for Topmost)
Библиотека кодирования : x264 core 146 r2538 121396c
Настройки программы : cabac=1 / ref=12 / deblock=1:-3:-3 / analyse=0x3:0x113 / me=umh / subme=11 / psy=1 / psy_rd=1.00:0.15 / mixed_ref=1 / me_range=32 / chroma_me=1 / trellis=2 / 8x8dct=1 / cqm=0 / deadzone=21,11 / fast_pskip=0 / chroma_qp_offset=-3 / threads=12 / lookahead_threads=2 / sliced_threads=0 / nr=0 / decimate=0 / interlaced=0 / bluray_compat=0 / constrained_intra=0 / bframes=8 / b_pyramid=2 / b_adapt=2 / b_bias=0 / direct=1 / weightb=1 / open_gop=0 / weightp=2 / keyint=240 / keyint_min=23 / scenecut=40 / intra_refresh=0 / rc_lookahead=40 / rc=2pass / mbtree=0 / bitrate=6200 / ratetol=1.0 / qcomp=0.60 / qpmin=0 / qpmax=69 / qpstep=4 / cplxblur=20.0 / qblur=0.5 / vbv_maxrate=14000 / vbv_bufsize=14000 / nal_hrd=none / filler=0 / ip_ratio=1.40 / pb_ratio=1.30 / aq=1:0.90
Язык : English
Default : Да
Forced : Нет
Аудио #1
Идентификатор : 2
Формат : DTS
Формат/Информация : Digital Theater Systems
Режим : 16
Параметр Endianness формата : Big
Идентификатор кодека : A_DTS
Продолжительность : 1 ч. 42 м.
Вид битрейта : Постоянный
Битрейт : 768 Кбит/сек
Каналы : 6 каналов
Расположение каналов : Front: L C R, Side: L R, LFE
Частота : 48,0 КГц
Битовая глубина : 16 бит
Метод сжатия : С потерями
Размер потока : 565 Мбайт (10%)
Заголовок : DTS. 6 ch, 755 kbps - многоголосый закадровый - iTunes
Язык : Russian
Default : Да
Forced : Нет
Аудио #2
Идентификатор : 3
Формат : AC-3
Формат/Информация : Audio Coding 3
Расширение режима : CM (complete main)
Параметр Endianness формата : Big
Идентификатор кодека : A_AC3
Продолжительность : 1 ч. 42 м.
Вид битрейта : Постоянный
Битрейт : 448 Кбит/сек
Каналы : 6 каналов
Расположение каналов : Front: L C R, Side: L R, LFE
Частота : 48,0 КГц
Битовая глубина : 16 бит
Метод сжатия : С потерями
Размер потока : 329 Мбайт (6%)
Заголовок : AC3, 448 Kbps, 6 channels (ногоголосый, закадровый | НТВ+ |)
Язык : Russian
Default : Нет
Forced : Нет
Аудио #3
Идентификатор : 4
Формат : AC-3
Формат/Информация : Audio Coding 3
Расширение режима : CM (complete main)
Параметр Endianness формата : Big
Идентификатор кодека : A_AC3
Продолжительность : 1 ч. 42 м.
Вид битрейта : Постоянный
Битрейт : 448 Кбит/сек
Каналы : 6 каналов
Расположение каналов : Front: L C R, Side: L R, LFE
Частота : 48,0 КГц
Битовая глубина : 16 бит
Метод сжатия : С потерями
Размер потока : 329 Мбайт (6%)
Заголовок : AC3, 448 Kbps, 6 channels - Оriginal
Язык : English
Default : Нет
Forced : Нет
Скриншоты:
       

kilmister777

Post 23-Sep-2019 12:22

[Quote]

Сдаётся дом со всеми неудобствами- Год выпуска: 2016
Страна: Россия
Жанр: комедия
Продолжительность: 01:26:10
Перевод: Не требуется- -Режиссер: Вера Сторожева-В ролях: Виктория Исакова, Ирина Пегова, Светлана Ходченкова, Нина Дворжецкая, Владимир Вдовиченков, Дарья Урсуляк, Ника Анаскина, Полина Симачёва, Яша Киселевич, Артём Казьмин-Описание: Предприимчивый маклер сдал домик у моря сразу нескольким семьям. Так волей случая в одном «ковчеге» вынуждены «плыть по волнам жизни» несколько совершенно разных женщин с детьми. После клубка эксцентричных, смешных и не очень поступков, событий, выяснений отношений, казалось, они поймут друг друга, но появление вернувшегося из плавания хозяина дома, и не подозревающего о том, что его друг, которому он дал ключи от домика, сдал его, нарушает уже почти возникшую чеховскую атмосферу.-Качество: WEB-DLRip
Формат: AVI
Видео кодек: XviD
Аудио кодек: AC3
Видео: 720x304 (2.37:1), 24.000 fps, XviD build 73 ~2040 kbps avg, 0.36 bit/pixel
Аудио: 48 kHz, AC3 Dolby Digital, 2/0 (L,R) ch, ~192 kbps-

Скриншоты

     

Орлов Владимир

Post 19-Sep-2019 16:56

[Quote]

--Бык (Борис Акопов) [2019,Драма, WEB-DLRip 720p] [RUS] [iTunes]-- Информация о фильме
Название: Бык
Год выпуска: 2019
Жанр: Драма
Режиссер: Борис Акопов--В ролях: Юрий Борисов, Стася Милославская, Афина Кондрашова, Егор Кенжаметов, Александр Самсонов, Игорь Савочкин, Алексей Филимонов, Сергей Двойников, Александр Левин, Роман Колотухин--О фильме:
90-е годы. Экономическая пропасть и криминальные драмы, разворачивающиеся буквально на каждом углу. Молодой лидер преступной группировки Антон Быков по прозвищу «Бык» вынужден зарабатывать любыми способами, чтобы обеспечить свою семью. После районной «стрелки» Антон попадает в отделение милиции, откуда его вызволяет один из московских авторитетов. Взамен он просит героя о маленькой, но опасной услуге.-- --Страна: Россия
Студия: ООО «Шарк»
Продолжительность: 01:39:26
Перевод: Не требуется [iTunes]--Файл
Формат: MKV
Качество: WEB-DLRip 720p
Видео: MPEG-4 AVC, 3878 Кбит/с, 1280x476
Аудио: AC3, 6 ch, 384 Кбит/с
Субтитры: Нет
--

Скриншоты

       

Орлов Владимир

Post 19-Sep-2019 13:58

[Quote]

--Бык (Борис Акопов) [2019,Драма, WEB-DL 1080p] [RUS] [iTunes]-- Информация о фильме
Название: Бык
Год выпуска: 2019
Жанр: Драма
Режиссер: Борис Акопов--В ролях: Юрий Борисов, Стася Милославская, Афина Кондрашова, Егор Кенжаметов, Александр Самсонов, Игорь Савочкин, Алексей Филимонов, Сергей Двойников, Александр Левин, Роман Колотухин--О фильме:
90-е годы. Экономическая пропасть и криминальные драмы, разворачивающиеся буквально на каждом углу. Молодой лидер преступной группировки Антон Быков по прозвищу «Бык» вынужден зарабатывать любыми способами, чтобы обеспечить свою семью. После районной «стрелки» Антон попадает в отделение милиции, откуда его вызволяет один из московских авторитетов. Взамен он просит героя о маленькой, но опасной услуге.-- --Страна: Россия
Студия: ООО «Шарк»
Продолжительность: 01:39:26
Перевод: Не требуется | [iTunes]--Файл
Формат: MKV
Качество: WEB-DL (1080p)
Видео: MPEG-4 AVC, 4554 Кбит/с, 1912x712
Аудио: AC3, 6 ch, 384 Кбит/с
Субтитры: Нет
--

Скриншоты

       

Орлов Владимир

Post 19-Sep-2019 13:53

[Quote]

--Бык (Борис Акопов) [2019,Драма, WEB-DLRip] [RUS] [iTunes]-- Информация о фильме
Название: Бык
Год выпуска: 2019
Жанр: Драма
Режиссер: Борис Акопов--В ролях: Юрий Борисов, Стася Милославская, Афина Кондрашова, Егор Кенжаметов, Александр Самсонов, Игорь Савочкин, Алексей Филимонов, Сергей Двойников, Александр Левин, Роман Колотухин--О фильме:
90-е годы. Экономическая пропасть и криминальные драмы, разворачивающиеся буквально на каждом углу. Молодой лидер преступной группировки Антон Быков по прозвищу «Бык» вынужден зарабатывать любыми способами, чтобы обеспечить свою семью. После районной «стрелки» Антон попадает в отделение милиции, откуда его вызволяет один из московских авторитетов. Взамен он просит героя о маленькой, но опасной услуге.-- --Страна: Россия
Студия: ООО «Шарк»
Продолжительность: 01:39:26
Перевод: Не требуется | iTunes--Файл
Формат: AVI
Качество: WEB-DLRip
Видео: 720x272 (2.65:1), 23.976 fps, XviD build 50 ~876 kbps avg, 0.19 bit/pixel
Звук: 48 kHz, MPEG Layer 3, 2 ch, ~128.00 kbps avg
Субтитры: Нет--

Тех.данные видеофайла

Общее
Полное имя: C:\BykWEBDLRip.740.mb.avi
Формат: AVI
Формат/Информация: Audio Video Interleave
Размер файла: 721 Мбайт
Продолжительность: 1 ч. 39 м.
Общий поток: 1014 Кбит/сек
Программа кодирования: VirtualDubMod 1.5.10.3 | (build 2550/release)
Библиотека кодирования: VirtualDubMod build 2550/release
Видео
Идентификатор: 0
Формат: MPEG-4 Visual
Профиль формата: Advanced Simple@L5
Параметр BVOP формата: 1
Параметр QPel формата: Нет
Параметр GMC формата: Без точки перехода
Параметр матрицы формата: Default (H.263)
Идентификатор кодека: XVID
Идентификатор кодека/Подсказка: XviD
Продолжительность: 1 ч. 39 м.
Битрейт: 877 Кбит/сек
Ширина: 720 пикселей
Высота: 272 пикселя
Соотношение сторон: 2,647
Частота кадров: 23,976 кадра/сек
Цветовое пространство: YUV
Субдискретизация насыщенности: 4:2:0
Битовая глубина: 8 бит
Тип развёртки: Прогрессивная
Метод сжатия: С потерями
Бит/(Пиксели*Кадры): 0.187
Размер потока: 624 Мбайт (86%)
Библиотека кодирования: XviD 1.2.1 (UTC 2008-12-04)
Аудио
Идентификатор: 1
Формат: MPEG Audio
Версия формата: Version 1
Профиль формата: Layer 3
Идентификатор кодека: 55
Идентификатор кодека/Подсказка: MP3
Продолжительность: 1 ч. 39 м.
Вид битрейта: Постоянный
Битрейт: 128 Кбит/сек
Каналы: 2 канала
Частота: 48,0 КГц
Метод сжатия: С потерями
Размер потока: 91,0 Мбайт (13%)
Выравнивание: Соединение по промежуткам
Продолжительность промежутка: 42 мс. (1,00 видеокадр)
Время предзагрузки промежутка: 504 мс.
Библиотека кодирования: LAME3.99r
Настройки программы: -m s -V 4 -q 2 -lowpass 17 -b 128

Скриншоты

       
 

The time now is: Today 03:01

All times are GMT + 3 Hours