Today is a free download without charge Download

Search found 500 matches

Author Message

Ceferino

Post Yesterday 00:49

[Quote]

Gracias

Clavik

Post 04-Jul-2020 21:27

[Quote]

ITVDN | Frontend Developer (2015-2020) PCRec - Автор (режиссер): ITVDN
Производство: ITVDN
Жанр: Программирование, Frontend Developer
Дополнительные материалы: Имеются
Описание:
Если вы в душе дизайнер, но любите программирование и верите, что будущее за internet-технологиями, для вас интересной будет специальность Frontend-разработчика, так как она требует некоторых творческих способностей и глубокой практической подготовки по web-программированию.

Продолжение описания:

С помощью языка разметки страниц HTML и каскадных таблиц стилей (СSS), вы сможете создавать дизайн web-приложений, интерфейсы сайтов, подавать информацию в привлекательном виде, приятном и удобном для пользователей. На Frontend-разработчика также ложится часть ответственности за рейтинг разрабатываемого сайта, так как чем понятней будет интерфейс, чем более подходящим способом будут структурированы данные, тем больше времени пользователь уделит сайту. В данном случае разработчику просто необходимо разбираться в дизайне и теории цветов, чтобы сайт не выглядел слишком угрюмо, но и не подавлял яркостью цветов и огромным размером символов.
Знания CSS и HTML помогут разработчику сделать красивую статическую страницу, но при работе с сайтом пользователям необходимо взаимодействовать с информацией. Поэтому разработчик должен знать скриптовый язык программирования JavaScript, который делает web-страницы функциональными и интерактивными. Также применение JavaScript способствует корректному отображению страниц на устройстве пользователя, так как некоторые браузеры понимают стандарты CSS и HTML по-разному. Багаж знаний Frontend-разработчика включает также знания библиотеки JavaScript - jQuery, которая необходима для взаимодействия JavaScript и HTML. Данная библиотека используется для работы с AJAX, еще одной технологии для разработки web-интерфейсов. Технологии AJAX выполняют взаимодействие клиентской части с серверной стороной. С использованием данных средств работа приложений стает быстрее и динамичней.
Разработчик не может быть уверен, что созданный им сайт будет выглядеть также красиво и упорядочено, как на своем браузере, поэтому Frontend-разработчикам надо знать кроссбраузерную верстку, которая воспроизводит интерфейс сайтов одинаково в наиболее популярных браузерах, что придерживаются необходимых стандартов, и адаптивную верстку, которая позволяет выполнять работу сайта на разных устройствах: планшете, смартфоне, ноутбуке и т.д.
Такой большой перечень требований оправдан, так как специалист в этом направлении может получать от 500$ до 2500$ в зависимости от уровня знаний и опыта работы. На данный момент рынок труда заинтересован в специалистах такого плана и в будущем спрос на них будет только расти, ведь использование интернета, интернет-технологий за последние десять лет выросли практически в геометрической прогрессии. Почти каждая фирма, организации, предприятие имеют свой сайт и нуждаются в специалистах обеспечивающих работу этих сайтов. Существует множество интернет-компаний, IT-компаний, где Frontend-разработчик может применить свои знания.
Если вы целеустремленны, инициативны и ответственны, можете работать в команде, человек с творческими способностями и критическим мышлением, любите изучать новые технологии и пытаете интерес к разработке сайтов, вам не составит труда добиться успеха в данной области.
Требования к Frontend разработчику:
Знание HTML, CSS
Знание языка программирования JavaScript
Опыт работы в HTML5, CSS3
Хорошее понимание JS фрeймворков (Angular2/jQuery/ReactJS/Node.js)
Знакомство с MVC/MVVM design patterns
Умение анализировать, изучать, осваивать и применять новые технологии
Английский язык на уровне не ниже Intermediate
JavaScript/FrontEnd разработчик может занимать такие должности:
Web разработчик FrontEnd Developer
Junior/Middle/Senior JavaScript Developer
Node.js/ReactJS JavaScript Developer
Frontend Engineer
Frontend Software Engineer
Full Stack JavaScript Developer
JavaScript Team Lead
Продолжительность: 185:14:00
Качество видео: PCRec
Язык озвучки: Русский
Видео: AVC/H.264, 1920х1080, 1280х720, ~545 Kbps
Аудио: AAC, 2 ch, 256 Kbps

MediaInfo:

Полное имя                               : D:\FRONTEND DEVELOPER\Angular Advanced\Angular Advanced Lesson 2.mp4
Формат : MPEG-4
Профиль формата : Base Media / Version 2
Идентификатор кодека : mp42 (mp42/mp41/isom/avc1)
Размер файла : 300 Мбайт
Продолжительность : 51 м. 58 с.
Режим общего битрейта : Переменный
Общий поток : 806 Кбит/сек
Дата кодирования : UTC 2017-12-19 13:53:34
Дата пометки : UTC 2017-12-19 13:53:34
Идентификатор : 1
Формат : AVC
Формат/Информация : Advanced Video Codec
Профиль формата : High@L4
Настройки формата : CABAC / 4 Ref Frames
Параметр CABAC формата : Да
Параметр RefFrames формата : 4 кадра
Идентификатор кодека : avc1
Идентификатор кодека/Информация : Advanced Video Coding
Продолжительность : 51 м. 58 с.
Битрейт : 545 Кбит/сек
Ширина : 1 920 пикселей
Высота : 1 080 пикселей
Соотношение сторон : 16:9
Режим частоты кадров : Постоянный
Частота кадров : 30,000 кадров/сек
Цветовое пространство : YUV
Субдискретизация насыщенности : 4:2:0
Битовая глубина : 8 бит
Тип развёртки : Прогрессивная
Бит/(Пиксели*Кадры) : 0.009
Размер потока : 203 Мбайт (68%)
Библиотека кодирования : x264 core 152 r10 ba24899
Настройки программы : cabac=1 / ref=4 / deblock=1:0:0 / analyse=0x3:0x113 / me=hex / subme=8 / psy=1 / psy_rd=1.00:0.00 / mixed_ref=1 / me_range=16 / chroma_me=1 / trellis=2 / 8x8dct=1 / cqm=0 / deadzone=21,11 / fast_pskip=1 / chroma_qp_offset=-2 / threads=34 / lookahead_threads=5 / sliced_threads=0 / nr=0 / decimate=1 / interlaced=0 / bluray_compat=0 / stitchable=1 / constrained_intra=0 / bframes=3 / b_pyramid=2 / b_adapt=2 / b_bias=0 / direct=3 / weightb=1 / open_gop=0 / weightp=2 / keyint=infinite / keyint_min=30 / scenecut=40 / intra_refresh=0 / rc_lookahead=50 / rc=crf / mbtree=1 / crf=20.0 / qcomp=0.60 / qpmin=5 / qpmax=69 / qpstep=4 / vbv_maxrate=5500 / vbv_bufsize=15000 / crf_max=0.0 / nal_hrd=none / filler=0 / ip_ratio=1.40 / aq=1:1.00
Дата кодирования : UTC 2017-12-19 13:53:34
Дата пометки : UTC 2017-12-19 13:53:34
Цветовой диапазон : Limited
Основные цвета : BT.709
Характеристики трансфера : BT.709
Коэффициенты матрицы : BT.709
Codec configuration box : avcC
Идентификатор : 2
Формат : AAC LC
Формат/Информация : Advanced Audio Codec Low Complexity
Идентификатор кодека : mp4a-40-2
Продолжительность : 51 м. 58 с.
Вид битрейта : Переменный
Битрейт : 256 Кбит/сек
Каналы : 2 канала
Channel layout : L R
Частота : 48,0 КГц
Частота кадров : 46,875 кадров/сек (1024 SPF)
Метод сжатия : С потерями
Размер потока : 95,2 Мбайт (32%)
Дата кодирования : UTC 2017-12-19 13:53:34
Дата пометки : UTC 2017-12-19 13:53:34
Скриншоты:
       

Clavik

Post 04-Jul-2020 21:25

[Quote]

Udemy | Полный курс по JavaScript + React - с нуля до результата (2020) PCRec [H.264/720p-LQ] - Автор (режиссер): Иван Петриченко
Производство: Udemy
Жанр: Программирование, JavaScript, React
Описание:
Этот курс направлен на подробное изучение JavaScript без воды, но главное - немедленное применение его на практике.
Это значит, что вы получите материал для работы и мы вместе будем создавать реальные проекты шаг за шагом.
Вторая часть курса - это изучение самой популярной библиотеки на основе JavaScript - React.js со всеми необходимыми технологиями (в том числе и Redux)
Продолжительность: 55:55:35
Качество видео: PCRec
Видео: AVC/H.264, 1280x720, ~857-1791 Kbps
Аудио: AAC, 2 ch, 127-128 Kbps

Mediainfo:

Общее
Полное имя : .\02 Основы JavaScript\014 Объектно Ориентированное Программирование (ООП)\014 Объектно Ориентированное Программирование (ООП).mp4
Формат : MPEG-4
Профиль формата : Base Media
Идентификатор кодека : isom (isom/iso2/avc1/mp41)
Размер файла : 59,2 Мбайт
Продолжительность : 6 м. 20 с.
Общий поток : 1306 Кбит/сек
Программа кодирования : Lavf58.12.100
Видео
Идентификатор : 1
Формат : AVC
Формат/Информация : Advanced Video Codec
Профиль формата : [url=mailto:Main@L3.1]Main@L3.1[/url]
Настройки формата : CABAC / 4 Ref Frames
Параметр CABAC формата : Да
Параметр RefFrames формата : 4 кадра
Параметр GOP формата : M=4, N=60
Идентификатор кодека : avc1
Идентификатор кодека/Информация : Advanced Video Coding
Продолжительность : 6 м. 20 с.
Битрейт : 1169 Кбит/сек
Номинальный битрейт : 3000 Кбит/сек
Ширина : 1280 пикселей
Высота : 720 пикселей
Соотношение сторон : 16:9
Режим частоты кадров : Постоянный
Частота кадров : 30,000 кадров/сек
Цветовое пространство : YUV
Субдискретизация насыщенности : 4:2:0
Битовая глубина : 8 бит
Тип развёртки : Прогрессивная
Бит/(Пиксели*Кадры) : 0.042
Размер потока : 53,0 Мбайт (90%)
Библиотека кодирования : x264 core 148
Настройки программы : cabac=1 / ref=3 / deblock=1:-1:-1 / analyse=0x1:0x111 / me=umh / subme=6 / psy=1 / psy_rd=1.00:0.15 / mixed_ref=1 / me_range=16 / chroma_me=1 / trellis=1 / 8x8dct=0 / cqm=0 / deadzone=21,11 / fast_pskip=1 / chroma_qp_offset=-3 / threads=22 / lookahead_threads=3 / sliced_threads=0 / nr=0 / decimate=1 / interlaced=0 / bluray_compat=0 / constrained_intra=0 / bframes=3 / b_pyramid=2 / b_adapt=1 / b_bias=0 / direct=1 / weightb=1 / open_gop=0 / weightp=2 / keyint=60 / keyint_min=6 / scenecut=0 / intra_refresh=0 / rc_lookahead=60 / rc=cbr / mbtree=1 / bitrate=3000 / ratetol=1.0 / qcomp=0.60 / qpmin=0 / qpmax=69 / qpstep=4 / vbv_maxrate=3000 / vbv_bufsize=6000 / nal_hrd=none / filler=0 / ip_ratio=1.40 / aq=1:1.00
Codec configuration box : avcC
Аудио
Идентификатор : 2
Формат : AAC LC
Формат/Информация : Advanced Audio Codec Low Complexity
Идентификатор кодека : mp4a-40-2
Продолжительность : 6 м. 20 с.
Вид битрейта : Постоянный
Битрейт : 128 Кбит/сек
Каналы : 2 канала
Channel layout : L R
Частота : 48,0 КГц
Частота кадров : 46,875 кадров/сек (1024 SPF)
Метод сжатия : С потерями
Размер потока : 5,81 Мбайт (10%)
Default : Да
AlternateGroup/String : 1

Дополнительная информация:

В раздаче имеются архивы! В них содержится дополнительные материалы.

История обновлений:

25.03.2020 торрент файл обновлен
01 Подготовка к работе (новые файлы раздела)
./external-assets-links.txt
./000 Как проходить данный курс/000 Как проходить данный курс.mp4
./000 Как проходить данный курс/JS_task_answers-master.zip
02 Основы JavaScript/ (новые файлы раздела)
./external-assets-links.txt
./004 Классификация типов данных в JavaScript/004.1 Динамическая типизация в JS.mp4
./004 Классификация типов данных в JavaScript/4.2 classification.jpg
./007 Учимся работать с системой контроля версий Git и с сервисом GitHub/007.1 Как работать с GitHub с разных компьютеров, gitignore и Git Kraken.mp4
./016 Получение элементов со страницы/16 style.css
./018 События и их обработчики/018.1 Бонус. События на мобильных устройствах и основы регулярных выражений.mp4
03 JavaScript в работе (новые файлы раздела)
./external-assets-links.txt
./019 Скрипты и время их выполнения. setTimeout и setInterval/19.6 index.html
./019 Скрипты и время их выполнения. setTimeout и setInterval/19.7 style.css
04 Продвинутый JavaScript (новые файлы раздела)
./external-assets-links.txt
./029.1 Локальные сервера/029.1 Локальные сервера.mp4
05 Бонус. Дополнительные технологии (удален на сайте, но в раздаче оставил)
06 Библиотека React. Базовый уровень (новый раздел)
07 Библиотека React. Средний уровень (новый раздел)
08 React + Redux (новый раздел)
21.06.2020 торрент файл обновлен
02 Основы JavaScript (обновлен раздел полностью)
03 JavaScript в работе (обновлен раздел полностью)
04 Продвинутый JavaScript (обновлен раздел полностью)
08 (Бонус из Практического курса) Реальный проект на JS в классическом стиле (новый раздел)
09 Бонус. Дополнительные технологии (удален на сайте) (изменено имя папки)
10 Основы JavaScript (Старая версия) (удален на сайте, но в раздаче оставил)
11 JavaScript в работе (Старая версия) (удален на сайте, но в раздаче оставил)
12 Продвинутый JavaScript (Старая версия) (удален на сайте, но в раздаче оставил)

Раздача ведётся путём добавления новых файлов:

Раздача ведётся путём добавления новых файлов; при каждом добавлении создаётся новый торрент. Чтобы начать докачку новых файлов, пользователям необходимо сделать следующее:
(1) остановить скачивание,
(2) удалить старый торрент у себя из клиента (имеющиеся файлы удалять не надо),
(3) скачать новый торрент и запустить его у себя в клиенте вместо старого, при этом указать клиенту путь в старую папку, куда и должно происходить скачивание новых файлов.
Ваш клиент при этом должен произвести хеширование (проверку) старой папки (если не производит сам - помогите ему сделать это), и будет докачивать только те файлы, которых у вас ещё нет. Старые файлы при этом не удаляются, а продолжают раздаваться!
Eсли вы уже удалили старые файлы, то предотвратить повторную закачку старых файлов можно, отжав галочку в соответствующих местах при запуске нового торрента. По возможности, желательно не удалять старые файлы как можно дольше, чтобы релизёр не только продолжал раздавать старые файлы, а смог сконцентрироваться на новых.
Скриншоты:
       

Clavik

Post 04-Jul-2020 21:24

[Quote]

Skillbox | Профессия разработчик игр на Unity (2020) PCRec - Автор: Skillbox
Производство: Михаил Овчинников, Сергей Камянецкий и др.
Жанр: Программирование, Unity, разработка игр
Описание:
Курс состоит из четырех основных блоков: ведение в С#, основы создания игр на Unity, углубление в Unity, разработка полного цикла. Первый блок посвящен освоению азов программирования на C#, а уже со второго блока вы начнете создавать свои первые игры. После обучения вам уже будет, что показать на собеседовании.
Продолжительность: 49:12:36
Качество видео: PCRec
Видео: AVC/H.264, 1152x720, ~271 Kbps
Аудио: AAC, 2 ch, 126 Kbps

MediaInfo:

Общее
Полное имя : [Skillbox] Профессия разработчик игр на Unity (2020)\02 Базовые возможности C#\2.2 Форматированный вывод\2.2 Форматированный вывод.mp4
Формат : MPEG-4
Профиль формата : Base Media / Version 2
Идентификатор кодека : mp42 (isom/mp42)
Размер файла : 43,1 Мбайт
Продолжительность : 15 м. 5 с.
Режим общего битрейта : Переменный
Общий поток : 400 Кбит/сек
Дата кодирования : UTC 2019-12-24 22:59:36
Дата пометки : UTC 2019-12-24 22:59:36
Видео
Идентификатор : 1
Формат : AVC
Формат/Информация : Advanced Video Codec
Профиль формата : [url=mailto:Main@L4.1]Main@L4.1[/url]
Настройки формата : CABAC / 4 Ref Frames
Параметр CABAC формата : Да
Параметр RefFrames формата : 4 кадра
Идентификатор кодека : avc1
Идентификатор кодека/Информация : Advanced Video Coding
Продолжительность : 15 м. 5 с.
Битрейт : 271 Кбит/сек
Ширина : 1 152 пикселя
Высота : 720 пикселей
Соотношение сторон : 16:10
Режим частоты кадров : Постоянный
Частота кадров : 30,000 кадров/сек
Стандарт вещания : NTSC
Цветовое пространство : YUV
Субдискретизация насыщенности : 4:2:0
Битовая глубина : 8 бит
Тип развёртки : Прогрессивная
Бит/(Пиксели*Кадры) : 0.011
Размер потока : 29,3 Мбайт (68%)
Язык : English
Дата кодирования : UTC 2019-12-24 22:59:36
Дата пометки : UTC 2019-12-24 22:59:36
Цветовой диапазон : Limited
Codec configuration box : avcC
Аудио
Идентификатор : 2
Формат : AAC LC
Формат/Информация : Advanced Audio Codec Low Complexity
Идентификатор кодека : mp4a-40-2
Продолжительность : 15 м. 5 с.
Вид битрейта : Переменный
Битрейт : 126 Кбит/сек
Максимальный битрейт : 372 Кбит/сек
Каналы : 2 канала
Channel layout : L R
Частота : 44,1 КГц
Частота кадров : 43,066 кадра/сек (1024 SPF)
Метод сжатия : С потерями
Размер потока : 13,6 Мбайт (31%)
Язык : English
Дата кодирования : UTC 2019-12-24 22:59:36
Дата пометки : UTC 2019-12-24 22:59:36

Подробная информация о курсе:

https://skillbox.ru/course/profession-gamedev/

Дополнительная информация:

В раздаче находятся архивы с примерами кода
Скриншоты:
       

Clavik

Post 04-Jul-2020 21:22

[Quote]

Ася Жгилева | Курс по созданию игр для Stories [H.264/1080p-LQ] (2020) PCRec - Автор: Ася Жгилева
Жанр: Создание и дизайн игры
Описание:
Научись создавать игры для Инстаграм Stories на телефоне или компьютере
- Увеличь продажи, охваты и вовлеченность в своем аккаунте с помощью игр для Stories с профессиональным оформлением.
- Получи востребованную профессию и зарабатывай от 30 000 рублей в месяц на создании игр для бизнеса.
- Увеличь стоимость среднего чека в профессиях SMM специалист и дизайнер предлагая заказчикам трендовую услугу по созданию игр.
Все уроки записаны в двух вариантах, на телефоне в программах PicsArt и Inshot и на компьютере в программе Adobe Photoshop и Camtasio.
Получи курс из практических, пошаговых уроков, на основе которых ты создашь игры для Stories с профессиональным оформлением на телефоне или компьютере.
Продолжительность: 09:45:27
Качество видео: PCRec
Видео: AVC/H.264, 1920x1080, ~289 Kbps
Аудио: AAC, 2 ch, 128 Kbps

MediaInfo:

Общее
Полное имя : [Ася Жгилева] Курс по созданию игр для Stories (2020)\Game Story Maker\Урок 01. Игра Правда или ложь\Урок 01-2 Сборка и монтаж на телефоне..mp4
Формат : MPEG-4
Профиль формата : Base Media
Идентификатор кодека : isom (isom/iso2/avc1/mp41)
Размер файла : 81,7 Мбайт
Продолжительность : 27 м. 8 с.
Режим общего битрейта : Переменный
Общий поток : 421 Кбит/сек
Дата кодирования : UTC 2020-01-21 09:08:49
Дата пометки : UTC 2020-01-21 09:08:49
Видео
Идентификатор : 1
Формат : AVC
Формат/Информация : Advanced Video Codec
Профиль формата : High@L4
Настройки формата : CABAC / 3 Ref Frames
Параметр CABAC формата : Да
Параметр RefFrames формата : 3 кадра
Идентификатор кодека : avc1
Идентификатор кодека/Информация : Advanced Video Coding
Продолжительность : 27 м. 8 с.
Битрейт : 289 Кбит/сек
Ширина : 1 920 пикселей
Высота : 1 080 пикселей
Соотношение сторон : 16:9
Режим частоты кадров : Постоянный
Частота кадров : 30,000 кадров/сек
Цветовое пространство : YUV
Субдискретизация насыщенности : 4:2:0
Битовая глубина : 8 бит
Тип развёртки : Прогрессивная
Бит/(Пиксели*Кадры) : 0.005
Размер потока : 56,2 Мбайт (69%)
Заголовок : ISO Media file produced by Google Inc.
Дата кодирования : UTC 2020-01-21 09:08:49
Дата пометки : UTC 2020-01-21 09:08:49
Цветовой диапазон : Limited
Основные цвета : BT.709
Характеристики трансфера : BT.709
Коэффициенты матрицы : BT.601
Codec configuration box : avcC
Аудио
Идентификатор : 2
Формат : AAC LC
Формат/Информация : Advanced Audio Codec Low Complexity
Идентификатор кодека : mp4a-40-2
Продолжительность : 27 м. 8 с.
Вид битрейта : Переменный
Битрейт : 128 Кбит/сек
Каналы : 2 канала
Channel layout : L R
Частота : 44,1 КГц
Частота кадров : 43,066 кадра/сек (1024 SPF)
Метод сжатия : С потерями
Размер потока : 24,8 Мбайт (30%)
Заголовок : ISO Media file produced by Google Inc.
Язык : English
Default : Да
Alternate group : 1
Дата кодирования : UTC 2020-01-21 09:08:47
Дата пометки : UTC 2020-01-21 09:08:47
Скриншоты:
       

}{@R0N

Post 03-Jul-2020 12:04

[Quote]

Авиктория писал(а):
Ребят, ооочень нужен этот курс!!! Встаньте, пожалуйста, на раздачу
Если скачали, пожалуйста, не уходите с раздачи как можно дольше. Спасибо.

Авиктория

Post 02-Jul-2020 11:21

[Quote]

Ребят, ооочень нужен этот курс!!! Встаньте, пожалуйста, на раздачу

germes

Post 01-Feb-2020 19:22

[Quote]

чет мало пиров

Clavik

Post 04-Jan-2020 17:46

[Quote]

OTUS | Web-разработчик на Python (2019) PCRec [H.264] - Автор (режиссер): OTUS
Жанр: Программироание, Python
Описание:
Курс предназначен для подготовки специалиста, который сможет не только решать рядовые задачи бекенд-разработки, но и сделать с нуля современную фронтенд часть.
Продолжительность: 62:21:45
Качество видео: PCRec
Видео: AVC/H.264, 1280x720-2560x1440, ~63-495 Kbps
Аудио: AAC, 1 ch, 51-155 Kbps

MediaInfo:

Общее
Полное имя : .\дополнительные материалы\Django и методология 12 факторных приложений.mp4
Формат : MPEG-4
Профиль формата : Base Media
Идентификатор кодека : isom (isom/iso2/avc1/mp41)
Размер файла : 369 Мбайт
Продолжительность : 2 ч. 17 м.
Общий поток : 375 Кбит/сек
Программа кодирования : Lavf58.29.100
Видео
Идентификатор : 1
Формат : AVC
Формат/Информация : Advanced Video Codec
Профиль формата : [url=mailto:Main@L3.1]Main@L3.1[/url]
Настройки формата : CABAC / 3 Ref Frames
Параметр CABAC формата : Да
Параметр RefFrames формата : 3 кадра
Идентификатор кодека : avc1
Идентификатор кодека/Информация : Advanced Video Coding
Продолжительность : 2 ч. 17 м.
Битрейт : 271 Кбит/сек
Ширина : 1280 пикселей
Высота : 720 пикселей
Соотношение сторон : 16:9
Режим частоты кадров : Постоянный
Частота кадров : 30,000 кадров/сек
Цветовое пространство : YUV
Субдискретизация насыщенности : 4:2:0
Битовая глубина : 8 бит
Тип развёртки : Прогрессивная
Бит/(Пиксели*Кадры) : 0.010
Размер потока : 267 Мбайт (72%)
Заголовок : ISO Media file produced by Google Inc.
Цветовой диапазон : Limited
Основные цвета : BT.709
Характеристики трансфера : BT.709
Коэффициенты матрицы : BT.709
Codec configuration box : avcC
Аудио
Идентификатор : 2
Формат : AAC LC
Формат/Информация : Advanced Audio Codec Low Complexity
Идентификатор кодека : mp4a-40-2
Продолжительность : 2 ч. 17 м.
Вид битрейта : Постоянный
Битрейт : 96,0 Кбит/сек
Каналы : 1 канал
ChannelLayout : C
Частота : 44,1 КГц
Частота кадров : 43,066 кадра/сек (1024 SPF)
Метод сжатия : С потерями
Размер потока : 94,6 Мбайт (26%)
Заголовок : ISO Media file produced by Google Inc.
Default : Да
AlternateGroup/String : 1
Общее
Полное имя : .\30 Состояние приложений. Flus and Redux\30.mp4
Формат : MPEG-4
Профиль формата : Base Media / Version 2
Идентификатор кодека : mp42 (isom/mp42)
Размер файла : 371 Мбайт
Продолжительность : 1 ч. 34 м.
Режим общего битрейта : Переменный
Общий поток : 551 Кбит/сек
Дата кодирования : UTC 2019-09-05 18:50:28
Дата пометки : UTC 2019-09-05 18:50:28
Видео
Идентификатор : 2
Формат : AVC
Формат/Информация : Advanced Video Codec
Профиль формата : High@L5
Настройки формата : CABAC / 11 Ref Frames
Параметр CABAC формата : Да
Параметр RefFrames формата : 11 кадров
Идентификатор кодека : avc1
Идентификатор кодека/Информация : Advanced Video Coding
Продолжительность : 1 ч. 34 м.
Битрейт : 495 Кбит/сек
Ширина : 1628 пикселей
Высота : 972 пикселя
Соотношение сторон : 5:3
Режим частоты кадров : Постоянный
Частота кадров : 25,000 кадров/сек
Цветовое пространство : YUV
Субдискретизация насыщенности : 4:2:0
Битовая глубина : 8 бит
Тип развёртки : Прогрессивная
Бит/(Пиксели*Кадры) : 0.013
Размер потока : 334 Мбайт (90%)
Дата кодирования : UTC 2019-09-05 18:50:28
Дата пометки : UTC 2019-09-05 18:50:28
Codec configuration box : avcC
Аудио
Идентификатор : 1
Формат : AAC LC
Формат/Информация : Advanced Audio Codec Low Complexity
Идентификатор кодека : mp4a-40-2
Продолжительность : 1 ч. 34 м.
Вид битрейта : Переменный
Битрейт : 53,3 Кбит/сек
Максимальный битрейт : 127 Кбит/сек
Каналы : 1 канал
ChannelLayout : C
Частота : 32,0 КГц
Частота кадров : 31,250 кадров/сек (1024 SPF)
Метод сжатия : С потерями
Размер потока : 35,9 Мбайт (10%)
Заголовок : AAC audio
Дата кодирования : UTC 2019-09-05 18:50:28
Дата пометки : UTC 2019-09-05 18:50:28
Общее
Полное имя : .\04 IP, TCP, uWSGI\04.mp4
Формат : MPEG-4
Профиль формата : Base Media
Идентификатор кодека : isom (isom/iso2/avc1/mp41)
Размер файла : 97,8 Мбайт
Продолжительность : 1 ч. 35 м.
Режим общего битрейта : Переменный
Общий поток : 143 Кбит/сек
Программа кодирования : Lavf56.40.101
Видео
Идентификатор : 1
Формат : AVC
Формат/Информация : Advanced Video Codec
Профиль формата : High@L5
Настройки формата : CABAC / 11 Ref Frames
Параметр CABAC формата : Да
Параметр RefFrames формата : 11 кадров
Идентификатор кодека : avc1
Идентификатор кодека/Информация : Advanced Video Coding
Продолжительность : 1 ч. 35 м.
Битрейт : 84,0 Кбит/сек
Ширина : 1920 пикселей
Высота : 1056 пикселей
Соотношение сторон : 16:9
Режим частоты кадров : Постоянный
Частота кадров : 25,000 кадров/сек
Цветовое пространство : YUV
Субдискретизация насыщенности : 4:2:0
Битовая глубина : 8 бит
Тип развёртки : Прогрессивная
Бит/(Пиксели*Кадры) : 0.002
Размер потока : 57,5 Мбайт (59%)
Codec configuration box : avcC
Аудио
Идентификатор : 2
Формат : AAC LC
Формат/Информация : Advanced Audio Codec Low Complexity
Идентификатор кодека : mp4a-40-2
Продолжительность : 1 ч. 35 м.
Вид битрейта : Переменный
Битрейт : 54,4 Кбит/сек
Максимальный битрейт : 114 Кбит/сек
Каналы : 1 канал
ChannelLayout : C
Частота : 32,0 КГц
Частота кадров : 31,250 кадров/сек (1024 SPF)
Метод сжатия : С потерями
Размер потока : 37,2 Мбайт (38%)
Default : Да
AlternateGroup/String : 1
Общее
Полное имя : .\15 Основы JS\15.mp4
Формат : MPEG-4
Профиль формата : Base Media / Version 2
Идентификатор кодека : mp42 (isom/mp42)
Размер файла : 186 Мбайт
Продолжительность : 1 ч. 44 м.
Режим общего битрейта : Переменный
Общий поток : 248 Кбит/сек
Дата кодирования : UTC 2019-06-24 19:19:28
Дата пометки : UTC 2019-06-24 19:19:28
Видео
Идентификатор : 2
Формат : AVC
Формат/Информация : Advanced Video Codec
Профиль формата : [url=mailto:High@L5.1]High@L5.1[/url]
Настройки формата : CABAC / 11 Ref Frames
Параметр CABAC формата : Да
Параметр RefFrames формата : 11 кадров
Идентификатор кодека : avc1
Идентификатор кодека/Информация : Advanced Video Coding
Продолжительность : 1 ч. 44 м.
Битрейт : 193 Кбит/сек
Ширина : 2560 пикселей
Высота : 1440 пикселей
Соотношение сторон : 16:9
Режим частоты кадров : Постоянный
Частота кадров : 25,000 кадров/сек
Цветовое пространство : YUV
Субдискретизация насыщенности : 4:2:0
Битовая глубина : 8 бит
Тип развёртки : Прогрессивная
Бит/(Пиксели*Кадры) : 0.002
Размер потока : 144 Мбайт (78%)
Дата кодирования : UTC 2019-06-24 19:19:28
Дата пометки : UTC 2019-06-24 19:19:28
Codec configuration box : avcC
Аудио
Идентификатор : 1
Формат : AAC LC
Формат/Информация : Advanced Audio Codec Low Complexity
Идентификатор кодека : mp4a-40-2
Продолжительность : 1 ч. 44 м.
Вид битрейта : Переменный
Битрейт : 53,4 Кбит/сек
Максимальный битрейт : 128 Кбит/сек
Каналы : 1 канал
ChannelLayout : C
Частота : 32,0 КГц
Частота кадров : 31,250 кадров/сек (1024 SPF)
Метод сжатия : С потерями
Размер потока : 39,9 Мбайт (22%)
Заголовок : AAC audio
Дата кодирования : UTC 2019-06-24 19:19:28
Дата пометки : UTC 2019-06-24 19:19:28

Дополнительная информация:

В раздаче имеются архивы! В них содержится исходники.
Скриншоты:
       

Clavik

Post 04-Jan-2020 17:45

[Quote]

SkillBox | Python-разработчик (2019) PCRec [H.264] - Автор (режиссер): SkillBox
Производство: Вадим Шандринов
Жанр: Программирование, Python
Описание:
Курс отлично подойдет для тех, кто совершенно не знаком даже с базовыми понятиями программирования, но хотел бы начать развиваться в IT-индустрии. Под руководством опытного наставника вы научитесь писать код с нуля, узнаете базовые структуры данных и библиотеки для работы с ними. Вы подробно изучите основы языка и синтаксис языка программирования, научитесь выстраивать алгоритм управления большим количеством переменных и напишете свои первые программы на Python. Эти знания помогут вам с уверенностью пройти любое собеседование, найти работу в офисе или брать заказы на фрилансе.
Продолжительность: 55:00:16
Качество видео: PCRec
Видео: AVC/H.264, 1672x940, ~474-6445 Kbps
Аудио: AAC, 2 ch, 147-200 Kbps

MediaInfo:

Общее
Полное имя : .\2.2. Базовые структуры данных\2.7 Организация программ.mp4
Формат : MPEG-4
Профиль формата : Base Media
Идентификатор кодека : isom (isom/iso2/avc1/mp41)
Размер файла : 221 Мбайт
Продолжительность : 7 м. 46 с.
Режим общего битрейта : Переменный
Общий поток : 3980 Кбит/сек
Программа кодирования : Lavf57.25.100
Видео
Идентификатор : 1
Формат : AVC
Формат/Информация : Advanced Video Codec
Профиль формата : Baseline@L4
Настройки формата : 1 Ref Frames
Параметр CABAC формата : Нет
Параметр RefFrames формата : 1 кадр
Идентификатор кодека : avc1
Идентификатор кодека/Информация : Advanced Video Coding
Продолжительность : 7 м. 46 с.
Битрейт : 3783 Кбит/сек
Ширина : 1672 пикселя
Высота : 940 пикселей
Соотношение сторон : 16:9
Режим частоты кадров : Переменный
Частота кадров : 29,449 кадров/сек
Минимальная частота кадров : 4,286 кадра/сек
Максимальная частота кадров : 30,000 кадров/сек
Цветовое пространство : YUV
Субдискретизация насыщенности : 4:2:0
Битовая глубина : 8 бит
Тип развёртки : Прогрессивная
Бит/(Пиксели*Кадры) : 0.082
Размер потока : 210 Мбайт (95%)
Codec configuration box : avcC
Аудио
Идентификатор : 2
Формат : AAC LC
Формат/Информация : Advanced Audio Codec Low Complexity
Идентификатор кодека : mp4a-40-2
Продолжительность : 7 м. 46 с.
Вид битрейта : Переменный
Битрейт : 192 Кбит/сек
Каналы : 2 канала
ChannelLayout : L R
Частота : 44,1 КГц
Частота кадров : 43,066 кадра/сек (1024 SPF)
Метод сжатия : С потерями
Размер потока : 10,6 Мбайт (5%)
Default : Да
AlternateGroup/String : 1
Скриншоты:
       

Clavik

Post 30-Dec-2019 18:21

[Quote]

HTML Academy | Профессиональный онлайн-курс JavaScript [Уровень 3] (ноябрь 2019) PCRec [H.264/1080p-LQ] - Автор (режиссер): HTML Academy
Производство: Игорь Алексеенко, Александр Сушко
Жанр: Программирование, JavaScript, React
Описание:
На этом курсе вы научитесь делать настоящие проекты, такие же по уровню сложности, как в индустрии. И будете делать их правильно, чтобы после обучения выдавать результат высокого уровня, за который компании готовы платить.
Продолжительность: 18:46:19
Качество видео: PCRec
Видео: AVC/H.264, 1920x1080, ~496-1569 Kbps
Аудио: AAC, 2 ch, 253 Kbps

MediaInfo:

Общее
Полное имя : .\04 React и паттерны\04.mp4
Формат : MPEG-4
Профиль формата : Base Media / Version 2
Идентификатор кодека : mp42 (mp42/mp41/isom/avc1)
Размер файла : 1,03 Гбайт
Продолжительность : 2 ч. 24 м.
Режим общего битрейта : Переменный
Общий поток : 1021 Кбит/сек
Дата кодирования : UTC 2019-10-28 20:07:18
Дата пометки : UTC 2019-10-28 20:07:18
Видео
Идентификатор : 1
Формат : AVC
Формат/Информация : Advanced Video Codec
Профиль формата : High@L4
Настройки формата : CABAC / 5 Ref Frames
Параметр CABAC формата : Да
Параметр RefFrames формата : 5 кадров
Идентификатор кодека : avc1
Идентификатор кодека/Информация : Advanced Video Coding
Продолжительность : 2 ч. 24 м.
Битрейт : 764 Кбит/сек
Ширина : 1920 пикселей
Высота : 1080 пикселей
Соотношение сторон : 16:9
Режим частоты кадров : Постоянный
Частота кадров : 24,000 кадра/сек
Цветовое пространство : YUV
Субдискретизация насыщенности : 4:2:0
Битовая глубина : 8 бит
Тип развёртки : Прогрессивная
Бит/(Пиксели*Кадры) : 0.015
Размер потока : 792 Мбайт (75%)
Библиотека кодирования : x264 core 157 r10 d4099dd
Настройки программы : cabac=1 / ref=5 / deblock=1:0:0 / analyse=0x3:0x113 / me=hex / subme=8 / psy=1 / psy_rd=1.00:0.00 / mixed_ref=1 / me_range=16 / chroma_me=1 / trellis=2 / 8x8dct=1 / cqm=0 / deadzone=21,11 / fast_pskip=1 / chroma_qp_offset=-2 / threads=34 / lookahead_threads=5 / sliced_threads=0 / nr=0 / decimate=1 / interlaced=0 / bluray_compat=0 / stitchable=1 / constrained_intra=0 / bframes=3 / b_pyramid=2 / b_adapt=2 / b_bias=0 / direct=3 / weightb=1 / open_gop=0 / weightp=2 / keyint=infinite / keyint_min=24 / scenecut=40 / intra_refresh=0 / rc_lookahead=50 / rc=crf / mbtree=1 / crf=20.0 / qcomp=0.60 / qpmin=5 / qpmax=69 / qpstep=4 / vbv_maxrate=5500 / vbv_bufsize=15000 / crf_max=0.0 / nal_hrd=none / filler=0 / ip_ratio=1.40 / aq=1:1.00
Дата кодирования : UTC 2019-10-28 20:07:18
Дата пометки : UTC 2019-10-28 20:07:18
Цветовой диапазон : Limited
Основные цвета : BT.709
Характеристики трансфера : BT.709
Коэффициенты матрицы : BT.709
Codec configuration box : avcC
Аудио
Идентификатор : 2
Формат : AAC LC
Формат/Информация : Advanced Audio Codec Low Complexity
Идентификатор кодека : mp4a-40-2
Продолжительность : 2 ч. 24 м.
Вид битрейта : Переменный
Битрейт : 253 Кбит/сек
Каналы : 2 канала
ChannelLayout : L R
Частота : 48,0 КГц
Частота кадров : 46,875 кадров/сек (1024 SPF)
Метод сжатия : С потерями
Размер потока : 263 Мбайт (25%)
Дата кодирования : UTC 2019-10-28 20:07:18
Дата пометки : UTC 2019-10-28 20:07:18
Скриншоты:
       

Clavik

Post 21-Dec-2019 21:05

[Quote]

Shultais Education | Проектирование баз данных (2018) PCRec [H.264] - Автор (режиссер): Shultais Education
Производство: Никита Шультайс
Жанр: Программирование, Базы данных
Описание:
В продолжении основного курса по SQL мы запустили мини-курс по проектированию баз данных. Всего 13 практических уроков продолжительностью чуть более часа. На курсе учимся создавать концептуальную и логическую схемы базы данных, знакомимся с нормальными формами, а также с денормализацией. Затрагиваем вопросы удаления данных.
Продолжительность: 01:09:30
Качество видео: PCRec
Видео: AVC/H.264, 1280x720-1920x1080, ~424-1066 Kbps
Аудио: AAC, 2 ch, 136-137 Kbps

MediaInfo:

Общее
Полное имя : .\1.3 Логическая модель базы данных.mp4
Формат : MPEG-4
Профиль формата : Base Media / Version 2
Идентификатор кодека : mp42 (mp42/mp41/isom/avc1)
Размер файла : 38,3 Мбайт
Продолжительность : 9 м. 27 с.
Режим общего битрейта : Переменный
Общий поток : 566 Кбит/сек
Дата кодирования : UTC 2019-01-27 09:42:04
Дата пометки : UTC 2019-01-27 09:42:04
Видео
Идентификатор : 1
Формат : AVC
Формат/Информация : Advanced Video Codec
Профиль формата : [url=mailto:High@L3.2]High@L3.2[/url]
Настройки формата : CABAC / 5 Ref Frames
Параметр CABAC формата : Да
Параметр RefFrames формата : 5 кадров
Идентификатор кодека : avc1
Идентификатор кодека/Информация : Advanced Video Coding
Продолжительность : 9 м. 27 с.
Битрейт : 425 Кбит/сек
Ширина : 1280 пикселей
Высота : 720 пикселей
Соотношение сторон : 16:9
Режим частоты кадров : Постоянный
Частота кадров : 30,000 кадров/сек
Цветовое пространство : YUV
Субдискретизация насыщенности : 4:2:0
Битовая глубина : 8 бит
Тип развёртки : Прогрессивная
Бит/(Пиксели*Кадры) : 0.015
Размер потока : 28,7 Мбайт (75%)
Библиотека кодирования : x264 core 157 r10 545de2f
Настройки программы : cabac=1 / ref=5 / deblock=1:0:0 / analyse=0x3:0x113 / me=hex / subme=8 / psy=1 / psy_rd=1.00:0.00 / mixed_ref=1 / me_range=16 / chroma_me=1 / trellis=2 / 8x8dct=1 / cqm=0 / deadzone=21,11 / fast_pskip=1 / chroma_qp_offset=-2 / threads=22 / lookahead_threads=3 / sliced_threads=0 / nr=0 / decimate=1 / interlaced=0 / bluray_compat=0 / stitchable=1 / constrained_intra=0 / bframes=3 / b_pyramid=2 / b_adapt=2 / b_bias=0 / direct=3 / weightb=1 / open_gop=0 / weightp=2 / keyint=infinite / keyint_min=30 / scenecut=40 / intra_refresh=0 / rc_lookahead=50 / rc=crf / mbtree=1 / crf=20.0 / qcomp=0.60 / qpmin=5 / qpmax=69 / qpstep=4 / vbv_maxrate=2750 / vbv_bufsize=7500 / crf_max=0.0 / nal_hrd=none / filler=0 / ip_ratio=1.40 / aq=1:1.00
Дата кодирования : UTC 2019-01-27 09:42:04
Дата пометки : UTC 2019-01-27 09:42:04
Цветовой диапазон : Limited
Основные цвета : BT.709
Характеристики трансфера : BT.709
Коэффициенты матрицы : BT.709
Codec configuration box : avcC
Аудио
Идентификатор : 2
Формат : AAC LC
Формат/Информация : Advanced Audio Codec Low Complexity
Идентификатор кодека : mp4a-40-2
Продолжительность : 9 м. 27 с.
Вид битрейта : Переменный
Битрейт : 137 Кбит/сек
Каналы : 2 канала
ChannelLayout : L R
Частота : 48,0 КГц
Частота кадров : 46,875 кадров/сек (1024 SPF)
Метод сжатия : С потерями
Размер потока : 9,26 Мбайт (24%)
Дата кодирования : UTC 2019-01-27 09:42:04
Дата пометки : UTC 2019-01-27 09:42:04
Общее
Полное имя : .\2.2 Вторая нормальная форма (2НФ).mp4
Формат : MPEG-4
Профиль формата : Base Media / Version 2
Идентификатор кодека : mp42 (mp42/mp41/isom/avc1)
Размер файла : 35,6 Мбайт
Продолжительность : 5 м. 27 с.
Режим общего битрейта : Переменный
Общий поток : 913 Кбит/сек
Дата кодирования : UTC 2019-01-27 12:24:57
Дата пометки : UTC 2019-01-27 12:24:57
Видео
Идентификатор : 1
Формат : AVC
Формат/Информация : Advanced Video Codec
Профиль формата : High@L4
Настройки формата : CABAC / 5 Ref Frames
Параметр CABAC формата : Да
Параметр RefFrames формата : 5 кадров
Идентификатор кодека : avc1
Идентификатор кодека/Информация : Advanced Video Coding
Продолжительность : 5 м. 27 с.
Битрейт : 772 Кбит/сек
Ширина : 1920 пикселей
Высота : 1080 пикселей
Соотношение сторон : 16:9
Режим частоты кадров : Постоянный
Частота кадров : 30,000 кадров/сек
Цветовое пространство : YUV
Субдискретизация насыщенности : 4:2:0
Битовая глубина : 8 бит
Тип развёртки : Прогрессивная
Бит/(Пиксели*Кадры) : 0.012
Размер потока : 30,1 Мбайт (84%)
Библиотека кодирования : x264 core 157 r10 545de2f
Настройки программы : cabac=1 / ref=5 / deblock=1:0:0 / analyse=0x3:0x113 / me=hex / subme=8 / psy=1 / psy_rd=1.00:0.00 / mixed_ref=1 / me_range=16 / chroma_me=1 / trellis=2 / 8x8dct=1 / cqm=0 / deadzone=21,11 / fast_pskip=1 / chroma_qp_offset=-2 / threads=34 / lookahead_threads=5 / sliced_threads=0 / nr=0 / decimate=1 / interlaced=0 / bluray_compat=0 / stitchable=1 / constrained_intra=0 / bframes=3 / b_pyramid=2 / b_adapt=2 / b_bias=0 / direct=3 / weightb=1 / open_gop=0 / weightp=2 / keyint=infinite / keyint_min=30 / scenecut=40 / intra_refresh=0 / rc_lookahead=50 / rc=crf / mbtree=1 / crf=20.0 / qcomp=0.60 / qpmin=5 / qpmax=69 / qpstep=4 / vbv_maxrate=5500 / vbv_bufsize=15000 / crf_max=0.0 / nal_hrd=none / filler=0 / ip_ratio=1.40 / aq=1:1.00
Дата кодирования : UTC 2019-01-27 12:24:57
Дата пометки : UTC 2019-01-27 12:24:57
Цветовой диапазон : Limited
Основные цвета : BT.709
Характеристики трансфера : BT.709
Коэффициенты матрицы : BT.709
Codec configuration box : avcC
Аудио
Идентификатор : 2
Формат : AAC LC
Формат/Информация : Advanced Audio Codec Low Complexity
Идентификатор кодека : mp4a-40-2
Продолжительность : 5 м. 27 с.
Вид битрейта : Переменный
Битрейт : 137 Кбит/сек
Каналы : 2 канала
ChannelLayout : L R
Частота : 48,0 КГц
Частота кадров : 46,875 кадров/сек (1024 SPF)
Метод сжатия : С потерями
Размер потока : 5,35 Мбайт (15%)
Дата кодирования : UTC 2019-01-27 12:24:57
Дата пометки : UTC 2019-01-27 12:24:57
Скриншоты:
       

Clavik

Post 21-Dec-2019 21:03

[Quote]

Владилен Минин | React Native. Мобильная разработка на JavaScript и React JS (2019) PCRec [H.264/720p-LQ]- Автор (режиссер): Владилен Минин
Производство: Udemy
Жанр: Программирование, React, React Native
Описание:
Вы научитесь создавать крутые мобильные приложения для Android и iOS используя только JavaScript
Из предварительных знаний только JavaScript и React
В курсе содержится 11 блоков, 10 из которых - практические
В рамках данного курса вы создадите 2 мобильных приложения, на которых изучите функционал React Native
Продолжительность: 13:10:01
Качество видео: PCRec
Видео: AVC/H.264, 1280x720, 1376 Kbps
Аудио: AAC, 2 ch, 128 Kbps

MediaInfo:

General
Complete name : 001 Про данный курс.mp4
Format : MPEG-4
Format profile : Base Media
Codec ID : isom (isom/iso2/avc1/mp41)
File size : 42.4 MiB
Duration : 3 min 55 s
Overall bit rate : 1 510 kb/s
Writing application : Lavf58.13.102
Video
ID : 1
Format : AVC
Format/Info : Advanced Video Codec
Format profile : [url=mailto:Main@L4.1]Main@L4.1[/url]
Format settings : CABAC / 1 Ref Frames
Format settings, CABAC : Yes
Format settings, ReFrames : 1 frame
Format settings, GOP : M=1, N=12
Codec ID : avc1
Codec ID/Info : Advanced Video Coding
Duration : 3 min 55 s
Bit rate : 1 376 kb/s
Width : 1 280 pixels
Height : 720 pixels
Display aspect ratio : 16:9
Frame rate mode : Constant
Frame rate : 30.000 FPS
Color space : YUV
Chroma subsampling : 4:2:0
Bit depth : 8 bits
Scan type : Progressive
Bits/(Pixel*Frame) : 0.050
Stream size : 38.6 MiB (91%)
Codec configuration box : avcC
Audio
ID : 2
Format : AAC LC
Format/Info : Advanced Audio Codec Low Complexity
Codec ID : mp4a-40-2
Duration : 3 min 55 s
Bit rate mode : Constant
Bit rate : 128 kb/s
Channel(s) : 2 channels
Channel layout : L R
Sampling rate : 44.1 kHz
Frame rate : 43.066 FPS (1024 SPF)
Compression mode : Lossy
Stream size : 3.59 MiB (8%)
Default : Yes
Alternate group : 1

Содержание:

+
Введение и подготовка
8 лекций
49:17
+
Основы
15 лекций
02:04:46
+
Работа с компонентами
10 лекций
01:42:48
+
Элементы Expo и стили
9 лекций
01:07:16
+
Управление состоянием c Context
9 лекций
01:13:03
+
Работа с сервером
9 лекций
01:04:01
+
Навигация (Новое Приложение)
20 лекций
02:28:55
+
Redux
6 лекций
54:56
+
Нативные компоненты
9 лекций
01:08:45
+
Подготовка и деплой
4 лекции
36:14
Скриншоты:
       

Clavik

Post 21-Dec-2019 21:02

[Quote]

Udemy.com | Photoshop CC 2020 MasterClass (2019) PCRec [H.264/720p-LQ] [EN] - Автор (режиссер): Martin Perhiniak
Производство: Udemy.com
Жанр: Photoshop, Обучающее видео
Описание:
Один из лучших курсов от Udemy - c одним из 10 лучших инструкторов Adobe в мире. Этот курс научит вас использовать Adobe Photoshop в качестве профессионала. Все содержание курса, включая примеры, методы, упражнения и тесты были тщательно отобраны и проработаны, чтобы предложить наиболее эффективный и приятный способ освоить этот продукт.
Продолжительность: 12:56:27
Качество видео: PCRec
Перевод: Отсутствует
Язык озвучки: Английский
Видео: AVC/H.264, 1280х720, ~168 Kbps
Аудио: AAC, 2 ch, 192 Kbps

MediaInfo:

General
Complete name Udemy.com\Photoshop CC 2020 MasterClass\17. Conclusion\1. Variable and SVG Fonts.mp4
Format : MPEG-4
Format profile : Base Media / Version 2
Codec ID : mp42 (isom/iso2/avc1/mp41/mp42)
File size : 14.6 MiB
Duration : 5 min 40 s
Overall bit rate : 361 kb/s
Encoded date : UTC 2017-11-09 13:19:20
Tagged date : UTC 2017-11-09 13:19:20
Writing application : Lavf53.32.100
Video
ID : 1
Format : AVC
Format/Info : Advanced Video Codec
Format profile : High@L3
Format settings : CABAC / 4 Ref Frames
Format settings, CABAC : Yes
Format settings, Reference frames : 4 frames
Codec ID : avc1
Codec ID/Info : Advanced Video Coding
Duration : 5 min 40 s
Bit rate : 168 kb/s
Width : 1 280 pixels
Height : 720 pixels
Display aspect ratio : 16:9
Frame rate mode : Constant
Frame rate : 30.000 FPS
Color space : YUV
Chroma subsampling : 4:2:0
Bit depth : 8 bits
Scan type : Progressive
Bits/(Pixel*Frame) : 0.006
Stream size : 6.80 MiB (46%)
Writing library : x264 core 136
Encoding settings : cabac=1 / ref=4 / deblock=1:0:0 / analyse=0x3:0x113 / me=umh / subme=7 / psy=0 / mixed_ref=1 / me_range=16 / chroma_me=1 / trellis=1 / 8x8dct=1 / cqm=0 / deadzone=21,11 / fast_pskip=0 / chroma_qp_offset=0 / threads=54 / lookahead_threads=5 / sliced_threads=0 / nr=0 / decimate=1 / interlaced=0 / bluray_compat=0 / constrained_intra=0 / bframes=16 / b_pyramid=2 / b_adapt=1 / b_bias=0 / direct=1 / weightb=1 / open_gop=0 / weightp=2 / keyint=300 / keyint_min=25 / scenecut=40 / intra_refresh=0 / rc=2pass / mbtree=0 / bitrate=168 / ratetol=1.0 / qcomp=0.60 / qpmin=10 / qpmax=51 / qpstep=4 / cplxblur=20.0 / qblur=0.5 / ip_ratio=1.40 / pb_ratio=1.30 / aq=1:1.00
Encoded date : UTC 2017-11-09 13:19:20
Tagged date : UTC 2017-12-02 23:07:26
Codec configuration box : avcC
Audio
ID : 2
Format : AAC LC
Format/Info : Advanced Audio Codec Low Complexity
Codec ID : mp4a-40-2
Duration : 5 min 40 s
Bit rate mode : Constant
Bit rate : 192 kb/s
Channel(s) : 2 channels
Channel layout : L R
Sampling rate : 48.0 kHz
Frame rate : 46.875 FPS (1024 SPF)
Compression mode : Lossy
Stream size : 7.69 MiB (53%)
Default : Yes
Alternate group : 1
Encoded date : UTC 2017-11-09 13:19:20
Tagged date : UTC 2017-12-02 23:07:26

Дополнительная информация:

Skills you will gain:
Creating photo montages and combining images in various creative ways.
Retouching photographs like a professional, seamlessly removing or adding any details.
Enhancing tonal values, color, contrast, sharpness, clarity, reducing noise and compression artifacts in images.
Exporting to various image formats for both print and screen with confidence.
Designing engaging compositions using photos, typography and special effects.
Creating digital art with the powerful Brush engine and using blend modes.

Русский перевод:

Навыки, которые вы получите:
Создание фотомонтажей и комбинирование изображений различными творческими способами.
Ретуширование фотографий как профессионал, плавно удаляя или добавляя любые детали.
Повышение тональных значений, цвета, контраста, резкости, четкости, уменьшение шума и артефактов сжатия в изображениях.
Экспорт в различные форматы изображений для печати и экрана с уверенностью.
Разработка привлекательных композиций с использованием фотографий, типографики и специальных эффектов.
Создание цифрового искусства с мощным двигателем кисти и с использованием режимов смешивания.

История обновлений:

21.12.2019
добавлена недостающая 17 часть (17. CC 2020 New Features)

Раздача ведётся путём добавления новых файлов:

Раздача ведётся путём добавления новых файлов; при каждом добавлении создаётся новый торрент. Чтобы начать докачку новых файлов, пользователям необходимо сделать следующее:
(1) остановить скачивание,
(2) удалить старый торрент у себя из клиента (имеющиеся файлы удалять не надо),
(3) скачать новый торрент и запустить его у себя в клиенте вместо старого, при этом указать клиенту путь в старую папку, куда и должно происходить скачивание новых файлов.
Ваш клиент при этом должен произвести хеширование (проверку) старой папки (если не производит сам - помогите ему сделать это), и будет докачивать только те файлы, которых у вас ещё нет. Старые файлы при этом не удаляются, а продолжают раздаваться!
Eсли вы уже удалили старые файлы, то предотвратить повторную закачку старых файлов можно, отжав галочку в соответствующих местах при запуске нового торрента. По возможности, желательно не удалять старые файлы как можно дольше, чтобы релизёр не только продолжал раздавать старые файлы, а смог сконцентрироваться на новых.
Скриншоты:
       

Clavik

Post 21-Dec-2019 21:00

[Quote]

Shultais Education | Основы SQL (2018) PCRec [H.264] - Автор (режиссер): Shultais Education
Производство: Никита Шультайс
Жанр: Программирование, Базы данных
Описание:
Практический Online-курс по основам SQL с серией коротких видео-уроков и большим количеством заданий. На курсе вы научитесь делать как простые выборки, так и многотабличные запросы с использование JOIN и UNION, а также освоите функции агрегации.
Продолжительность: 04:44:00
Качество видео: PCRec
Видео: AVC/H.264, 1280x720-1920x1080, ~124-633 Kbps
Аудио: AAC, 2 ch, 136-137 Kbps

Содержание:

  • Простые SQL запросы — 6 уроков, 26 заданий
  • Добавление, изменение, удаление — 3 урока, 20 заданий
  • Создание таблиц — 9 уроков, 37 заданий
  • Индексы — 4 урока, 20 заданий
  • Изменение таблиц — 3 урока, 13 заданий
  • Поиск текста — 2 урока, 12 заданий
  • Вспомогательные функции — 3 урока, 23 задания
  • Группировка данных — 3 урока, 17 заданий
  • Многотабличные запросы — 13 уроков, 75 заданий
  • Вложенные запросы — 6 уроков, 17 заданий

MediaInfo:

Общее
Полное имя : .\1.1 Первые запросы.mp4
Формат : MPEG-4
Профиль формата : Base Media / Version 2
Идентификатор кодека : mp42 (mp42/mp41/isom/avc1)
Размер файла : 7,73 Мбайт
Продолжительность : 3 м. 26 с.
Режим общего битрейта : Переменный
Общий поток : 314 Кбит/сек
Дата кодирования : UTC 2019-02-04 18:51:49
Дата пометки : UTC 2019-02-04 18:51:49
Видео
Идентификатор : 1
Формат : AVC
Формат/Информация : Advanced Video Codec
Профиль формата : [url=mailto:High@L3.2]High@L3.2[/url]
Настройки формата : CABAC / 5 Ref Frames
Параметр CABAC формата : Да
Параметр RefFrames формата : 5 кадров
Идентификатор кодека : avc1
Идентификатор кодека/Информация : Advanced Video Coding
Продолжительность : 3 м. 26 с.
Битрейт : 172 Кбит/сек
Ширина : 1280 пикселей
Высота : 720 пикселей
Соотношение сторон : 16:9
Режим частоты кадров : Постоянный
Частота кадров : 30,000 кадров/сек
Цветовое пространство : YUV
Субдискретизация насыщенности : 4:2:0
Битовая глубина : 8 бит
Тип развёртки : Прогрессивная
Бит/(Пиксели*Кадры) : 0.006
Размер потока : 4,24 Мбайт (55%)
Библиотека кодирования : x264 core 157 r10 545de2f
Настройки программы : cabac=1 / ref=5 / deblock=1:0:0 / analyse=0x3:0x113 / me=hex / subme=8 / psy=1 / psy_rd=1.00:0.00 / mixed_ref=1 / me_range=16 / chroma_me=1 / trellis=2 / 8x8dct=1 / cqm=0 / deadzone=21,11 / fast_pskip=1 / chroma_qp_offset=-2 / threads=22 / lookahead_threads=3 / sliced_threads=0 / nr=0 / decimate=1 / interlaced=0 / bluray_compat=0 / stitchable=1 / constrained_intra=0 / bframes=3 / b_pyramid=2 / b_adapt=2 / b_bias=0 / direct=3 / weightb=1 / open_gop=0 / weightp=2 / keyint=infinite / keyint_min=30 / scenecut=40 / intra_refresh=0 / rc_lookahead=50 / rc=crf / mbtree=1 / crf=20.0 / qcomp=0.60 / qpmin=5 / qpmax=69 / qpstep=4 / vbv_maxrate=2750 / vbv_bufsize=7500 / crf_max=0.0 / nal_hrd=none / filler=0 / ip_ratio=1.40 / aq=1:1.00
Дата кодирования : UTC 2019-02-04 18:51:49
Дата пометки : UTC 2019-02-04 18:51:49
Цветовой диапазон : Limited
Основные цвета : BT.709
Характеристики трансфера : BT.709
Коэффициенты матрицы : BT.709
Codec configuration box : avcC
Аудио
Идентификатор : 2
Формат : AAC LC
Формат/Информация : Advanced Audio Codec Low Complexity
Идентификатор кодека : mp4a-40-2
Продолжительность : 3 м. 26 с.
Вид битрейта : Переменный
Битрейт : 137 Кбит/сек
Каналы : 2 канала
ChannelLayout : L R
Частота : 48,0 КГц
Частота кадров : 46,875 кадров/сек (1024 SPF)
Метод сжатия : С потерями
Размер потока : 3,37 Мбайт (44%)
Дата кодирования : UTC 2019-02-04 18:51:49
Дата пометки : UTC 2019-02-04 18:51:49
Общее
Полное имя : D:\downloads\release\[Shultais Education] Основы SQL (2018)\1.6 Установка MySQL в Windows.mp4
Формат : MPEG-4
Профиль формата : Base Media / Version 2
Идентификатор кодека : mp42 (mp42/mp41/isom/avc1)
Размер файла : 48,5 Мбайт
Продолжительность : 11 м. 6 с.
Режим общего битрейта : Переменный
Общий поток : 611 Кбит/сек
Дата кодирования : UTC 2019-02-04 18:55:20
Дата пометки : UTC 2019-02-04 18:55:20
Видео
Идентификатор : 1
Формат : AVC
Формат/Информация : Advanced Video Codec
Профиль формата : High@L4
Настройки формата : CABAC / 5 Ref Frames
Параметр CABAC формата : Да
Параметр RefFrames формата : 5 кадров
Идентификатор кодека : avc1
Идентификатор кодека/Информация : Advanced Video Coding
Продолжительность : 11 м. 6 с.
Битрейт : 469 Кбит/сек
Ширина : 1920 пикселей
Высота : 1080 пикселей
Соотношение сторон : 16:9
Режим частоты кадров : Постоянный
Частота кадров : 30,000 кадров/сек
Цветовое пространство : YUV
Субдискретизация насыщенности : 4:2:0
Битовая глубина : 8 бит
Тип развёртки : Прогрессивная
Бит/(Пиксели*Кадры) : 0.008
Размер потока : 37,3 Мбайт (77%)
Библиотека кодирования : x264 core 157 r10 545de2f
Настройки программы : cabac=1 / ref=5 / deblock=1:0:0 / analyse=0x3:0x113 / me=hex / subme=8 / psy=1 / psy_rd=1.00:0.00 / mixed_ref=1 / me_range=16 / chroma_me=1 / trellis=2 / 8x8dct=1 / cqm=0 / deadzone=21,11 / fast_pskip=1 / chroma_qp_offset=-2 / threads=34 / lookahead_threads=5 / sliced_threads=0 / nr=0 / decimate=1 / interlaced=0 / bluray_compat=0 / stitchable=1 / constrained_intra=0 / bframes=3 / b_pyramid=2 / b_adapt=2 / b_bias=0 / direct=3 / weightb=1 / open_gop=0 / weightp=2 / keyint=infinite / keyint_min=30 / scenecut=40 / intra_refresh=0 / rc_lookahead=50 / rc=crf / mbtree=1 / crf=20.0 / qcomp=0.60 / qpmin=5 / qpmax=69 / qpstep=4 / vbv_maxrate=5500 / vbv_bufsize=15000 / crf_max=0.0 / nal_hrd=none / filler=0 / ip_ratio=1.40 / aq=1:1.00
Дата кодирования : UTC 2019-02-04 18:55:20
Дата пометки : UTC 2019-02-04 18:55:20
Цветовой диапазон : Limited
Основные цвета : BT.709
Характеристики трансфера : BT.709
Коэффициенты матрицы : BT.709
Codec configuration box : avcC
Аудио
Идентификатор : 2
Формат : AAC LC
Формат/Информация : Advanced Audio Codec Low Complexity
Идентификатор кодека : mp4a-40-2
Продолжительность : 11 м. 6 с.
Вид битрейта : Переменный
Битрейт : 137 Кбит/сек
Каналы : 2 канала
ChannelLayout : L R
Частота : 48,0 КГц
Частота кадров : 46,875 кадров/сек (1024 SPF)
Метод сжатия : С потерями
Размер потока : 10,9 Мбайт (22%)
Дата кодирования : UTC 2019-02-04 18:55:20
Дата пометки : UTC 2019-02-04 18:55:20
Скриншоты:
       
 

The time now is: Today 13:22

All times are GMT + 3 Hours