Today is a free download without charge Download

Search found 500 matches

Author Message

Clavik

Post 10-Nov-2019 18:41

[Quote]

Udemy | Python разработка - с нуля до профессионала. Python 3 (2019) PCRec [H.264/720p-LQ] - Автор (режиссер): YouRa Allakhverdov
Производство: Udemy
Жанр: Программирование, Python
Описание:
Начните с основ и пройдите весь путь до создания собственных приложений!
Станьте программистом Python и изучите один из самых востребованных навыков современной разработки!
Это самый полный, но простой курс по языку программирования Python на Udemy! Если вы никогда не программировали раньше, если вы уже знаете базовый синтаксис или если хотите узнать о расширенных возможностях Python - в любом случае этот курс для вас! В этом курсе мы будем изучать программирование на Python 3.
Продолжительность: 20:49:50
Качество видео: PCRec
Видео: AVC/H.264, 1280x720, ~410 - 920 Kbps
Аудио: AAC, 2 ch, 128 Kbps

MediaInfo:

General
Complete name : C:\Users\User\Downloads\[Udemy] Python разработка с нуля до профессионала Python 3\4. Основы Python\8. Строки.mp4
Format : MPEG-4
Format profile : Base Media
Codec ID : isom (isom/iso2/avc1/mp41)
File size : 135 MiB
Duration : 19 min 51 s
Overall bit rate : 953 kb/s
Writing application : Lavf58.12.100
Video
ID : 1
Format : AVC
Format/Info : Advanced Video Codec
Format profile : [url=mailto:Main@L3.1]Main@L3.1[/url]
Format settings : CABAC / 4 Ref Frames
Format settings, CABAC : Yes
Format settings, Reference : 4 frames
Codec ID : avc1
Codec ID/Info : Advanced Video Coding
Duration : 19 min 51 s
Bit rate : 816 kb/s
Nominal bit rate : 3 000 kb/s
Width : 1 280 pixels
Height : 720 pixels
Display aspect ratio : 16:9
Frame rate mode : Constant
Frame rate : 30.000 FPS
Color space : YUV
Chroma subsampling : 4:2:0
Bit depth : 8 bits
Scan type : Progressive
Bits/(Pixel*Frame) : 0.030
Stream size : 116 MiB (86%)
Writing library : x264 core 148
Encoding settings : cabac=1 / ref=3 / deblock=1:-1:-1 / analyse=0x1:0x111 / me=umh / subme=6 / psy=1 / psy_rd=1.00:0.15 / mixed_ref=1 / me_range=16 / chroma_me=1 / trellis=1 / 8x8dct=0 / cqm=0 / deadzone=21,11 / fast_pskip=1 / chroma_qp_offset=-3 / threads=22 / lookahead_threads=3 / sliced_threads=0 / nr=0 / decimate=1 / interlaced=0 / bluray_compat=0 / constrained_intra=0 / bframes=3 / b_pyramid=2 / b_adapt=1 / b_bias=0 / direct=1 / weightb=1 / open_gop=0 / weightp=2 / keyint=60 / keyint_min=6 / scenecut=0 / intra_refresh=0 / rc_lookahead=60 / rc=cbr / mbtree=1 / bitrate=3000 / ratetol=1.0 / qcomp=0.60 / qpmin=0 / qpmax=69 / qpstep=4 / vbv_maxrate=3000 / vbv_bufsize=6000 / nal_hrd=none / filler=0 / ip_ratio=1.40 / aq=1:1.00
Codec configuration box : avcC
Audio
ID : 2
Format : AAC LC
Format/Info : Advanced Audio Codec Low Complexity
Codec ID : mp4a-40-2
Duration : 19 min 51 s
Bit rate mode : Constant
Bit rate : 128 kb/s
Channel(s) : 2 channels
Channel layout : L R
Sampling rate : 48.0 kHz
Frame rate : 46.875 FPS (1024 SPF)
Compression mode : Lossy
Stream size : 18.2 MiB (13%)
Default : Yes
Alternate group : 1

Хотите ли вы:

- приобрести навыки, необходимые для получения первой работы по программированию на Python
- перейти на более высокую должность разработчика программного обеспечения
- начать работать с машинным обучением, наукой о данных, Django или другими популярными областями, на которых специализируется Python
- или просто изучите Python, чтобы иметь возможность быстро создавать свои собственные приложения Python
Тогда вам нужен прочный фундамент в программировании на Python. И этот курс предназначен, чтобы дать вам эти основные навыки.

Чему вы научитесь:

Получите фундаментальное понимание языка программирования Python
Получите навыки Python по объектно-ориентированному программированию (ООП) в свое резюме
Поймёте сложные темы, как декораторы, timestamp и др.
Приобретёте необходимые навыки Python, чтобы перейти в конкретные отрасли - machine learning, data science и т. д.

Для кого предназначен этот курс:

- новички, которые никогда не программировали раньше
- программисты, желающие перейти на Python
- начинающие программисты Python, которые хотят повысить свои навыки.

Материалы курса:

Установка Python
Запуск кода Python
Строки
Списки
Словари
Коллекции
Типы числовых данных
Форматирование печати
Функции
Встроенные функции
Отладка и обработка ошибок
Модули
Внешние Модули
Объектно-ориентированное программирование
Наследование
Полиморфизм
Файловый ввод / вывод
Продвинутые Методы
Модульные тесты
И многое другое!

Дополнительная информация:

Удалена звуковая и видео реклама из некоторых видеоуроков, качество видео и звука не изменялось.

История обновлений:

10.11.2019
Добавлены недостающие уроки(модуль 16. Работа с базой данных и д.р.)

Раздача ведётся путём добавления новых файлов:

Раздача ведётся путём добавления новых файлов; при каждом добавлении создаётся новый торрент. Чтобы начать докачку новых файлов, пользователям необходимо сделать следующее:
(1) остановить скачивание,
(2) удалить старый торрент у себя из клиента (имеющиеся файлы удалять не надо),
(3) скачать новый торрент и запустить его у себя в клиенте вместо старого, при этом указать клиенту путь в старую папку, куда и должно происходить скачивание новых файлов.
Ваш клиент при этом должен произвести хеширование (проверку) старой папки (если не производит сам - помогите ему сделать это), и будет докачивать только те файлы, которых у вас ещё нет. Старые файлы при этом не удаляются, а продолжают раздаваться!
Eсли вы уже удалили старые файлы, то предотвратить повторную закачку старых файлов можно, отжав галочку в соответствующих местах при запуске нового торрента. По возможности, желательно не удалять старые файлы как можно дольше, чтобы релизёр не только продолжал раздавать старые файлы, а смог сконцентрироваться на новых.
Скриншоты:
       

Clavik

Post 10-Nov-2019 18:39

[Quote]

Udemy | Современный JavaScript с нуля на реальных проектах (2019) PCRec [H.264/720p-LQ] - Автор (режиссер): Denys Mescheryakov
Производство: Udemy
Жанр: Программирование, JavaScript
Описание:
Курс по JavaScript для начинающих с подробным изучением фундаментальных основ и применением их на реальных проектах.
JavaScript — это стремительно развивающийся язык с большим сообществом. Без него не обходится не один сайт в интернете. JavaScript дает вам множество путей для развития. Зная этот язык, вы можете в будущем изучать различные фреймворки Angular, Vue, React, серверную разработку на Node.js, мобильную разработку React Native, Ionic.
Продолжительность: 33:58:41
Качество видео: PCRec
Видео: AVC/H.264, 1280x720, ~560 - 920 Kbps
Аудио: AAC, 2 ch, 128 Kbps

MediaInfo:

General
Complete name : C:\Users\User\Downloads\[Udemy] Современный JavaScript с нуля на реальных проектах\02 DOM Манипуляция элементами и события\028 Всплытие и погружение события.mp4
Format : MPEG-4
Format profile : Base Media
Codec ID : isom (isom/iso2/avc1/mp41)
File size : 80.2 MiB
Duration : 10 min 37 s
Overall bit rate : 1 056 kb/s
Writing application : Lavf58.12.100
Video
ID : 1
Format : AVC
Format/Info : Advanced Video Codec
Format profile : [url=mailto:Main@L3.1]Main@L3.1[/url]
Format settings : CABAC / 4 Ref Frames
Format settings, CABAC : Yes
Format settings, Reference : 4 frames
Codec ID : avc1
Codec ID/Info : Advanced Video Coding
Duration : 10 min 37 s
Bit rate : 920 kb/s
Nominal bit rate : 3 000 kb/s
Width : 1 280 pixels
Height : 720 pixels
Display aspect ratio : 16:9
Frame rate mode : Constant
Frame rate : 30.000 FPS
Color space : YUV
Chroma subsampling : 4:2:0
Bit depth : 8 bits
Scan type : Progressive
Bits/(Pixel*Frame) : 0.033
Stream size : 69.8 MiB (87%)
Writing library : x264 core 148
Encoding settings : cabac=1 / ref=3 / deblock=1:-1:-1 / analyse=0x1:0x111 / me=umh / subme=6 / psy=1 / psy_rd=1.00:0.15 / mixed_ref=1 / me_range=16 / chroma_me=1 / trellis=1 / 8x8dct=0 / cqm=0 / deadzone=21,11 / fast_pskip=1 / chroma_qp_offset=-3 / threads=22 / lookahead_threads=3 / sliced_threads=0 / nr=0 / decimate=1 / interlaced=0 / bluray_compat=0 / constrained_intra=0 / bframes=3 / b_pyramid=2 / b_adapt=1 / b_bias=0 / direct=1 / weightb=1 / open_gop=0 / weightp=2 / keyint=60 / keyint_min=6 / scenecut=0 / intra_refresh=0 / rc_lookahead=60 / rc=cbr / mbtree=1 / bitrate=3000 / ratetol=1.0 / qcomp=0.60 / qpmin=0 / qpmax=69 / qpstep=4 / vbv_maxrate=3000 / vbv_bufsize=6000 / nal_hrd=none / filler=0 / ip_ratio=1.40 / aq=1:1.00
Codec configuration box : avcC
Audio
ID : 2
Format : AAC LC
Format/Info : Advanced Audio Codec Low Complexity
Codec ID : mp4a-40-2
Duration : 10 min 37 s
Bit rate mode : Constant
Bit rate : 128 kb/s
Channel(s) : 2 channels
Channel layout : L R
Sampling rate : 48.0 kHz
Frame rate : 46.875 FPS (1024 SPF)
Compression mode : Lossy
Stream size : 9.72 MiB (12%)
Default : Yes
Alternate group : 1

Для кого этот курс:

для тех, кто никогда не изучал программирование, но хотел бы начать;
для начинающих веб-разработчиков;
для начинающих JavaScript-разработчиков;
если вы верстальщик и хотите прокачать свой уровень в JavaScript;
если вы чувствуете что вам не хватает фундаментальных знаний.

Что вас ждет?

Курс разбит на несколько частей в которых вас ждут несколько проектов, тесты, также под видео будут полезные ссылки, презентации и домашние задания, на которых вы сможете отработать полученные знания. Периодически будут выходить разборы домашних заданий.
1. В первой части вас ждет знакомство с фундаментальными основами JavaScript, 16 презентаций, в каждой по несколько домашних заданий а также 2 теста на закрепление пройденного материала.
2. Во второй части вас ждет знакомство с DOM, событиями, CSS variables, написание первого проекта TODO, 4 презентации и несколько домашних заданий.
3. В третьей части мы будем знакомиться с асинхронным JavaScript, Event loop, AJAX, CORS, JSON и напишем второй проект News App.
4. В четвертой части мы продолжим изучать асинхронный JavaScript, познакомимся с Promises, async/await и обработкой ошибок.
5. В пятой части мы познакомимся с основами ООП, прототипами, классами ES6 и наследованием.
6. В шестой части мы познакомимся с модулями import/export, webpack, инкапсуляцией и напишем третий проект Avia Tickets.
7. В седьмой части мы поговорим про аутентификацию и напишем четвертый проект Login Page. Также узнаем что такое интерсепторы.
8. В восьмой части мы будем знакомится с системой контроля версий GIT и Scrum.
9. В девятой части мы подробней познакомимся с Eslint, Husky, Git hooks.
10. В десятой части мы знакомимся с основами современного фреймворка VueJS.
11. В бонусной части будут видео про Chrome DevTools, вопросами которые спрашивают на собеседовании а также видео о том как начать работать на фрилансе.

История обновлений:

10.11.2019
Добавлены недостающие уроки

Раздача ведётся путём добавления новых файлов:

Раздача ведётся путём добавления новых файлов; при каждом добавлении создаётся новый торрент. Чтобы начать докачку новых файлов, пользователям необходимо сделать следующее:
(1) остановить скачивание,
(2) удалить старый торрент у себя из клиента (имеющиеся файлы удалять не надо),
(3) скачать новый торрент и запустить его у себя в клиенте вместо старого, при этом указать клиенту путь в старую папку, куда и должно происходить скачивание новых файлов.
Ваш клиент при этом должен произвести хеширование (проверку) старой папки (если не производит сам - помогите ему сделать это), и будет докачивать только те файлы, которых у вас ещё нет. Старые файлы при этом не удаляются, а продолжают раздаваться!
Eсли вы уже удалили старые файлы, то предотвратить повторную закачку старых файлов можно, отжав галочку в соответствующих местах при запуске нового торрента. По возможности, желательно не удалять старые файлы как можно дольше, чтобы релизёр не только продолжал раздавать старые файлы, а смог сконцентрироваться на новых.
Скриншоты:
       

Clavik

Post 05-Nov-2019 20:15

[Quote]

HTML Academy | Интенсивный онлайн‑курс Профессиональный PHP, уровень 1 (2018) PCRec [H.264]- Автор (режиссер): Кирилл Сенкевич
Производство: HTML Academy
Жанр: Программирование, PHP
Описание:
Интенсив рассчитан на новичков без навыков программирования. Для прохождения интенсива желательны навыки HTML и CSS, для получения которых достаточно пройти бесплатные интерактивные курсы на HTML Academy.
Продолжительность: 16:49:21
Качество видео: PCRec
Видео: AVC/H.264, 1400x808-1440x900, ~417-3098 Kbps
Аудио: AAC, 2 ch, 142-194 Kbps

Mediainfo:

Общее
Полное имя : .\00 Git\02 Как сделать репозиторий из любого проекта.mp4
Формат : MPEG-4
Профиль формата : Base Media
Идентификатор кодека : isom (mp41)
Размер файла : 139 Мбайт
Продолжительность : 7 м. 45 с.
Режим общего битрейта : Переменный
Общий поток : 2505 Кбит/сек
Дата кодирования : UTC 2018-02-07 19:27:47
Дата пометки : UTC 2018-02-07 19:27:47
Программа кодирования : BandiMp4Muxer 1.0
Видео
Идентификатор : 1
Формат : AVC
Формат/Информация : Advanced Video Codec
Профиль формата : [url=mailto:Main@L3.2]Main@L3.2[/url]
Настройки формата : CABAC / 1 Ref Frames
Параметр CABAC формата : Да
Параметр RefFrames формата : 1 кадр
Идентификатор кодека : avc1
Идентификатор кодека/Информация : Advanced Video Coding
Продолжительность : 7 м. 45 с.
Битрейт : 2321 Кбит/сек
Ширина : 1400 пикселей
Высота : 808 пикселей
Соотношение сторон : 1,733
Режим частоты кадров : Переменный
Частота кадров : 30,000 кадров/сек
Минимальная частота кадров : 15,000 кадров/сек
Максимальная частота кадров : 30,030 кадров/сек
Цветовое пространство : YUV
Субдискретизация насыщенности : 4:2:0
Битовая глубина : 8 бит
Тип развёртки : Прогрессивная
Бит/(Пиксели*Кадры) : 0.068
Размер потока : 129 Мбайт (93%)
Язык : English
Дата кодирования : UTC 2018-02-07 19:27:47
Дата пометки : UTC 2018-02-07 19:27:47
Аудио
Идентификатор : 2
Формат : AAC
Формат/Информация : Advanced Audio Codec
Профиль формата : LC
Идентификатор кодека : mp4a-40-2
Продолжительность : 7 м. 45 с.
Duration_LastFrame : -21 мс.
Вид битрейта : Переменный
Битрейт : 175 Кбит/сек
Максимальный битрейт : 325 Кбит/сек
Каналы : 2 канала
Расположение каналов : Front: L R
Частота : 48,0 КГц
Частота кадров : 46,875 кадров/сек (1024 SPF)
Метод сжатия : С потерями
Размер потока : 9,74 Мбайт (7%)
Язык : English
Дата кодирования : UTC 2018-02-07 19:27:47
Дата пометки : UTC 2018-02-07 19:27:47
Общее
Полное имя : .\05 Хранение состояния и аутентификация\05 Хранение состояния и аутентификация.mp4
Формат : MPEG-4
Профиль формата : Base Media
Идентификатор кодека : isom (mp41)
Размер файла : 507 Мбайт
Продолжительность : 1 ч. 40 м.
Режим общего битрейта : Переменный
Общий поток : 706 Кбит/сек
Дата кодирования : UTC 2018-03-15 10:47:54
Дата пометки : UTC 2018-03-15 10:47:54
Программа кодирования : BandiMp4Muxer 1.0
Видео
Идентификатор : 1
Формат : AVC
Формат/Информация : Advanced Video Codec
Профиль формата : [url=mailto:Main@L3.2]Main@L3.2[/url]
Настройки формата : CABAC / 1 Ref Frames
Параметр CABAC формата : Да
Параметр RefFrames формата : 1 кадр
Идентификатор кодека : avc1
Идентификатор кодека/Информация : Advanced Video Coding
Продолжительность : 1 ч. 40 м.
Битрейт : 504 Кбит/сек
Ширина : 1424 пикселя
Высота : 824 пикселя
Соотношение сторон : 1,728
Режим частоты кадров : Переменный
Частота кадров : 30,000 кадров/сек
Минимальная частота кадров : 14,993 кадров/сек
Максимальная частота кадров : 30,030 кадров/сек
Цветовое пространство : YUV
Субдискретизация насыщенности : 4:2:0
Битовая глубина : 8 бит
Тип развёртки : Прогрессивная
Бит/(Пиксели*Кадры) : 0.014
Размер потока : 362 Мбайт (71%)
Язык : English
Дата кодирования : UTC 2018-03-15 10:47:54
Дата пометки : UTC 2018-03-15 10:47:54
Аудио
Идентификатор : 2
Формат : AAC
Формат/Информация : Advanced Audio Codec
Профиль формата : LC
Идентификатор кодека : mp4a-40-2
Продолжительность : 1 ч. 40 м.
Duration_LastFrame : -21 мс.
Вид битрейта : Переменный
Битрейт : 192 Кбит/сек
Максимальный битрейт : 286 Кбит/сек
Каналы : 2 канала
Расположение каналов : Front: L R
Частота : 48,0 КГц
Частота кадров : 46,875 кадров/сек (1024 SPF)
Метод сжатия : С потерями
Размер потока : 139 Мбайт (27%)
Язык : English
Дата кодирования : UTC 2018-03-15 10:47:54
Дата пометки : UTC 2018-03-15 10:47:54
Общее
Полное имя : .\03 Шаблонизация и организация кода\03 Шаблонизация и организация кода.mp4
Формат : MPEG-4
Профиль формата : Base Media
Идентификатор кодека : isom (mp41)
Размер файла : 501 Мбайт
Продолжительность : 1 ч. 39 м.
Режим общего битрейта : Переменный
Общий поток : 707 Кбит/сек
Дата кодирования : UTC 2018-02-10 11:22:14
Дата пометки : UTC 2018-02-10 11:22:14
Программа кодирования : BandiMp4Muxer 1.0
Видео
Идентификатор : 1
Формат : AVC
Формат/Информация : Advanced Video Codec
Профиль формата : [url=mailto:Main@L3.2]Main@L3.2[/url]
Настройки формата : CABAC / 1 Ref Frames
Параметр CABAC формата : Да
Параметр RefFrames формата : 1 кадр
Идентификатор кодека : avc1
Идентификатор кодека/Информация : Advanced Video Coding
Продолжительность : 1 ч. 39 м.
Битрейт : 504 Кбит/сек
Ширина : 1432 пикселя
Высота : 828 пикселей
Соотношение сторон : 1,729
Режим частоты кадров : Переменный
Частота кадров : 30,000 кадров/сек
Минимальная частота кадров : 14,993 кадров/сек
Максимальная частота кадров : 30,030 кадров/сек
Цветовое пространство : YUV
Субдискретизация насыщенности : 4:2:0
Битовая глубина : 8 бит
Тип развёртки : Прогрессивная
Бит/(Пиксели*Кадры) : 0.014
Размер потока : 358 Мбайт (71%)
Язык : English
Дата кодирования : UTC 2018-02-10 11:22:14
Дата пометки : UTC 2018-02-10 11:22:14
Аудио
Идентификатор : 2
Формат : AAC
Формат/Информация : Advanced Audio Codec
Профиль формата : LC
Идентификатор кодека : mp4a-40-2
Продолжительность : 1 ч. 39 м.
Duration_LastFrame : -21 мс.
Вид битрейта : Переменный
Битрейт : 192 Кбит/сек
Максимальный битрейт : 286 Кбит/сек
Каналы : 2 канала
Расположение каналов : Front: L R
Частота : 48,0 КГц
Частота кадров : 46,875 кадров/сек (1024 SPF)
Метод сжатия : С потерями
Размер потока : 138 Мбайт (27%)
Язык : English
Дата кодирования : UTC 2018-02-10 11:22:14
Дата пометки : UTC 2018-02-10 11:22:14
Общее
Полное имя : .\02 Стандартные API\02 Стандартные API.mp4
Формат : MPEG-4
Профиль формата : Base Media
Идентификатор кодека : isom (mp41)
Размер файла : 530 Мбайт
Продолжительность : 1 ч. 53 м.
Режим общего битрейта : Переменный
Общий поток : 655 Кбит/сек
Дата кодирования : UTC 2018-02-03 09:27:28
Дата пометки : UTC 2018-02-03 09:27:28
Программа кодирования : BandiMp4Muxer 1.0
Видео
Идентификатор : 1
Формат : AVC
Формат/Информация : Advanced Video Codec
Профиль формата : Main@L4
Настройки формата : CABAC / 1 Ref Frames
Параметр CABAC формата : Да
Параметр RefFrames формата : 1 кадр
Идентификатор кодека : avc1
Идентификатор кодека/Информация : Advanced Video Coding
Продолжительность : 1 ч. 53 м.
Битрейт : 456 Кбит/сек
Ширина : 1440 пикселей
Высота : 900 пикселей
Соотношение сторон : 16:10
Режим частоты кадров : Переменный
Частота кадров : 30,000 кадров/сек
Минимальная частота кадров : 14,993 кадров/сек
Максимальная частота кадров : 30,030 кадров/сек
Цветовое пространство : YUV
Субдискретизация насыщенности : 4:2:0
Битовая глубина : 8 бит
Тип развёртки : Прогрессивная
Бит/(Пиксели*Кадры) : 0.012
Размер потока : 369 Мбайт (70%)
Язык : English
Дата кодирования : UTC 2018-02-03 09:27:28
Дата пометки : UTC 2018-02-03 09:27:28
Аудио
Идентификатор : 2
Формат : AAC
Формат/Информация : Advanced Audio Codec
Профиль формата : LC
Идентификатор кодека : mp4a-40-2
Продолжительность : 1 ч. 53 м.
Duration_LastFrame : -21 мс.
Вид битрейта : Переменный
Битрейт : 192 Кбит/сек
Максимальный битрейт : 286 Кбит/сек
Каналы : 2 канала
Расположение каналов : Front: L R
Частота : 48,0 КГц
Частота кадров : 46,875 кадров/сек (1024 SPF)
Метод сжатия : С потерями
Размер потока : 155 Мбайт (29%)
Язык : English
Дата кодирования : UTC 2018-02-03 09:27:28
Дата пометки : UTC 2018-02-03 09:27:28

Программа курса

Раздел 1: Знакомство
– Знакомство с интенсивом
– Учебный и личные проекты
– Что такое PHP
– Как установить и настроить PHP-окружение
– Основы синтаксиса языка
– Описание рабочего процесса
Раздел 2: Массивы и функции
– Что такое массивы
– Практика работы с массивами
– Циклы
– Обход массивов
– Стандартная библиотека PHP
– Пишем свои функции
– Отладка кода
– PhpStorm - среда разработки для PHP
Раздел 3: Шаблонизация и организация кода
– Как работать с датой и временем
– Подключение файлов в PHP-сценариях
– Как организовывать код в проекте
–Шаблонизация: отделение логики от интерфейса
– Буферизация вывода
– Боремся с XSS-атаками (межсайтовый скриптинг)
Раздел 4: Формы и протокол HTTP
– Протокол HTTP
– Работа с заголовками из PHP
– Параметры запроса
– Методы GET и POST
– Формы: отправка данных на сервер
– Отправка файлов
– Валидация форм
Раздел 5: Хранение состояния и аутентификация
– Проблема хранения состояния в вебе
– Cookies (куки)
– Сессии
– Что такое аутентификация
– Правильное хранение паролей
– Организуем вход на сайт
Раздел 6: Базы данных. Теория
– что такое База Данных (БД)
– как БД хранят информацию
– понятие реляционных БД
– анализ и проектирование БД
– язык запросов SQL
– MySQL: установка и запуск
– как строить запросы: основные операции
– живая демонстрация
Раздел 7: MySQL и PHP
– поддержка MySQL в PHP
– подключение к БД из PHP-сценария
– выполнение SQL-запросов
– получение результата запроса из MySQL
– обработка ошибок
– безопасность при выполнении запросов
– подготовленные выражения
– интерактивные демонстрации
Раздел 8: Дополнительная практика MySQL
– полнотекстовый поиск
– пагинация результатов
– транзакции
– кэширование данных
– функции даты/времени в MySQL
Раздел 9: Чужой код
– что такое объект
– демонстрация работы с объектами
– что такое библиотека
– пакетный менеджер Composer
– обзор популярных библиотек
– демонстрация работы с Composer
– документирование кода
Раздел 10: Финал
– статистика интенсива
– организационная информация
– что изучать дальше?
– разбор нерассмотренных тем
– как искать работу и составить резюме

Дополнительная информация:

В раздаче имеются архивы! В них содержится код из репозитория курса.

История обновлений:

05.11.2019 торрент файл обновлен
- добавлен архив "projects-php" (исходники проектов)

Раздача ведётся путём добавления новых файлов:

Раздача ведётся путём добавления новых файлов; при каждом добавлении создаётся новый торрент. Чтобы начать докачку новых файлов, пользователям необходимо сделать следующее:
(1) остановить скачивание,
(2) удалить старый торрент у себя из клиента (имеющиеся файлы удалять не надо),
(3) скачать новый торрент и запустить его у себя в клиенте вместо старого, при этом указать клиенту путь в старую папку, куда и должно происходить скачивание новых файлов.
Ваш клиент при этом должен произвести хеширование (проверку) старой папки (если не производит сам - помогите ему сделать это), и будет докачивать только те файлы, которых у вас ещё нет. Старые файлы при этом не удаляются, а продолжают раздаваться!
Eсли вы уже удалили старые файлы, то предотвратить повторную закачку старых файлов можно, отжав галочку в соответствующих местах при запуске нового торрента. По возможности, желательно не удалять старые файлы как можно дольше, чтобы релизёр не только продолжал раздавать старые файлы, а смог сконцентрироваться на новых.
Скриншоты:
       

Clavik

Post 05-Nov-2019 20:13

[Quote]

Владилен Минин | React JS с Нуля до Профи. Полное руководство (2019) PCRec [H.264/720p-LQ] - Автор (режиссер): Владилен Минин
Производство: Udemy
Жанр: Программирование, JavaScript, React.js, Redux
Описание:
При правильном использовании инструкций и приемов из курса, вы на наглядных примерах с полного нуля научитесь создавать динамические, реактивные, полностью адаптивные SPA-приложения и веб-сайты на библиотеке React.js.
Продолжительность: 39:22:12
Качество видео: PCRec
Видео: AVC/H.264, 1280x720, ~453-1485 Kbps
Аудио: AAC, 2 ch, 127-128 Kbps

MediaInfo:

Общее
Полное имя : .\18. Бонус. EcmaScript 6\7. Rest и Spread операторы.mp4
Формат : MPEG-4
Профиль формата : Base Media
Идентификатор кодека : isom (isom/iso2/avc1/mp41)
Размер файла : 53,9 Мбайт
Продолжительность : 8 м. 36 с.
Общий поток : 875 Кбит/сек
Программа кодирования : Lavf58.12.100
Видео
Идентификатор : 1
Формат : AVC
Формат/Информация : Advanced Video Codec
Профиль формата : [url=mailto:Main@L3.1]Main@L3.1[/url]
Настройки формата : CABAC / 4 Ref Frames
Параметр CABAC формата : Да
Параметр RefFrames формата : 4 кадра
Идентификатор кодека : avc1
Идентификатор кодека/Информация : Advanced Video Coding
Продолжительность : 8 м. 36 с.
Битрейт : 739 Кбит/сек
Номинальный битрейт : 3000 Кбит/сек
Ширина : 1280 пикселей
Высота : 720 пикселей
Соотношение сторон : 16:9
Режим частоты кадров : Постоянный
Частота кадров : 30,000 кадров/сек
Цветовое пространство : YUV
Субдискретизация насыщенности : 4:2:0
Битовая глубина : 8 бит
Тип развёртки : Прогрессивная
Бит/(Пиксели*Кадры) : 0.027
Размер потока : 45,5 Мбайт (84%)
Библиотека кодирования : x264 core 148
Настройки программы : cabac=1 / ref=3 / deblock=1:-1:-1 / analyse=0x1:0x111 / me=umh / subme=6 / psy=1 / psy_rd=1.00:0.15 / mixed_ref=1 / me_range=16 / chroma_me=1 / trellis=1 / 8x8dct=0 / cqm=0 / deadzone=21,11 / fast_pskip=1 / chroma_qp_offset=-3 / threads=22 / lookahead_threads=3 / sliced_threads=0 / nr=0 / decimate=1 / interlaced=0 / bluray_compat=0 / constrained_intra=0 / bframes=3 / b_pyramid=2 / b_adapt=1 / b_bias=0 / direct=1 / weightb=1 / open_gop=0 / weightp=2 / keyint=60 / keyint_min=6 / scenecut=0 / intra_refresh=0 / rc_lookahead=60 / rc=cbr / mbtree=1 / bitrate=3000 / ratetol=1.0 / qcomp=0.60 / qpmin=0 / qpmax=69 / qpstep=4 / vbv_maxrate=3000 / vbv_bufsize=6000 / nal_hrd=none / filler=0 / ip_ratio=1.40 / aq=1:1.00
Codec configuration box : avcC
Аудио
Идентификатор : 2
Формат : AAC LC
Формат/Информация : Advanced Audio Codec Low Complexity
Идентификатор кодека : mp4a-40-2
Продолжительность : 8 м. 36 с.
Вид битрейта : Постоянный
Битрейт : 128 Кбит/сек
Каналы : 2 канала
ChannelLayout : L R
Частота : 44,1 КГц
Частота кадров : 43,066 кадра/сек (1024 SPF)
Метод сжатия : С потерями
Размер потока : 7,89 Мбайт (15%)
Default : Да
AlternateGroup/String : 1

Дополнительная информация:

В раздаче имеются архивы! В них содержится код из репозитория курса.
Скриншоты:
     

Clavik

Post 05-Nov-2019 20:12

[Quote]

jsexpert | Фундаментальный Node.js (2018) PCRec [H.264/720p-LQ] - Автор (режиссер): Александр Кириченко
Производство: jsexpert
Жанр: Программирование, Node.js, Express, MongoDB, Mongoose
Описание:
В процессе обучения вы пошагово реализуете корпоративный портал вымышленной компании, который будет включать в себя: профиль пользователя, ленту новостей, чат, фотогалерею и многое другое.
Вы будете работать над backend частью портала и с каждым домашним заданием реализовывать следующую часть функционала. В результате - полноценное приложение, в котором backend написан на Node.js с использованием фреймворка Express. База данных - MongoDB, с которой мы будем взаимодействовать с помощью библиотеки Mongoose.
Продолжительность: 08:06:30
Качество видео: PCRec
Видео: AVC/H.264, 1280x720, ~116-393 Kbps
Аудио: AAC, 2 ch, 136-137 Kbps

MediaInfo:

Общее
Полное имя : .\22 REST-API security.mp4
Формат : MPEG-4
Профиль формата : Base Media
Идентификатор кодека : isom (isom/iso2/avc1/mp41)
Размер файла : 78,6 Мбайт
Продолжительность : 26 м. 18 с.
Общий поток : 418 Кбит/сек
Программа кодирования : Lavf58.12.100
Видео
Идентификатор : 1
Формат : AVC
Формат/Информация : Advanced Video Codec
Профиль формата : [url=mailto:High@L3.2]High@L3.2[/url]
Настройки формата : CABAC / 5 Ref Frames
Параметр CABAC формата : Да
Параметр RefFrames формата : 5 кадров
Идентификатор кодека : avc1
Идентификатор кодека/Информация : Advanced Video Coding
Продолжительность : 26 м. 18 с.
Битрейт : 274 Кбит/сек
Ширина : 1280 пикселей
Высота : 720 пикселей
Соотношение сторон : 16:9
Режим частоты кадров : Переменный
Частота кадров : 29,970 (30000/1001) кадров/сек
Минимальная частота кадров : 10,000 кадров/сек
Максимальная частота кадров : 30000,000 кадров/сек
Цветовое пространство : YUV
Субдискретизация насыщенности : 4:2:0
Битовая глубина : 8 бит
Тип развёртки : Прогрессивная
Бит/(Пиксели*Кадры) : 0.010
Размер потока : 51,5 Мбайт (66%)
Библиотека кодирования : x264 core 157 r10 545de2f
Настройки программы : cabac=1 / ref=5 / deblock=1:0:0 / analyse=0x3:0x113 / me=hex / subme=8 / psy=1 / psy_rd=1.00:0.00 / mixed_ref=1 / me_range=16 / chroma_me=1 / trellis=2 / 8x8dct=1 / cqm=0 / deadzone=21,11 / fast_pskip=1 / chroma_qp_offset=-2 / threads=22 / lookahead_threads=3 / sliced_threads=0 / nr=0 / decimate=1 / interlaced=0 / bluray_compat=0 / stitchable=1 / constrained_intra=0 / bframes=3 / b_pyramid=2 / b_adapt=2 / b_bias=0 / direct=3 / weightb=1 / open_gop=0 / weightp=2 / keyint=infinite / keyint_min=29 / scenecut=40 / intra_refresh=0 / rc_lookahead=50 / rc=crf / mbtree=1 / crf=20.0 / qcomp=0.60 / qpmin=5 / qpmax=69 / qpstep=4 / vbv_maxrate=2750 / vbv_bufsize=7500 / crf_max=0.0 / nal_hrd=none / filler=0 / ip_ratio=1.40 / aq=1:1.00
Цветовой диапазон : Limited
Основные цвета : BT.709
Характеристики трансфера : BT.709
Коэффициенты матрицы : BT.709
Codec configuration box : avcC
Аудио
Идентификатор : 2
Формат : AAC LC
Формат/Информация : Advanced Audio Codec Low Complexity
Идентификатор кодека : mp4a-40-2
Продолжительность : 26 м. 18 с.
Вид битрейта : Постоянный
Битрейт : 137 Кбит/сек
Каналы : 2 канала
ChannelLayout : L R
Частота : 48,0 КГц
Частота кадров : 46,875 кадров/сек (1024 SPF)
Метод сжатия : С потерями
Размер потока : 25,8 Мбайт (33%)
Default : Да
AlternateGroup/String : 1
Скриншоты:
       

Clavik

Post 27-Oct-2019 23:11

[Quote]

Movie Park | Видеокурс по видеопродакшену, съёмке, монтажу (2018) CamRip [H.264/1080p-LQ] - Автор (режиссер): Movie Park
Жанр: Обучающее
Описание:
В этом видеокурсе Вы научитесь снимать, узнаете на какую технику. Узнаете как собрать команду и выстроить работу. Поймёте как развиваться и находить заказчиков по всему миру. После этого вы сможете самостоятельно разработать и снять рекламный ролик. От начала до конца. Узнаете все фишки рекламного видеопроизводства.
Продолжительность: 16:46:41
Качество видео: CamRip
Видео: AVC/H.264, 1920x1080, ~2616 Kbps
Аудио: AAC, 2 ch, 256 Kbps

MediaInfo:

Общее
Полное имя : Видеокурс по видеопродакшену, съёмке, монтажу\01. MK Movie Park ч.1.MP4
Формат : MPEG-4
Профиль формата : Base Media / Version 2
Идентификатор кодека : mp42 (mp42/mp41/isom/avc1)
Размер файла : 5,73 Гбайт
Продолжительность : 4 ч. 45 м.
Режим общего битрейта : Переменный
Общий поток : 2876 Кбит/сек
Дата кодирования : UTC 2018-03-18 20:57:37
Дата пометки : UTC 2018-03-18 20:57:37
Видео
Идентификатор : 1
Формат : AVC
Формат/Информация : Advanced Video Codec
Профиль формата : High@L4
Настройки формата : CABAC / 5 Ref Frames
Параметр CABAC формата : Да
Параметр RefFrames формата : 5 кадров
Идентификатор кодека : avc1
Идентификатор кодека/Информация : Advanced Video Coding
Продолжительность : 4 ч. 45 м.
Битрейт : 2616 Кбит/сек
Ширина : 1920 пикселей
Высота : 1080 пикселей
Соотношение сторон : 16:9
Режим частоты кадров : Постоянный
Частота кадров : 25,000 кадров/сек
Цветовое пространство : YUV
Субдискретизация насыщенности : 4:2:0
Битовая глубина : 8 бит
Тип развёртки : Прогрессивная
Бит/(Пиксели*Кадры) : 0.050
Размер потока : 5,21 Гбайт (91%)
Библиотека кодирования : x264 core 155 r10 7d0ff22
Настройки программы : cabac=1 / ref=5 / deblock=1:0:0 / analyse=0x3:0x113 / me=hex / subme=8 / psy=1 / psy_rd=1.00:0.00 / mixed_ref=1 / me_range=16 / chroma_me=1 / trellis=2 / 8x8dct=1 / cqm=0 / deadzone=21,11 / fast_pskip=1 / chroma_qp_offset=-2 / threads=34 / lookahead_threads=5 / sliced_threads=0 / nr=0 / decimate=1 / interlaced=0 / bluray_compat=0 / stitchable=1 / constrained_intra=0 / bframes=3 / b_pyramid=2 / b_adapt=2 / b_bias=0 / direct=3 / weightb=1 / open_gop=0 / weightp=2 / keyint=infinite / keyint_min=25 / scenecut=40 / intra_refresh=0 / rc_lookahead=50 / rc=crf / mbtree=1 / crf=20.0 / qcomp=0.60 / qpmin=5 / qpmax=69 / qpstep=4 / vbv_maxrate=5500 / vbv_bufsize=15000 / crf_max=0.0 / nal_hrd=none / filler=0 / ip_ratio=1.40 / aq=1:1.00
Дата кодирования : UTC 2018-03-18 20:57:37
Дата пометки : UTC 2018-03-18 20:57:37
Цветовой диапазон : Limited
Основные цвета : BT.709
Характеристики трансфера : BT.709
Коэффициенты матрицы : BT.709
Аудио
Идентификатор : 2
Формат : AAC
Формат/Информация : Advanced Audio Codec
Профиль формата : LC
Идентификатор кодека : mp4a-40-2
Продолжительность : 4 ч. 45 м.
Вид битрейта : Переменный
Битрейт : 256 Кбит/сек
Каналы : 2 канала
Расположение каналов : Front: L R
Частота : 48,0 КГц
Частота кадров : 46,875 кадров/сек (1024 SPF)
Метод сжатия : С потерями
Размер потока : 522 Мбайт (9%)
Дата кодирования : UTC 2018-03-18 20:57:37
Дата пометки : UTC 2018-03-18 20:57:37

Содержание курса:

Первый день
Знакомство
Как создать команду, совместную работу
Поиск коммерческих заказов
Переговоры с заказчиком
Работа с брендами
Как продавать за 400 то что вы снимаете за 40
Создание идеи и сценария
Раскадровка
Организация съемочного процесса, создание организационного списка
Как путешествовать, снимать по всему миру за хорошие деньги
Формирование цены на коммерческом рынке
Методы продвижения
Выбор оборудования
Аэросъемка
Второй день
запись интервью
запись звука
Настройка камеры перед съемкой.
Постановочная / рекламная съемка
Репортажная съемка в команде.
Монтаж видео
Режиссура монтажа
Линейный монтаж
Делаем кинокартинку на посте
Компоузинг в коммерческом видео.
Очистить UP
Мастеринг Звука
Саунд Дизайн
Цветокоррекция
Видеокурс по видеопродакшену, съёмке, монтажу

Дополнительная информация

Внимание! В раздаче присутствуют дополнительные материалы.
Скриншоты:
       

Clavik

Post 14-Oct-2019 20:04

[Quote]

Михаил Русаков | Создание крупного проекта на Java с нуля (2019) [unpacked] - Автор (режиссер): Михаил Русаков
Жанр: Видеокурс
Системные требования:
• Операционная система Microsoft Windows 98/Me/200/XP/Vista/7/10
• Процессор Pentium II 500 Мгц
• 128 Мб оперативной памяти
• Разрешение экрана 1024x768 с глубиной цвета 16 бит

Формат: unpacked
Описание:
Вы уже знакомы с языком Java, но ещё не знаете, как пишутся крупные программы на нём? Тогда Вы попали по адресу!
В этом курсе Вы увидите создание крупного проекта на Java с нуля.
Если кратко, то это программа для ведения домашней бухгалтерии. Лично я её веду где-то с 2009-го года (хотя сейчас уже точно не помню), и рекомендую её вести абсолютно всем, если хотите, чтобы у Вас был в финансах всегда полный порядок. И я посчитал, что создание такой программы будет отличным примером написания сложных проектов на Java.
Продолжительность: 67 уроков общей продолжительностью 16 часов
Качество видео: PCRec
Видео: AVC/H.264, 1764х990, ~216 Kbps
Аудио: AAC, 2 ch, 160 Kbps

MediaInfo:

General
Complete name : Создание крупного проекта на Java с нуля [Михаил Русаков]\lessons\Lesson_1_1\Lesson_1_1.mp4
Format : MPEG-4
Format profile : Base Media
Codec ID : isom (isom/iso2/avc1/mp41)
File size : 21.8 MiB
Duration : 9 min 0 s
Overall bit rate : 338 kb/s
Writing application : Lavf58.9.100
Video
ID : 1
Format : AVC
Format/Info : Advanced Video Codec
Format profile : Baseline@L4
Format settings : 1 Ref Frames
Format settings, CABAC : No
Format settings, Reference : 1 frame
Codec ID : avc1
Codec ID/Info : Advanced Video Coding
Duration : 9 min 0 s
Bit rate : 216 kb/s
Width : 1 764 pixels
Height : 990 pixels
Display aspect ratio : 16:9
Frame rate : 24.000 FPS
Color space : YUV
Chroma subsampling : 4:2:0
Bit depth : 8 bits
Scan type : Progressive
Bits/(Pixel*Frame) : 0.005
Stream size : 11.2 MiB (51%)
Writing library : x264 core 148
Encoding settings : cabac=0 / ref=1 / deblock=1:0:0 / analyse=0x1:0x111 / me=dia / subme=2 / psy=1 / psy_rd=1.00:0.00 / mixed_ref=0 / me_range=16 / chroma_me=1 / trellis=0 / 8x8dct=0 / cqm=0 / deadzone=21,11 / fast_pskip=1 / chroma_qp_offset=0 / threads=1 / lookahead_threads=1 / sliced_threads=0 / nr=0 / decimate=1 / interlaced=0 / bluray_compat=0 / constrained_intra=0 / bframes=0 / weightp=0 / keyint=250 / keyint_min=24 / scenecut=40 / intra_refresh=0 / rc=cqp / mbtree=0 / qp=27 / ip_ratio=1.40 / aq=0
Codec configuration box : avcC
Audio
ID : 2
Format : AAC LC
Format/Info : Advanced Audio Codec Low Complexity
Codec ID : mp4a-40-2
Duration : 9 min 0 s
Bit rate mode : Constant
Bit rate : 160 kb/s
Channel(s) : 2 channels
Channel layout : L R
Sampling rate : 44.1 kHz
Frame rate : 43.066 FPS (1024 SPF)
Compression mode : Lossy
Stream size : 10.3 MiB (47%)
Default : Yes
Alternate group : 1

Что нужно знать для успешного прохождения курса?:

Для успешного прохождения курса обязательно нужно знать основы языка Java.
И если Вы считаете, что ещё недостаточно хорошо его знаете, либо не знаете его вовсе, то сначала нужно пройти курс «Программирование на Java с Нуля до Гуру» (разумеется, выполнив также упражнения из него). Видеокурс «Программирование на Java с Нуля до Гуру» — это 15 часов видеоуроков, в которых с нуля объясняется и показывается процесс написания программ на Java. В курсе Вы получите всю необходимую теорию, а также увидите множество практических примеров, в том числе, и из моей личной практики. Так же в одном из Бонусов к курсу Вы познакомитесь и научитесь использовать 9 важнейших паттернов проектирования.

Бонус

Добавление мультиязычности в программе на Java
В данных уроках Вы увидите, как я добавляю английский язык в программу из основного курса. Вы увидите, каков вообще механизм добавления языка, как добавляются и обрабатываются новые пункты меню, как сохранять настройки программы в отдельный файл, чтобы при её перезапуске язык оставался таким, каким его указал пользователь в последний раз. Эта система действительно универсальна, и Вы сможете её с минимальными изменениями копировать в любую другую программу, где требуется мультиязычность. И значительную часть копировать туда, где, в принципе, есть настройки программы, которые нужно сохранять при её закрытии.
Скриншоты:
       

Clavik

Post 14-Oct-2019 17:28

[Quote]

Маковецкий Сергей и др. | Motion–дизайн в Adobe After Affects (2019) PCRec [H.264]- Автор (режиссер): Маковецкий Сергей, Буряк Валентин, Еждин Александр
Жанр: Adobe After Effects, обучающее видео
Описание:
Motion-дизайн в Adobe After Effects — это уникальный курс, основанный на систематизированных материалах и огромном практическом опыте преподавателей.
Продолжительность: 35:28:07
Качество видео: PCRec
Видео: AVC/H.264, 1280x720-1920x1080, ~372Kbps
Аудио: AAC, 2 ch, 317 Kbps

MediaInfo:

Формат                                   : MPEG-4
Профиль формата : Base Media / Version 2
Идентификатор кодека : mp42 (mp42/mp41)
Размер файла : 4,35 Мбайт
Продолжительность : 9 с. 877 мс.
Общий поток : 3698 Кбит/сек
Дата кодирования : UTC 2018-09-19 08:29:05
Дата пометки : UTC 2018-09-19 08:41:30
TIM : 00;00;00;00
TSC : 30000
TSZ : 1001
Видео
Идентификатор : 1
Формат : AVC
Формат/Информация : Advanced Video Codec
Профиль формата : [url=mailto:Main@L4.1]Main@L4.1[/url]
Настройки формата : CABAC / 4 Ref Frames
Параметр CABAC формата : Да
Параметр RefFrames формата : 4 кадра
Параметр GOP формата : M=4, N=29
Идентификатор кодека : avc1
Идентификатор кодека/Информация : Advanced Video Coding
Продолжительность : 9 с. 877 мс.
Битрейт : 3348 Кбит/сек
Ширина : 1920 пикселей
Высота : 1080 пикселей
Соотношение сторон : 16:9
Режим частоты кадров : Постоянный
Частота кадров : 29,970 (30000/1001) кадров/сек
Цветовое пространство : YUV
Субдискретизация насыщенности : 4:2:0
Битовая глубина : 8 бит
Тип развёртки : Прогрессивная
Бит/(Пиксели*Кадры) : 0.054
Размер потока : 3,94 Мбайт (91%)
Язык : English
Дата кодирования : UTC 2018-09-19 08:29:21
Дата пометки : UTC 2018-09-19 08:29:21
Цветовой диапазон : Limited
Основные цвета : BT.709
Характеристики трансфера : BT.709
Коэффициенты матрицы : BT.709
Codec configuration box : avcC
Аудио
Идентификатор : 2
Формат : AAC LC
Формат/Информация : Advanced Audio Codec Low Complexity
Идентификатор кодека : mp4a-40-2
Продолжительность : 9 с. 877 мс.
Продолжительность оригинала : 9 с. 856 мс.
Вид битрейта : Постоянный
Номинальный битрейт : 317 Кбит/сек
Каналы : 2 канала
ChannelLayout : L R
Частота : 48,0 КГц
Частота кадров : 46,875 кадров/сек (1024 SPF)
Метод сжатия : С потерями
Размер потока оригинала : 382 Кбайт (9%)
Язык : English
Дата кодирования : UTC 2018-09-19 08:30:06
Дата пометки : UTC 2018-09-19 08:30:06
Формат : MPEG-4
Профиль формата : Base Media / Version 2
Идентификатор кодека : mp42 (mp42/mp41/isom/avc1)
Размер файла : 306 Мбайт
Продолжительность : 1 ч. 15 м.
Режим общего битрейта : Переменный
Общий поток : 563 Кбит/сек
Дата кодирования : UTC 2018-09-14 13:13:53
Дата пометки : UTC 2018-09-14 13:13:53
Видео
Идентификатор : 1
Формат : AVC
Формат/Информация : Advanced Video Codec
Профиль формата : High@L4
Настройки формата : CABAC / 5 Ref Frames
Параметр CABAC формата : Да
Параметр RefFrames формата : 5 кадров
Идентификатор кодека : avc1
Идентификатор кодека/Информация : Advanced Video Coding
Продолжительность : 1 ч. 15 м.
Битрейт : 421 Кбит/сек
Ширина : 1680 пикселей
Высота : 1048 пикселей
Соотношение сторон : 16:10
Режим частоты кадров : Постоянный
Частота кадров : 30,000 кадров/сек
Цветовое пространство : YUV
Субдискретизация насыщенности : 4:2:0
Битовая глубина : 8 бит
Тип развёртки : Прогрессивная
Бит/(Пиксели*Кадры) : 0.008
Размер потока : 229 Мбайт (75%)
Библиотека кодирования : x264 core 157 r10M 303c484
Настройки программы : cabac=1 / ref=5 / deblock=1:0:0 / analyse=0x3:0x113 / me=hex / subme=8 / psy=1 / psy_rd=1.00:0.00 / mixed_ref=1 / me_range=16 / chroma_me=1 / trellis=2 / 8x8dct=1 / cqm=0 / deadzone=21,11 / fast_pskip=1 / chroma_qp_offset=-2 / threads=33 / lookahead_threads=5 / sliced_threads=0 / nr=0 / decimate=1 / interlaced=0 / bluray_compat=0 / stitchable=1 / constrained_intra=0 / bframes=3 / b_pyramid=2 / b_adapt=2 / b_bias=0 / direct=3 / weightb=1 / open_gop=0 / weightp=2 / keyint=infinite / keyint_min=30 / scenecut=40 / intra_refresh=0 / rc_lookahead=50 / rc=crf / mbtree=1 / crf=20.0 / qcomp=0.60 / qpmin=5 / qpmax=69 / qpstep=4 / vbv_maxrate=5500 / vbv_bufsize=15000 / crf_max=0.0 / nal_hrd=none / filler=0 / ip_ratio=1.40 / aq=1:1.00
Дата кодирования : UTC 2018-09-14 13:13:53
Дата пометки : UTC 2018-09-14 13:13:53
Цветовой диапазон : Limited
Основные цвета : BT.709
Характеристики трансфера : BT.709
Коэффициенты матрицы : BT.709
Codec configuration box : avcC
Аудио
Идентификатор : 2
Формат : AAC LC
Формат/Информация : Advanced Audio Codec Low Complexity
Идентификатор кодека : mp4a-40-2
Продолжительность : 1 ч. 15 м.
Вид битрейта : Переменный
Битрейт : 137 Кбит/сек
Каналы : 2 канала
ChannelLayout : L R
Частота : 48,0 КГц
Частота кадров : 46,875 кадров/сек (1024 SPF)
Метод сжатия : С потерями
Размер потока : 74,4 Мбайт (24%)
Дата кодирования : UTC 2018-09-14 13:13:53
Дата пометки : UTC 2018-09-14 13:13:53
Формат : MPEG-4
Профиль формата : Base Media / Version 2
Идентификатор кодека : mp42 (mp42/mp41/isom/avc1)
Размер файла : 256 Мбайт
Продолжительность : 1 ч. 0 м.
Режим общего битрейта : Переменный
Общий поток : 594 Кбит/сек
Дата кодирования : UTC 2018-07-20 12:48:41
Дата пометки : UTC 2018-07-20 12:48:41
Видео
Идентификатор : 1
Формат : AVC
Формат/Информация : Advanced Video Codec
Профиль формата : [url=mailto:High@L3.2]High@L3.2[/url]
Настройки формата : CABAC / 5 Ref Frames
Параметр CABAC формата : Да
Параметр RefFrames формата : 5 кадров
Идентификатор кодека : avc1
Идентификатор кодека/Информация : Advanced Video Coding
Продолжительность : 1 ч. 0 м.
Битрейт : 453 Кбит/сек
Ширина : 1280 пикселей
Высота : 720 пикселей
Соотношение сторон : 16:9
Режим частоты кадров : Постоянный
Частота кадров : 30,000 кадров/сек
Цветовое пространство : YUV
Субдискретизация насыщенности : 4:2:0
Битовая глубина : 8 бит
Тип развёртки : Прогрессивная
Бит/(Пиксели*Кадры) : 0.016
Размер потока : 195 Мбайт (76%)
Библиотека кодирования : x264 core 155 r10 7d0ff22
Настройки программы : cabac=1 / ref=5 / deblock=1:0:0 / analyse=0x3:0x113 / me=hex / subme=8 / psy=1 / psy_rd=1.00:0.00 / mixed_ref=1 / me_range=16 / chroma_me=1 / trellis=2 / 8x8dct=1 / cqm=0 / deadzone=21,11 / fast_pskip=1 / chroma_qp_offset=-2 / threads=22 / lookahead_threads=3 / sliced_threads=0 / nr=0 / decimate=1 / interlaced=0 / bluray_compat=0 / stitchable=1 / constrained_intra=0 / bframes=3 / b_pyramid=2 / b_adapt=2 / b_bias=0 / direct=3 / weightb=1 / open_gop=0 / weightp=2 / keyint=infinite / keyint_min=30 / scenecut=40 / intra_refresh=0 / rc_lookahead=50 / rc=crf / mbtree=1 / crf=20.0 / qcomp=0.60 / qpmin=5 / qpmax=69 / qpstep=4 / vbv_maxrate=2750 / vbv_bufsize=7500 / crf_max=0.0 / nal_hrd=none / filler=0 / ip_ratio=1.40 / aq=1:1.00
Дата кодирования : UTC 2018-07-20 12:48:41
Дата пометки : UTC 2018-07-20 12:48:41
Цветовой диапазон : Limited
Основные цвета : BT.709
Характеристики трансфера : BT.709
Коэффициенты матрицы : BT.709
Codec configuration box : avcC
Аудио
Идентификатор : 2
Формат : AAC LC
Формат/Информация : Advanced Audio Codec Low Complexity
Идентификатор кодека : mp4a-40-2
Продолжительность : 1 ч. 0 м.
Вид битрейта : Переменный
Битрейт : 137 Кбит/сек
Каналы : 2 канала
ChannelLayout : L R
Частота : 48,0 КГц
Частота кадров : 46,875 кадров/сек (1024 SPF)
Метод сжатия : С потерями
Размер потока : 59,0 Мбайт (23%)
Дата кодирования : UTC 2018-07-20 12:48:41
Дата пометки : UTC 2018-07-20 12:48:41

Дополнительная информация:

Что вы получите?
От 0 до старта в Motion - анимации под руководством опытных дизайнеров студии Mobios
1. Работать в After Effects c нуля За курс мы покажем и изучим не только инструментарий, но и научим создавать в нем рабочие проекты для вашего портфолио.
2. Понимание процесса построение сценария рекламных роликов Вы пройдете путь от простой анимации до реализации правильного и продуктивного проекта по вашему сюжету. От идей до профессионального монтажа с крутыми переходами.
3. Готовность к реальному проекту Вы структурировано изучите не только основы, но и освоите скрипты, экспрешены и плагины для реальных проектов.
4. Это удобно и не сложно Вы будете работать с менторами в удобное для Вас время. При этом ваши работы будут проверяться и корректироваться кураторами. Этот структурированный подход сэкономит Вам кучу времени.
Для кого? И где ты сможешь это применить?
- Начинающие или опытные моушн-дизайнеры
- Графические и UI дизайнеры
- Операторы и видеомонтажеры Маркетологи и SMM
- Блогеры, предприниматели
Содержание курса:
Блок 1. Основы графических программ
Знакомство с основами Adobe After Effects
Знакомство с Adobe Photoshop
Adobe Illustrator
Работа в Adobe Illustrator
Блок 2. Анимация
Создание переходов В Adobe After Effects
Анимированная типографика
Анимированная инфографика
Персонажная анимация
Введение в UI-анимацию
Блок 3. Сложные анимационные композиции
Маски
Работа с 3D-объектами
Создание анимированного интерфейса
Прорисовка рекламного ролика
Экспрешены
Полезные скрипты и плагины
Коррекция цвета, работа с зеленым фоном
Блок 4. Главный проект
Скриншоты:
       

Clavik

Post 13-Oct-2019 17:58

[Quote]

itgid | Интернет магазин на node.js (2019) PCRec [H.264] - Автор (режиссер): Александр Лущенко
Производство: itgid
Жанр: программирование, JavaScript, Node.js
Описание:
Мы создаем полноценный Интернет-магазин. Все шаги - записаны в видеоуроках. Начинаем разработку с установки необходимых программ и их настройки. Все шаги и объяснение полностью разобрано в видеоуроках по шагам.
К каждому уроку доступны исходные коды. Вы можете скачать сразу готовый проект в готовом виде, либо изучать по шагам по видео, сравнивая готовые коды с написанным! Все коды рассортированы по урокам!
Продолжительность: 12:30:07
Качество видео: PCRec
Видео: AVC/H.264, 1280x720-2560x1440, ~123-6285 Kbps
Аудио: AAC, 2 ch, 127-180 Kbps

MediaInfo:

Общее
Полное имя : .\19 Сохранение заказов\22.mp4
Формат : MPEG-4
Профиль формата : Base Media / Version 2
Идентификатор кодека : mp42 (isom/mp42)
Размер файла : 60,7 Мбайт
Продолжительность : 33 м. 13 с.
Режим общего битрейта : Переменный
Общий поток : 255 Кбит/сек
Дата кодирования : UTC 2019-06-19 10:16:43
Дата пометки : UTC 2019-06-19 10:16:43
gsst : 0
gstd : 1993409
Видео
Идентификатор : 1
Формат : AVC
Формат/Информация : Advanced Video Codec
Профиль формата : [url=mailto:Main@L3.1]Main@L3.1[/url]
Настройки формата : CABAC / 3 Ref Frames
Параметр CABAC формата : Да
Параметр RefFrames формата : 3 кадра
Идентификатор кодека : avc1
Идентификатор кодека/Информация : Advanced Video Coding
Продолжительность : 33 м. 13 с.
Битрейт : 123 Кбит/сек
Ширина : 1280 пикселей
Высота : 720 пикселей
Соотношение сторон : 16:9
Режим частоты кадров : Постоянный
Частота кадров : 29,970 (30000/1001) кадров/сек
Цветовое пространство : YUV
Субдискретизация насыщенности : 4:2:0
Битовая глубина : 8 бит
Тип развёртки : Прогрессивная
Бит/(Пиксели*Кадры) : 0.004
Размер потока : 29,3 Мбайт (48%)
Заголовок : ISO Media file produced by Google Inc. Created on: 06/19/2019.
Библиотека кодирования : x264 core 155 r2901 7d0ff22
Дата кодирования : UTC 2019-06-19 10:16:43
Дата пометки : UTC 2019-06-19 10:16:43
Цветовой диапазон : Limited
Основные цвета : BT.709
Характеристики трансфера : BT.709
Коэффициенты матрицы : BT.709
Codec configuration box : avcC
Аудио
Идентификатор : 2
Формат : AAC LC
Формат/Информация : Advanced Audio Codec Low Complexity
Идентификатор кодека : mp4a-40-2
Продолжительность : 33 м. 13 с.
Продолжительность оригинала : 33 м. 13 с.
Вид битрейта : Переменный
Битрейт : 128 Кбит/сек
Каналы : 2 канала
ChannelLayout : L R
Частота : 44,1 КГц
Частота кадров : 43,066 кадра/сек (1024 SPF)
Метод сжатия : С потерями
Размер потока : 30,4 Мбайт (50%)
Размер потока оригинала : 30,4 Мбайт (50%)
Заголовок : ISO Media file produced by Google Inc. Created on: 06/19/2019.
Дата кодирования : UTC 2019-06-19 10:16:43
Дата пометки : UTC 2019-06-19 10:16:43
Общее
Полное имя : .\04_1 Фреймворк ExpressJS. Установка, настройка, работа со статикой\05.mp4
Формат : MPEG-4
Профиль формата : Base Media / Version 2
Идентификатор кодека : mp42 (isom/mp42)
Размер файла : 201 Мбайт
Продолжительность : 24 м. 43 с.
Режим общего битрейта : Переменный
Общий поток : 1135 Кбит/сек
Дата кодирования : UTC 2019-04-14 08:36:30
Дата пометки : UTC 2019-04-14 08:36:30
Программа кодирования : Google
gsst : 0
gstd : 1483267
Видео
Идентификатор : 1
Формат : AVC
Формат/Информация : Advanced Video Codec
Профиль формата : High@L4
Настройки формата : CABAC / 1 Ref Frames
Параметр CABAC формата : Да
Параметр RefFrames формата : 1 кадр
Параметр GOP формата : M=1, N=23
Идентификатор кодека : avc1
Идентификатор кодека/Информация : Advanced Video Coding
Продолжительность : 24 м. 43 с.
Битрейт : 1006 Кбит/сек
Ширина : 1920 пикселей
Высота : 1080 пикселей
Соотношение сторон : 16:9
Режим частоты кадров : Постоянный
Частота кадров : 11,467 кадров/сек
Цветовое пространство : YUV
Субдискретизация насыщенности : 4:2:0
Битовая глубина : 8 бит
Тип развёртки : Прогрессивная
Бит/(Пиксели*Кадры) : 0.042
Размер потока : 178 Мбайт (89%)
Заголовок : ISO Media file produced by Google Inc. Created on: 04/14/2019.
Библиотека кодирования : x264 core 155 r2901 7d0ff22
Дата кодирования : UTC 2019-04-14 08:36:30
Дата пометки : UTC 2019-04-14 08:36:30
Цветовой диапазон : Limited
Основные цвета : BT.709
Характеристики трансфера : BT.709
Коэффициенты матрицы : BT.709
Codec configuration box : avcC
Аудио
Идентификатор : 2
Формат : AAC LC
Формат/Информация : Advanced Audio Codec Low Complexity
Идентификатор кодека : mp4a-40-2
Продолжительность : 24 м. 43 с.
Вид битрейта : Переменный
Битрейт : 128 Кбит/сек
Каналы : 2 канала
ChannelLayout : L R
Частота : 44,1 КГц
Частота кадров : 43,066 кадра/сек (1024 SPF)
Метод сжатия : С потерями
Размер потока : 22,6 Мбайт (11%)
Заголовок : ISO Media file produced by Google Inc. Created on: 04/14/2019.
Дата кодирования : UTC 2019-04-14 08:36:30
Дата пометки : UTC 2019-04-14 08:36:30
Общее
Полное имя : .\10_2 Препроцессор Pug\13.mp4
Формат : MPEG-4
Профиль формата : Base Media
Идентификатор кодека : isom (isom/iso2/avc1/mp41)
Размер файла : 754 Мбайт
Продолжительность : 26 м. 8 с.
Режим общего битрейта : Переменный
Общий поток : 4033 Кбит/сек
Видео
Идентификатор : 1
Формат : AVC
Формат/Информация : Advanced Video Codec
Профиль формата : Main@L5
Настройки формата : CABAC / 2 Ref Frames
Параметр CABAC формата : Да
Параметр RefFrames формата : 2 кадра
Параметр GOP формата : M=1, N=25
Идентификатор кодека : avc1
Идентификатор кодека/Информация : Advanced Video Coding
Продолжительность : 26 м. 8 с.
Битрейт : 3846 Кбит/сек
Ширина : 2560 пикселей
Высота : 1440 пикселей
Соотношение сторон : 16:9
Режим частоты кадров : Постоянный
Частота кадров : 29,970 (30000/1001) кадров/сек
Цветовое пространство : YUV
Субдискретизация насыщенности : 4:2:0
Битовая глубина : 8 бит
Тип развёртки : Прогрессивная
Бит/(Пиксели*Кадры) : 0.035
Размер потока : 719 Мбайт (95%)
Codec configuration box : avcC
Аудио
Идентификатор : 2
Формат : AAC LC
Формат/Информация : Advanced Audio Codec Low Complexity
Идентификатор кодека : mp4a-40-2
Продолжительность : 26 м. 8 с.
Вид битрейта : Переменный
Битрейт : 180 Кбит/сек
Максимальный битрейт : 192 Кбит/сек
Каналы : 2 канала
ChannelLayout : L R
Частота : 44,1 КГц
Частота кадров : 43,066 кадра/сек (1024 SPF)
Метод сжатия : С потерями
Размер потока : 33,7 Мбайт (4%)
Default : Да
AlternateGroup/String : 1

Дополнительная информация:

В раздаче имеются архивы! В них содержится дополнительные материалы.

История обновлений:

13.10.2019 торрент файл обновлен
- заменены все исходники проектов
- добавлены недостающие уроки (6_2, 8, 9, 18)
- добавлены новые уроки (19-24)

Раздача ведётся путём добавления новых файлов:

Раздача ведётся путём добавления новых файлов; при каждом добавлении создаётся новый торрент. Чтобы начать докачку новых файлов, пользователям необходимо сделать следующее:
(1) остановить скачивание,
(2) удалить старый торрент у себя из клиента (имеющиеся файлы удалять не надо),
(3) скачать новый торрент и запустить его у себя в клиенте вместо старого, при этом указать клиенту путь в старую папку, куда и должно происходить скачивание новых файлов.
Ваш клиент при этом должен произвести хеширование (проверку) старой папки (если не производит сам - помогите ему сделать это), и будет докачивать только те файлы, которых у вас ещё нет. Старые файлы при этом не удаляются, а продолжают раздаваться!
Eсли вы уже удалили старые файлы, то предотвратить повторную закачку старых файлов можно, отжав галочку в соответствующих местах при запуске нового торрента. По возможности, желательно не удалять старые файлы как можно дольше, чтобы релизёр не только продолжал раздавать старые файлы, а смог сконцентрироваться на новых.
Скриншоты:
       

}{@R0N

Post 11-Oct-2019 11:53

[Quote]

Евгений Карташов | 20 готовых световых схем для съёмки в фотостудии- Автор (режиссер): Евгений Карташов
Жанр: Видеокурс, съемка фото
Описание:
При правильном расположении светового оборудования, можно добиться поистине фантастических результатов. Однако не всегда есть возможность экспериментировать в студии. С помощью этого видео курса вы освоите 20 световых схем, которые с лёгкостью примените для своих кадров. А готовые шпаргалки со световыми схемами, которые вы можете взять с собой на съёмку, помогут на 100 процентов применить все знания, полученные в курсе.
Продолжительность: 04:18:07
Качество видео: CamRip
Видео: AVC/H.264, 1920x1080, ~5353 Kbps
Аудио: AAC, 2 ch, 130 Kbps

MediaInfo:

Формат                                   : MPEG-4
Профиль формата : Base Media
Идентификатор кодека : isom (isom/iso2/avc1/mp41)
Размер файла : 482 Мбайт
Продолжительность : 12 м. 15 с.
Режим общего битрейта : Постоянный
Общий поток : 5494 Кбит/сек
Программа кодирования : Lavf57.71.100
Видео
Идентификатор : 1
Формат : AVC
Формат/Информация : Advanced Video Codec
Профиль формата : [url=mailto:Main@L4.2]Main@L4.2[/url]
Настройки формата : CABAC / 1 Ref Frames
Параметр CABAC формата : Да
Параметр RefFrames формата : 1 кадр
Параметр GOP формата : M=1, N=25
Идентификатор кодека : avc1
Идентификатор кодека/Информация : Advanced Video Coding
Продолжительность : 12 м. 15 с.
Вид битрейта : Постоянный
Битрейт : 5353 Кбит/сек
Номинальный битрейт : 5762 Кбит/сек
Ширина : 1920 пикселей
Высота : 1080 пикселей
Соотношение сторон : 16:9
Частота кадров : 50,000 кадров/сек
Цветовое пространство : YUV
Субдискретизация насыщенности : 4:2:0
Битовая глубина : 8 бит
Тип развёртки : Прогрессивная
Бит/(Пиксели*Кадры) : 0.052
Размер потока : 469 Мбайт (97%)
Codec configuration box : avcC
Аудио
Идентификатор : 2
Формат : AAC LC
Формат/Информация : Advanced Audio Codec Low Complexity
Идентификатор кодека : mp4a-40-2
Продолжительность : 12 м. 15 с.
Вид битрейта : Постоянный
Битрейт : 132 Кбит/сек
Каналы : 2 канала
ChannelLayout : L R
Частота : 44,1 КГц
Частота кадров : 43,066 кадра/сек (1024 SPF)
Метод сжатия : С потерями
Размер потока : 11,4 Мбайт (2%)
Default : Да

Дополнительная информация:

Содержание:
1 Схема с отражением от потолка
2 Отражение от стены
3 Верхний свет
4 Верхне-фронтальный свет
5 Фронтальный свет
6 Боковой свет
7 Боковой + контровой свет
8 Два стрипа
9 Схема Кошачий глаз
10 Схема для бестеневой съемки
11 Схема для каталожной съемки
12 Схема Ракушка
13 Тарелка с сотами + стрипы с сотами
14 Жесткий свет+белый фон
15 Жесткий свет + черный фон
16 Схема Барсук
17 Схема Рембрандт
18 Три стрипа
19 Съемка сквозь софтбокс
20 Портрет с тремя источниками
Бонусы:
Тонкая работа со светом
Цветные фильтры
Скриншоты:
       

}{@R0N

Post 11-Oct-2019 11:53

[Quote]

Александр Заморин, Дмитрий Рогожкин | Портретная обработка- Автор (режиссер): Александр Заморин, Дмитрий Рогожкин
Жанр: Обучающее видео
Описание:
Курс «Портретная обработка» имеет узкую направленность, а посему вы сможете всего за две недели освоить вполне конкретный навык —художественную обработку портретов. Вы научитесь работать именно теми инструментами, которые позволяют получить обработку высочайшего качества, без воды и террабайта лишних уроков.
Продолжительность: 03:14:22
Качество видео: PCRec
Видео: AVC/H.264, 1920x1080, ~1036 Kbps
Аудио: AAC, 2 ch, 137 Kbps

MediaInfo:

Формат                                   : MPEG-4
Профиль формата : Base Media / Version 2
Идентификатор кодека : mp42 (mp42/mp41/isom/avc1)
Размер файла : 149 Мбайт
Продолжительность : 17 м. 38 с.
Режим общего битрейта : Переменный
Общий поток : 1179 Кбит/сек
Дата кодирования : UTC 2019-01-18 08:01:11
Дата пометки : UTC 2019-01-18 08:01:11
Видео
Идентификатор : 1
Формат : AVC
Формат/Информация : Advanced Video Codec
Профиль формата : High@L4
Настройки формата : CABAC / 5 Ref Frames
Параметр CABAC формата : Да
Параметр RefFrames формата : 5 кадров
Идентификатор кодека : avc1
Идентификатор кодека/Информация : Advanced Video Coding
Продолжительность : 17 м. 38 с.
Битрейт : 1037 Кбит/сек
Ширина : 1920 пикселей
Высота : 1080 пикселей
Соотношение сторон : 16:9
Режим частоты кадров : Постоянный
Частота кадров : 29,970 (30000/1001) кадров/сек
Цветовое пространство : YUV
Субдискретизация насыщенности : 4:2:0
Битовая глубина : 8 бит
Тип развёртки : Прогрессивная
Бит/(Пиксели*Кадры) : 0.017
Размер потока : 131 Мбайт (88%)
Библиотека кодирования : x264 core 157 r10 545de2f
Настройки программы : cabac=1 / ref=5 / deblock=1:0:0 / analyse=0x3:0x113 / me=hex / subme=8 / psy=1 / psy_rd=1.00:0.00 / mixed_ref=1 / me_range=16 / chroma_me=1 / trellis=2 / 8x8dct=1 / cqm=0 / deadzone=21,11 / fast_pskip=1 / chroma_qp_offset=-2 / threads=34 / lookahead_threads=5 / sliced_threads=0 / nr=0 / decimate=1 / interlaced=0 / bluray_compat=0 / stitchable=1 / constrained_intra=0 / bframes=3 / b_pyramid=2 / b_adapt=2 / b_bias=0 / direct=3 / weightb=1 / open_gop=0 / weightp=2 / keyint=infinite / keyint_min=29 / scenecut=40 / intra_refresh=0 / rc_lookahead=50 / rc=crf / mbtree=1 / crf=20.0 / qcomp=0.60 / qpmin=5 / qpmax=69 / qpstep=4 / vbv_maxrate=5500 / vbv_bufsize=15000 / crf_max=0.0 / nal_hrd=none / filler=0 / ip_ratio=1.40 / aq=1:1.00
Дата кодирования : UTC 2019-01-18 08:01:11
Дата пометки : UTC 2019-01-18 08:01:11
Цветовой диапазон : Limited
Основные цвета : BT.709
Характеристики трансфера : BT.709
Коэффициенты матрицы : BT.709
Codec configuration box : avcC
Аудио
Идентификатор : 2
Формат : AAC LC
Формат/Информация : Advanced Audio Codec Low Complexity
Идентификатор кодека : mp4a-40-2
Продолжительность : 17 м. 38 с.
Вид битрейта : Переменный
Битрейт : 137 Кбит/сек
Каналы : 2 канала
ChannelLayout : L R
Частота : 48,0 КГц
Частота кадров : 46,875 кадров/сек (1024 SPF)
Метод сжатия : С потерями
Размер потока : 17,3 Мбайт (12%)
Дата кодирования : UTC 2019-01-18 08:01:11

Дополнительная информация:

Программа:
Урок 1. Секрет красивого цвета
Урок 2. Работа с гистограммой
Урок 3. Фильтры и кисти
Урок 4. Ретушь кожи в портрете
Урок 5. Магическая обработка глаз
Урок 6. Эффекты в портрете
Урок 7. Текстуры в портретах
Урок 8. Полировка фотографий
Урок 9. Практика — часть первая
Урок 10. Практика — часть вторая
Бонусы:
1. Искусство портретной фотографии для начинающих - подробное видеоруководство о том, из чего состоит хорошая портретная фотография — как снимать, чтобы получать искренние и цепляющие портреты.
2. Фотовспышка в портрете - практический экспресс-курс о том, как снимать красивые портреты со вспышкой и комплектом света.
3. Набор опытного ретушёра - готовый набор из текстур дыма, бликов, искр, плёночного зерна и нескольких готовых пресетов, который будет незаменим для художественной обработки ваших фотографий.
Скриншоты:
       

}{@R0N

Post 11-Oct-2019 11:53

[Quote]

Никита Чесноков | Adobe After Effects. Продвинутый уровень.- Автор (режиссер): Никита Чесноков
Жанр: Adobe After Effects, обучающее видео
Описание:
Это курс для студентов, уже знающих базовый After Effects и желающих повысить навыки владения программой или открыть для себя новые техники. Курс учит не только создавать работы, но и продавать их. Еще на стадии задумки мы будем оценивать коммерческий потенциал своей работы — это приучит вас впоследствии мыслить приоритетами рынка, научит создавать полноценные коммерческие проекты. Вы узнаете все тонкости работы с графикой на коммерческом уровне, познакомитесь со всем спектром задач, которые клиент обычно решает путем создания ролика, сможете грамотно организовывать свой рабочий процесс и продуктивно настроить процесс согласования. Курс полностью подготовит вас к созданию коммерческих шаблонов для продажи на Videohive, улучшит ваши навыки ведения проекта и поможет вам выйти на новый технический уровень
Продолжительность: 23:30:33
Качество видео: PCRec
Видео: AVC/H.264, 1920x1080, ~1078 Kbps
Аудио: AAC, 2 ch, 248 Kbps

MediaInfo:

Формат                                   : MPEG-4
Профиль формата : Base Media / Version 2
Идентификатор кодека : mp42 (mp42/isom)
Размер файла : 1,05 Гбайт
Продолжительность : 1 ч. 52 м.
Режим общего битрейта : Переменный
Общий поток : 1334 Кбит/сек
Дата кодирования : UTC 2019-03-05 23:31:49
Дата пометки : UTC 2019-03-05 23:32:00
Видео
Идентификатор : 1
Формат : AVC
Формат/Информация : Advanced Video Codec
Профиль формата : High@L4
Настройки формата : CABAC / 4 Ref Frames
Параметр CABAC формата : Да
Параметр RefFrames формата : 4 кадра
Параметр GOP формата : M=4, N=30
Идентификатор кодека : avc1
Идентификатор кодека/Информация : Advanced Video Coding
Продолжительность : 1 ч. 52 м.
Битрейт : 1079 Кбит/сек
Ширина : 1920 пикселей
Высота : 1080 пикселей
Соотношение сторон : 16:9
Режим частоты кадров : Переменный
Частота кадров : 30,000 кадров/сек
Минимальная частота кадров : 29,412 кадров/сек
Максимальная частота кадров : 30,303 кадров/сек
Цветовое пространство : YUV
Субдискретизация насыщенности : 4:2:0
Битовая глубина : 8 бит
Тип развёртки : Прогрессивная
Бит/(Пиксели*Кадры) : 0.017
Размер потока : 866 Мбайт (81%)
Дата кодирования : UTC 2019-03-05 23:31:49
Дата пометки : UTC 2019-03-05 23:32:00
Codec configuration box : avcC
Аудио
Идентификатор : 2
Формат : AAC LC
Формат/Информация : Advanced Audio Codec Low Complexity
Идентификатор кодека : mp4a-40-2
Продолжительность : 1 ч. 52 м.
Duration_FirstFrame : 1 с. 45 мс.
Вид битрейта : Переменный
Битрейт : 249 Кбит/сек
Каналы : 2 канала
ChannelLayout : L R
Частота : 44,1 КГц
Частота кадров : 43,066 кадра/сек (1024 SPF)
Метод сжатия : С потерями
Размер потока : 200 Мбайт (19%)
Заголовок : Stereo
Дата кодирования : UTC 2019-03-05 23:31:49

Продолжение описания:

Курс практический: домашние задания разбираются в начале каждого занятия. В течение всего занятия вы находитесь внутри программы и применяете те или иные техники к полноценным проектам. В финале у вас складывается неплохое портфолио, которое послужит основанием считать вас успешным фрилансером, готовым зарабатывать новой профессией.

Дополнительная информация:

Чему вы научитесь?
Созданию корпоративной графики
Работе со стилизацией видео
Созданию и анимации HUD интерфейсов
Использованию AE как инструмента создания профессиональных переходов и склеек между видео
Техникам создания двойной экспозиции
Техникам и видам параллакс эффектов, а так же их применению в коммерческих проектах
Содержание:
Занятие 1. Переходы
Какой эффект позволяет Вам “дорисовать” края картинки? Motion Tile, Glow, Scatter, Curves.
Вы собираетесь создать бесшовный переход Zoom, какой эффект поможет Вам исказить изображение? Optics Compensation, Transform, Motion Tile, Levels.
Вы сделали переход Zoom и поместили его в Pre-Compose, какой параметр позволит Вам “включить” этот Pre-Compose внутри другой композиции? Collapse Transformation, Timewarp, Frame Blending, Motion Blur.
Вы собираетесь создать переход шторка, выберите наиболее оптимальный тайминг? 20 сек, 0.5 сек, 2 сек, 0.7 сек.
Как можно наиболее простым способом создать имитацию хроматических аббераций? Через Pre-Compose, через 3 слоя и Shift Channels, создать 1 Adjustment и использовать Emboss, через эффект Glow.
Из скольки слоев состоит простейший Seamless Roll? 3, 5, 2, 7
Занятие 2. Ае как инструмент корпоративной графики
Какой из перечисленных слайдов не относится к корпоративной графике? Contact us, таймлайн сцена, персонажная анимация, сторителлинг.
Вы собираетесь создать презентацию компании, какие вы будете использовать цвета? Которые найду в гугле, корпоративные, трендовые, цвета ФК Ростов.
Ваш клиент из Франции, какой вид слайдов он предпочтет? Our Clients, Story telling, Our Clients, Our Money.
Какой хронометраж у Corporate Promo? 60 сек., 3 мин., 5 мин., 2 мин.
Какой главный элемент вы будете использовать при создании Event Promo? Короткие фразы большого размера. Корпоративные цвета компании. Музыка. Не люблю мероприятия.
Занятие 3. Стилизация видео
Как вы можете отделить объект для экспозиции в АЕ? Выберите 2 правильных ответа. Кеинг. Сфоткать без фона. Не отделять. Маска.
Вы собираетесь создать ролик с двойной экспозицией, что для этого нужно? Выберите 3 правильных ответа. Музычка. Футаж с объектом. Идея. Футаж с фоном.
Ваш клиент просит сделать экспозицию для своего фильма, что нужно уточнить в первую очередь для определения цены? Тип экспозиции - от этого зависит ваш ценник. Откуда клиент. Ничего. Бюджет фильма.
Как проще всего проявить экспозицию в текстовом слое? Обвести текст маской. Luma/Alpha Matte. Отротоскопить текст.
Какой главный критерий при выборе футажа для переднего плана? Чем больше мелких объектов тем лучше. Вкус и цвет. Нужен большой объект, чтобы можно было корректно проявить в нем другой футаж. Какой скажет мама.
Занятие 4. Hud-ui графика
Вы собираетесь создать свечение на вашем HUD, какой режим наложения будет придавать эффект голограммы? Normal, Darken, Add, Multiply.
Какой эффект из ниже перечисленных поможет в создании Glow? Tile, Ни один из перечисленных, Fast Blur, Transform.
Где вы можете встречать HUD графику? Выберите 3 правильных ответа. В Презентациях. В Играх. В Фильмах. В чистом поле и в березовом лесу
Назовите параметр, позволяющий создать пунктир в Stroke? Dashes, Fill, Width
Назовите самый простой способ создать сетку? Ни один их перечисленных. Спецсимволы на клавиатуре. Эффект Grid. Прямоугольник + Repeater.
Занятие 5. Экспозиция как эффект
Вы собираетесь делать стоп кадр, какой эффект вам поможет?Darken, Glow, Reverse, Freeze frame
Создав стоп кадр вам нужно стилизовать его в мультяшный стиль, ваш эффект номер 1? Glow, Stylize, Offset, Cartoon.
Что нужно для создания стоп-кадра в первую очередь? Фотография. Музыка. Вектор. Видео футаж.
Как проще всего скрыть края фона при уменьшении? Optics Compensation. Motion Tile. Scale.
Какой эффект поможет сделать искажения по карте огня? Optics. Transform. Displacement Map. Magnify.
Занятие 6. Parallax в коммерческих видео
Сколько Null объектов нужно для создания риггинга на позишн? 3, 1, 0, 2.
Для чего создается риггинг с помощью нескольких Null? Для независимого контроля каждой из величин. Это глупая идея. Для того, чтобы “усложнить” задачу. Потому, что преподу заняться нечем.
Для создания Parallax наиболее удачно подходит формат фото? Пейзажи. Крупный объект. Ни одно из этого. Вектор.
На основе какой функции делается проекция на круговой шейп? Wave warp. Alpha matte. Displacement map.
Какой из этих типов параллакса подойдет для видео наилучшим образом? Простой параллакс без расслоения. На основе фигуры. На основе множества фигур. На основе маски.
Занятие 7. Трейлеры и 3d титры
Какой из данных способов позволяет создать объемный текст с правильным текстурированием? Ray Traced Render. Classic 3D. Cinema 4D RENDER. Element 3D
Для чего используется Element 3D? Только для 3D текста. Для интеграции и контроля полноценных 3D объектов в АЕ. Только для анимации. Не используется вообще.
Как проще всего скрыть “косяки” в трейлерной сцене?Ни одно из этого. Никак. Темный фон. Белый фон.
На основе какого параметра создается анимация поворота букв?Range Selector. Rotation. Skew.
Какой из этих методов создания 3D текста будет рендерить быстрее? Ray Traced. Cinema 4D RENDER. Element 3D.
Занятие 8. 2d бродкаст
Скриншоты:
       

}{@R0N

Post 11-Oct-2019 11:12

[Quote]

Создание визуальных эффектов в After Effects - Автор (режиссер): Иван Дружинин
Жанр: Adobe After Effects, обучающее видео
Описание:
После прохождения курса Вы научитесь кеингу, ротоскопингу, композитингу, клинапу, трекингу и прочей магии кино. В курсе авторы уделяют много внимания практике. Но также и вопросам, связанным с проектной работой vfx-ра: например, как работать с клиентом, как ускорить процессы, как организовать проекты.
Продолжительность: 04:51:15
Качество видео: PCRec
Видео: AVC/H.264, 1920x1080, ~834 Kbps
Аудио: AAC, 2 ch, 137 Kbps

MediaInfo:

Формат                                   : MPEG-4
Профиль формата : Base Media / Version 2
Идентификатор кодека : mp42 (mp42/mp41/isom/avc1)
Размер файла : 33,7 Мбайт
Продолжительность : 4 м. 49 с.
Режим общего битрейта : Переменный
Общий поток : 976 Кбит/сек
Дата кодирования : UTC 2019-04-15 14:19:36
Дата пометки : UTC 2019-04-15 14:19:36
Видео
Идентификатор : 1
Формат : AVC
Формат/Информация : Advanced Video Codec
Профиль формата : High@L4
Настройки формата : CABAC / 5 Ref Frames
Параметр CABAC формата : Да
Параметр RefFrames формата : 5 кадров
Идентификатор кодека : avc1
Идентификатор кодека/Информация : Advanced Video Coding
Продолжительность : 4 м. 49 с.
Битрейт : 834 Кбит/сек
Ширина : 1920 пикселей
Высота : 1080 пикселей
Соотношение сторон : 16:9
Режим частоты кадров : Постоянный
Частота кадров : 25,000 кадров/сек
Цветовое пространство : YUV
Субдискретизация насыщенности : 4:2:0
Битовая глубина : 8 бит
Тип развёртки : Прогрессивная
Бит/(Пиксели*Кадры) : 0.016
Размер потока : 28,8 Мбайт (86%)
Библиотека кодирования : x264 core 157 r10 d4099dd
Настройки программы : cabac=1 / ref=5 / deblock=1:0:0 / analyse=0x3:0x113 / me=hex / subme=8 / psy=1 / psy_rd=1.00:0.00 / mixed_ref=1 / me_range=16 / chroma_me=1 / trellis=2 / 8x8dct=1 / cqm=0 / deadzone=21,11 / fast_pskip=1 / chroma_qp_offset=-2 / threads=34 / lookahead_threads=5 / sliced_threads=0 / nr=0 / decimate=1 / interlaced=0 / bluray_compat=0 / stitchable=1 / constrained_intra=0 / bframes=3 / b_pyramid=2 / b_adapt=2 / b_bias=0 / direct=3 / weightb=1 / open_gop=0 / weightp=2 / keyint=infinite / keyint_min=25 / scenecut=40 / intra_refresh=0 / rc_lookahead=50 / rc=crf / mbtree=1 / crf=20.0 / qcomp=0.60 / qpmin=5 / qpmax=69 / qpstep=4 / vbv_maxrate=5500 / vbv_bufsize=15000 / crf_max=0.0 / nal_hrd=none / filler=0 / ip_ratio=1.40 / aq=1:1.00
Дата кодирования : UTC 2019-04-15 14:19:36
Дата пометки : UTC 2019-04-15 14:19:36
Цветовой диапазон : Limited
Основные цвета : BT.709
Характеристики трансфера : BT.709
Коэффициенты матрицы : BT.709
Codec configuration box : avcC
Аудио
Идентификатор : 2
Формат : AAC LC
Формат/Информация : Advanced Audio Codec Low Complexity
Идентификатор кодека : mp4a-40-2
Продолжительность : 4 м. 49 с.
Вид битрейта : Переменный
Битрейт : 137 Кбит/сек
Каналы : 2 канала
ChannelLayout : L R
Частота : 48,0 КГц
Частота кадров : 46,875 кадров/сек (1024 SPF)
Метод сжатия : С потерями
Размер потока : 4,73 Мбайт (14%)
Дата кодирования : UTC 2019-04-15 14:19:36
Дата пометки : UTC 2019-04-15 14:19:36

Продолжение описания:

Иван Дружинин (преподаватель курса) объясняет всё простыми словами. Рассказывает так, чтобы стало понятно даже тем, кто только начинает погружение в мир визуальных эффектов. Но также увлекает супер-полезными лайфхаками и авторскими техниками тех, кто уже и сам хитёр-бобёр. Смотри курс и ты узнаешь, как делать свои ролики офигенными. Ведь теперь тебе будет доступна магия спецэффектов! Больше никаких лишних предметов, грязи на фоне, неудачных ракурсов, — всё можно исправить и дать волю своей фантазии: меняй фон, вырезай героя с картинки, притрекивай надписи. Теперь инструменты из большого кино будут в твоём распоряжении.

Дополнительная информация:

Сначала, на пальцах — зачем смотреть этот курс:
Ты узнаешь как:
- убрать лишнее из кадра или добавить новые объекты в видео;
- отделить персонажа от фона и заменить фон на то, на что хватит фантазии;
- трекать надписи, логотипы, предметы в сценах;
- редактировать пропорции актеров, удалять прыщики, дефекты макияжа и грима;
- ускорить себя и свой комп с помощью авторских методик работы;
- сохранять усидчивость и концентрацию, навести порядок в проектах и голове, чтобы жить стало проще wink
- добиться крутых результатов в vfx и выйти на международных заказчиков;
а это всё значит, что теперь, создавая видео, ты свободен в своих творческих идеях. Можешь использовать техники из большого кино, внедрять в свои ролики визуальные эффекты и этим запоминаться зрителю. Сможешь делать vfx не только для своих видеороликов, но и для рекламы / клипов / фильмов заказчиков.
Ты ускоришься в своей работе минимум на 30%, а значит: освободишь время для отдыха, развития и новых проектов.
Сделаешь 8 домашних заданий, и значит: соберёшь новый крутой шоурил.
Вводная часть. Дисциплина. Правила. Полезности.
- Вступление бесплатно
- Подготовка к работе бесплатно
- Клавиатура и хоткеи
- Экспорт и импорт
- Разгрузка компьютера
Начало пути композера: ротоскопирование, кеинг, клинап.
- Ротоскопирование. Способ №1
- Ротоскопирование. Способ №2
- Напутствие
- Кеинг. База бесплатно
- Кеинг особенности сложных моментов
- Зеленая одежда на зеленом фоне.Начинаем
- Зеленая одежда на зеленом фоне.Продолжаем
- Убираем динамические объекты в статичных сценах. Часть 1
- Убираем динамические объекты в статичных сценах. Часть 2
- Делаем кожу глянцевой
- Ошибки в работе
- Исправляем дефекты тела. Ухо
- Исправляем дефекты тела. Бедра и ноги
Трекинг
- 2D трекинг бесплатно
- 3D трекинг
- Что делать если трекинг не цепляется
- Отдельная программа для трекинга Mocha
- Ручной трекинг
Композинг
- Композинг статуи свободы. Часть 1
- Композинг статуи свободы. Часть 2
- Работа с композингом текста в движущемся кадре + тени
- Киношная картинка. Глянцевый кадр
- Бесплатные и платные материалы для работы
- Breakdown and showreel
- Работа с клиентами. Авторская техника
- Заключение с мотивацией
Скриншоты:
       
Время раздачи: 24/7 (круглосуточно) (до появления первых 3-5 скачавших)

Clavik

Post 07-Oct-2019 20:11

[Quote]

Академия верстки | Разработка интернет магазина WP + WooCommerce (2018) PCRec [H.264] - Автор (режиссер): Артем Исламов, Олег Дмитриев
Производство: Академия верстки
Жанр: программирование, PHP, WordPress
Описание:
За 5 недель ты научишься с нуля создавать полноценные интернет-магазины и начнешь на этом зарабатывать от 1000$ в месяц.
Продолжительность: 11:25:45
Качество видео: PCRec
Видео: AVC/H.264, 1280x720-1920x1080, ~172-1111 Kbps
Аудио: AAC, 2 ch, 125-256 Kbps

MediaInfo:

Общее
Полное имя : .\02 Бонусы\006 SEO для WordPress.mp4
Формат : MPEG-4
Профиль формата : Base Media / Version 2
Идентификатор кодека : mp42 (mp42/mp41/isom/avc1)
Размер файла : 87,0 Мбайт
Продолжительность : 16 м. 36 с.
Режим общего битрейта : Переменный
Общий поток : 732 Кбит/сек
Дата кодирования : UTC 2018-03-19 16:46:20
Дата пометки : UTC 2018-03-19 16:46:20
Видео
Идентификатор : 1
Формат : AVC
Формат/Информация : Advanced Video Codec
Профиль формата : [url=mailto:High@L3.2]High@L3.2[/url]
Настройки формата : CABAC / 5 Ref Frames
Параметр CABAC формата : Да
Параметр RefFrames формата : 5 кадров
Идентификатор кодека : avc1
Идентификатор кодека/Информация : Advanced Video Coding
Продолжительность : 16 м. 36 с.
Битрейт : 468 Кбит/сек
Ширина : 1280 пикселей
Высота : 720 пикселей
Соотношение сторон : 16:9
Режим частоты кадров : Постоянный
Частота кадров : 60,000 кадров/сек
Цветовое пространство : YUV
Субдискретизация насыщенности : 4:2:0
Битовая глубина : 8 бит
Тип развёртки : Прогрессивная
Бит/(Пиксели*Кадры) : 0.008
Размер потока : 55,6 Мбайт (64%)
Библиотека кодирования : x264 core 155 r10 7d0ff22
Настройки программы : cabac=1 / ref=5 / deblock=1:0:0 / analyse=0x3:0x113 / me=hex / subme=8 / psy=1 / psy_rd=1.00:0.00 / mixed_ref=1 / me_range=16 / chroma_me=1 / trellis=2 / 8x8dct=1 / cqm=0 / deadzone=21,11 / fast_pskip=1 / chroma_qp_offset=-2 / threads=22 / lookahead_threads=3 / sliced_threads=0 / nr=0 / decimate=1 / interlaced=0 / bluray_compat=0 / stitchable=1 / constrained_intra=0 / bframes=3 / b_pyramid=2 / b_adapt=2 / b_bias=0 / direct=3 / weightb=1 / open_gop=0 / weightp=2 / keyint=infinite / keyint_min=60 / scenecut=40 / intra_refresh=0 / rc_lookahead=50 / rc=crf / mbtree=1 / crf=20.0 / qcomp=0.60 / qpmin=5 / qpmax=69 / qpstep=4 / vbv_maxrate=2750 / vbv_bufsize=7500 / crf_max=0.0 / nal_hrd=none / filler=0 / ip_ratio=1.40 / aq=1:1.00
Дата кодирования : UTC 2018-03-19 16:46:20
Дата пометки : UTC 2018-03-19 16:46:20
Цветовой диапазон : Limited
Основные цвета : BT.709
Характеристики трансфера : BT.709
Коэффициенты матрицы : BT.709
Codec configuration box : avcC
Аудио
Идентификатор : 2
Формат : AAC LC
Формат/Информация : Advanced Audio Codec Low Complexity
Идентификатор кодека : mp4a-40-2
Продолжительность : 16 м. 36 с.
Вид битрейта : Переменный
Битрейт : 256 Кбит/сек
Каналы : 2 канала
ChannelLayout : L R
Частота : 48,0 КГц
Частота кадров : 46,875 кадров/сек (1024 SPF)
Метод сжатия : С потерями
Размер потока : 30,4 Мбайт (35%)
Дата кодирования : UTC 2018-03-19 16:46:20
Дата пометки : UTC 2018-03-19 16:46:20
Общее
Полное имя : .\02 Бонусы\010 Безопасность на WordPress часть 3.mp4
Формат : MPEG-4
Профиль формата : Base Media / Version 2
Идентификатор кодека : mp42 (mp42/mp41/isom/avc1)
Размер файла : 33,3 Мбайт
Продолжительность : 4 м. 23 с.
Режим общего битрейта : Переменный
Общий поток : 1059 Кбит/сек
Дата кодирования : UTC 2018-05-08 06:53:55
Дата пометки : UTC 2018-05-08 06:53:55
Видео
Идентификатор : 1
Формат : AVC
Формат/Информация : Advanced Video Codec
Профиль формата : [url=mailto:High@L4.2]High@L4.2[/url]
Настройки формата : CABAC / 5 Ref Frames
Параметр CABAC формата : Да
Параметр RefFrames формата : 5 кадров
Идентификатор кодека : avc1
Идентификатор кодека/Информация : Advanced Video Coding
Продолжительность : 4 м. 23 с.
Битрейт : 795 Кбит/сек
Ширина : 1920 пикселей
Высота : 1080 пикселей
Соотношение сторон : 16:9
Режим частоты кадров : Постоянный
Частота кадров : 60,000 кадров/сек
Цветовое пространство : YUV
Субдискретизация насыщенности : 4:2:0
Битовая глубина : 8 бит
Тип развёртки : Прогрессивная
Бит/(Пиксели*Кадры) : 0.006
Размер потока : 25,0 Мбайт (75%)
Библиотека кодирования : x264 core 155 r10 7d0ff22
Настройки программы : cabac=1 / ref=5 / deblock=1:0:0 / analyse=0x3:0x113 / me=hex / subme=8 / psy=1 / psy_rd=1.00:0.00 / mixed_ref=1 / me_range=16 / chroma_me=1 / trellis=2 / 8x8dct=1 / cqm=0 / deadzone=21,11 / fast_pskip=1 / chroma_qp_offset=-2 / threads=34 / lookahead_threads=5 / sliced_threads=0 / nr=0 / decimate=1 / interlaced=0 / bluray_compat=0 / stitchable=1 / constrained_intra=0 / bframes=3 / b_pyramid=2 / b_adapt=2 / b_bias=0 / direct=3 / weightb=1 / open_gop=0 / weightp=2 / keyint=infinite / keyint_min=60 / scenecut=40 / intra_refresh=0 / rc_lookahead=50 / rc=crf / mbtree=1 / crf=20.0 / qcomp=0.60 / qpmin=5 / qpmax=69 / qpstep=4 / vbv_maxrate=5500 / vbv_bufsize=15000 / crf_max=0.0 / nal_hrd=none / filler=0 / ip_ratio=1.40 / aq=1:1.00
Дата кодирования : UTC 2018-05-08 06:53:55
Дата пометки : UTC 2018-05-08 06:53:55
Цветовой диапазон : Limited
Основные цвета : BT.709
Характеристики трансфера : BT.709
Коэффициенты матрицы : BT.709
Codec configuration box : avcC
Аудио
Идентификатор : 2
Формат : AAC LC
Формат/Информация : Advanced Audio Codec Low Complexity
Идентификатор кодека : mp4a-40-2
Продолжительность : 4 м. 23 с.
Вид битрейта : Переменный
Битрейт : 256 Кбит/сек
Каналы : 2 канала
ChannelLayout : L R
Частота : 48,0 КГц
Частота кадров : 46,875 кадров/сек (1024 SPF)
Метод сжатия : С потерями
Размер потока : 8,06 Мбайт (24%)
Дата кодирования : UTC 2018-05-08 06:53:55
Дата пометки : UTC 2018-05-08 06:53:55

Дополнительная информация:

В раздаче имеются архивы! В них содержится дополнительные материалы.
Скриншоты:
       

Clavik

Post 07-Oct-2019 19:42

[Quote]

Академия верстки | Трудоустройство (2019) PCRec [H.264/720p-LQ] - Автор (режиссер): Александр Шелков, Павел Лобанов, Даша Петрова
Производство: Академия верстки
Жанр: hr
Описание:
Подготовься к трудоустройству в веб-студию за 7 дней под руководством HR и владельца веб-студии — от составления резюме до вопросов на собеседовании. Выполнил урок, оставил заявку на работу, прошёл собеседование.
Продолжительность: 07:51:17
Качество видео: PCRec
Видео: AVC/H.264, 1280x720, ~106-1724 Kbps
Аудио: AAC, 2 ch, 127-137 Kbps

Содержание:

День 1. Резюме, анализ рынка, сопроводительные письма:
Структура резюме: основные блоки, результаты
Площадки для поиска работы, job-сайты, профильные соц.сети
Как писать сопроводительные письма и для чего они нужны
День 2. Практика: составляем резюме:
Индивидуальная обратная связь по резюме от преподавателя
День 3. Анализ рынка. Источники поиска вакансий. Соцсети для разработчиков:
Анализ рынка. Сбор информации и компаниях и вакансиях
Профильные соц.сети для разработчиков: какие есть и как оформить
Каналы в мессенджерах: поиск вакансий и сбор фидбеков
День 4. Практика: ищем вакансии и оставляем отклики:
Разбор ошибок и персональные рекомендации по откликам от преподавателя. Советы перед собеседованием.
День 5. Подготовка к интервью. Основные вопросы на собеседовании. Обсуждение зарплаты:
Подготовка к интервью. Чек-лист 150 вопросов на интервью и ответы на них
Понимание процесса со стороны компании. Что и на каком этапе они делают и для чего
Рассматриваем тестовые задания, как получить преимущество на этом этапе
Как правильно обсуждать условия работы и зарплату в проекте? Скрипты
День 6. Практика: готовимся к интервью:
Симуляция собеседования, практические рекомендации от преподавателя
День 7. Развитие карьеры. Финансы. Удаленка или релокация:
Как правильно проходить стажировку — проактивность, работа с людьми в новой команде, подход квыполнению задач и отчетность
Возможные варианты развития карьеры
Релокация в другой регион или удаленка. Финансы

MediaInfo:

Общее
Полное имя : .\01 Составление резюме. Сопроводительные письма.mp4
Формат : MPEG-4
Профиль формата : Base Media / Version 2
Идентификатор кодека : mp42 (mp42/mp41/isom/avc1)
Размер файла : 35,4 Мбайт
Продолжительность : 19 м. 4 с.
Режим общего битрейта : Переменный
Общий поток : 260 Кбит/сек
Дата кодирования : UTC 2018-09-11 13:36:14
Дата пометки : UTC 2018-09-11 13:36:14
Видео
Идентификатор : 1
Формат : AVC
Формат/Информация : Advanced Video Codec
Профиль формата : [url=mailto:High@L3.2]High@L3.2[/url]
Настройки формата : CABAC / 5 Ref Frames
Параметр CABAC формата : Да
Параметр RefFrames формата : 5 кадров
Идентификатор кодека : avc1
Идентификатор кодека/Информация : Advanced Video Coding
Продолжительность : 19 м. 4 с.
Битрейт : 118 Кбит/сек
Ширина : 1280 пикселей
Высота : 720 пикселей
Соотношение сторон : 16:9
Режим частоты кадров : Постоянный
Частота кадров : 30,000 кадров/сек
Цветовое пространство : YUV
Субдискретизация насыщенности : 4:2:0
Битовая глубина : 8 бит
Тип развёртки : Прогрессивная
Бит/(Пиксели*Кадры) : 0.004
Размер потока : 16,1 Мбайт (45%)
Библиотека кодирования : x264 core 157 r10M 303c484
Настройки программы : cabac=1 / ref=5 / deblock=1:0:0 / analyse=0x3:0x113 / me=hex / subme=8 / psy=1 / psy_rd=1.00:0.00 / mixed_ref=1 / me_range=16 / chroma_me=1 / trellis=2 / 8x8dct=1 / cqm=0 / deadzone=21,11 / fast_pskip=1 / chroma_qp_offset=-2 / threads=22 / lookahead_threads=3 / sliced_threads=0 / nr=0 / decimate=1 / interlaced=0 / bluray_compat=0 / stitchable=1 / constrained_intra=0 / bframes=3 / b_pyramid=2 / b_adapt=2 / b_bias=0 / direct=3 / weightb=1 / open_gop=0 / weightp=2 / keyint=infinite / keyint_min=30 / scenecut=40 / intra_refresh=0 / rc_lookahead=50 / rc=crf / mbtree=1 / crf=20.0 / qcomp=0.60 / qpmin=5 / qpmax=69 / qpstep=4 / vbv_maxrate=2750 / vbv_bufsize=7500 / crf_max=0.0 / nal_hrd=none / filler=0 / ip_ratio=1.40 / aq=1:1.00
Дата кодирования : UTC 2018-09-11 13:36:14
Дата пометки : UTC 2018-09-11 13:36:14
Цветовой диапазон : Limited
Основные цвета : BT.709
Характеристики трансфера : BT.709
Коэффициенты матрицы : BT.709
Codec configuration box : avcC
Аудио
Идентификатор : 2
Формат : AAC LC
Формат/Информация : Advanced Audio Codec Low Complexity
Идентификатор кодека : mp4a-40-2
Продолжительность : 19 м. 4 с.
Вид битрейта : Переменный
Битрейт : 137 Кбит/сек
Каналы : 2 канала
ChannelLayout : L R
Частота : 48,0 КГц
Частота кадров : 46,875 кадров/сек (1024 SPF)
Метод сжатия : С потерями
Размер потока : 18,7 Мбайт (53%)
Дата кодирования : UTC 2018-09-11 13:36:14
Дата пометки : UTC 2018-09-11 13:36:14
Скриншоты:
       
 

The time now is: Today 02:05

All times are GMT + 3 Hours