Today is a free download without charge Download

Search found 500 matches

Author Message

Clavik

Post 13-Sep-2019 19:34

[Quote]

Всё или ничего / All or Nothing (2002) WEB-DL - Производство: Великобритания, Франция, Les Films Alain Sarde, Thin Man Films
Жанр: драма
Режиссер: Майк Ли
Актеры: Тимоти Сполл, Лесли Менвилл, Элисон Гарлэнд, Джеймс Корден, Рут Шин, Мэрион Бэйли, Пол Джессон, Сэм Келли, Кэтрин Хантер, Сэлли Хоукинс
Описание:
Фильм рассказывает о жизни таксиста Фила, его жены Пенни и их детей. Дети страдают ожирением и от того видимо несчастны. Впрочем, несчастны и их родители, которым жизнь подкидывает суровые испытания. Пройти сквозь все невзгоды и сохранить семью — вот непростая задача, которая стоит перед Филом и Пенни.

Возраст: 16+ (зрителям, достигшим 16 лет)
Рейтинг MPAA: R (лицам до 17 лет обязательно присутствие взрослого)
Продолжительность: 02:08:21
Качество видео: WEB-DL
Перевод: Двуголосый профессиональный
Субтитры: Aнглийские
Видео: AVC/H.264, 1920x1040, ~9094 kbps
Аудио #1: AC3, 6 ch, 384 kbps - Русский
Аудио #2: AC3, 6 ch, 640 kbps - Aнглийский

MediaInfo:

General
Unique ID : 287762041059035035458873092652141112985 (0xD87CF4032B5219EB17157459CEA7EE99)
Complete name : D:\All Or Nothing (2002) [1080p].mkv
Format : Matroska
Format version : Version 4 / Version 2
File size : 9.07 GiB
Duration : 2 h 8 min
Overall bit rate mode : Variable
Overall bit rate : 10.1 Mb/s
Encoded date : UTC 2019-09-13 06:54:17
Writing application : mkvmerge v35.0.0 ('All The Love In The World') 64-bit
Writing library : libebml v1.3.9 + libmatroska v1.5.2
Video
ID : 1
Format : AVC
Format/Info : Advanced Video Codec
Format profile : High@L4
Format settings, CABAC : Yes
Format settings, RefFrames : 4 frames
Codec ID : V_MPEG4/ISO/AVC
Duration : 2 h 8 min
Bit rate mode : Variable
Bit rate : 9 094 kb/s
Maximum bit rate : 15.0 Mb/s
Width : 1 920 pixels
Height : 1 040 pixels
Display aspect ratio : 1.85:1
Frame rate mode : Constant
Frame rate : 23.976 (24000/1001) FPS
Color space : YUV
Chroma subsampling : 4:2:0
Bit depth : 8 bits
Scan type : Progressive
Bits/(Pixel*Frame) : 0.190
Stream size : 8.15 GiB (90%)
Default : Yes
Forced : No
Color range : Limited
Color primaries : BT.709
Transfer characteristics : BT.709
Matrix coefficients : BT.709
Audio #1
ID : 2
Format : AC-3
Format/Info : Audio Coding 3
Format settings, Endianness : Big
Codec ID : A_AC3
Duration : 2 h 8 min
Bit rate mode : Constant
Bit rate : 384 kb/s
Channel(s) : 6 channels
Channel positions : Front: L C R, Side: L R, LFE
Sampling rate : 48.0 kHz
Frame rate : 31.250 FPS (1536 SPF)
Bit depth : 16 bits
Compression mode : Lossy
Stream size : 353 MiB (4%)
Title : DVO
Language : Russian
Service kind : Complete Main
Default : Yes
Forced : No
Audio #2
ID : 3
Format : E-AC-3
Format/Info : Enhanced Audio Coding 3
Format settings, Endianness : Big
Codec ID : A_EAC3
Duration : 2 h 8 min
Bit rate mode : Constant
Bit rate : 640 kb/s
Channel(s) : 6 channels
Channel positions : Front: L C R, Side: L R, LFE
Sampling rate : 48.0 kHz
Frame rate : 187.500 FPS (256 SPF)
Compression mode : Lossy
Stream size : 588 MiB (6%)
Language : English
Service kind : Complete Main
Default : No
Forced : No
Text
ID : 4
Format : UTF-8
Codec ID : S_TEXT/UTF8
Codec ID/Info : UTF-8 Plain Text
Duration : 2 h 5 min
Bit rate : 52 b/s
Count of elements : 2135
Stream size : 48.1 KiB (0%)
Language : English
Default : No
Forced : No
Menu
00:00:00.220 : en:Studio Logos
00:00:22.437 : en:Rachel Cleans the Floors, Opening Credits; Multiple Locations
00:07:17.554 : en:Penny Returns Home; Multiple Locations
00:09:14.725 : en:Phil Shares a Philosophy over a Beer with Ron; Multiple Locations
00:12:05.102 : en:Phil Brings Home Bread; Bassett Household
00:16:55.133 : en:Samantha Comes Home Starving; Multiple Locations
00:22:05.171 : en:Phil Looks for Some Change; Bassett Household
00:28:32.178 : en:Rachel Cleans at Work; Nursing Home
00:29:37.192 : en:Ron Pays His Mechanic; Multiple Locations
00:32:02.209 : en:Sam Asks about Rachel's Night; Multiple Locations
00:34:51.230 : en:Phil Drives His Taxi; Multiple Locations
00:38:23.253 : en:Donna and Jason Spend Time Together; Donna's Room
00:42:14.263 : en:Penny Hangs Out with Her Friends; Bar
00:43:49.276 : en:Jason Reacts Explosively to Donna's News; Donna's Home
00:45:57.301 : en:Carol Compliments Maureen's Dress; Multiple Locations
00:50:14.317 : en:Samantha and Craig Flirt; Outside the Apartment Building
00:52:48.329 : en:Phil Finishes His Night Shift; Multiple Locations
00:54:50.335 : en:Rachel Checks on Martha; Nursing Home
00:55:54.379 : en:Maureen Tries to Help Donna; Multiple Locations
01:03:14.416 : en:Another Depressing Day; Multiple Locations
01:09:15.464 : en:Rory Has a Health Scare; Multiple Locations
01:17:23.487 : en:Rory Is Rushed to the Hospital; Multiple Locations
01:21:11.541 : en:Rory's Health Is Diagnosed; Multiple Locations
01:30:12.572 : en:Phil Learns about Rory's Hospitalization; Multiple Locations
01:35:17.609 : en:Phil Finally Arrives at the Hospital; Hospital
01:41:25.679 : en:Penny Discusses Rory's Health; Multiple Locations
01:53:11.692 : en:Penny Tries to Console Rachel; Bassett Household
01:55:21.722 : en:Penny and Phil Try to Reconcile; Bassett Household
02:00:24.751 : en:The Bassetts Visit Rory; Hospital
02:05:06.770 : en:End Credits
Скриншоты:
       

Clavik

Post 26-Aug-2019 17:36

[Quote]

Ракетчик / The Rocketeer (1991) BDRip «Three years before the United States declares war, Cliff Secord leads America's first battle against the Nazis.»-Производство: США / Walt Disney Pictures, Touchstone Pictures, Silver Screen Partners IV
Жанр: Фантастика, боевик, приключения, семейный
Режиссер: Джо Джонстон
Актеры: Билл Кэмпбелл, Дженнифер Коннелли, Алан Аркин, Тимоти Далтон, Пол Сорвино, Терри О’Куинн, Эд Лотер, Джеймс Хэнди, Тайни Рон, Роберт Миранда, Джон Полито, Эдди Джонс, Уильям Сэндерсон, Дон Пагсли, Марго Мартиндейл, Клинт Ховард
Описание:
Америка тридцатых годов, золотое время! Гангстеры, нацистские шпионы и допотопные аэропланы, заполнившие небо. Молодой пилот Клифф Сэкорд находит сверхсекретное устройство — ракетный ранец, позволяющий подниматься в воздух. Вскоре в газетах появляются сообщения о таинственном человеке, парящем в небе словно ракета.
Журналисты дают ему громкое прозвище «Ракетчик». По его следу пускаются буквально все: репортеры, агенты ФБР и фашисты, больше других заинтересованные в совершенном оружии. В облаках снова мелькнула стремительная тень. Мертвая петля вокруг его шеи затягивается все туже.

Возраст: 16+ (зрителям, достигшим 16 лет)
Рейтинг MPAA: PG (рекомендуется присутствие родителей)
Релиз от: Release Group
Продолжительность: 01:48:31
Качество видео: BDRip
Перевод: Профессиональный двухголосый, авторский
Субтитры: Английские
Видео: AVC/H.264, 1136x484, 4241 Кbps
Аудио 1: Русский: AC3, 6 ch, 448 Кbps | Профессиональный двухголосый закадровый, Видеосервис
Аудио 2: Русский: AC3, 6 ch, 448 Кbps | Авторский А.Марченко
Аудио 3: Русский: AC3, 2 ch, 192 Кbps | Авторский А.Гаврилов
Аудио 4: Английский: AC3, 6 ch, 448 Кbps | Оригинал

MediaInfo:

x264 [info]: frame I:1201  Avg QP:16.75  size: 74786
x264 [info]: frame P:30697 Avg QP:18.93 size: 38859
x264 [info]: frame B:124222 Avg QP:20.69 size: 18242
Общее
Уникальный идентификатор : 243064543835258032200653242761891603217 (0xB6DC87413B72FC5BB8756E9E0AC4E311)
Полное имя : D:\Мое видео\Torrenty\The.Rocketeer.1991.BDRip-AVC.mkv
Формат : Matroska
Версия формата : Version 2
Размер файла : 4,47 Гбайт
Продолжительность : 1 ч. 48 м.
Общий поток : 5894 Кбит/сек
Название фильма : The Rocketeer 1991
Дата кодирования : UTC 2012-05-01 19:56:46
Программа кодирования : mkvmerge v5.5.0 ('Healer') built on Apr 6 2012 21:43:24
Библиотека кодирования : libebml v1.2.3 + libmatroska v1.3.0
Attachments : The Rocketeer.jpg
Видео
Идентификатор : 1
Формат : AVC
Формат/Информация : Advanced Video Codec
Профиль формата : [url=mailto:High@L4.1]High@L4.1[/url]
Параметр CABAC формата : Да
Параметр ReFrames формата : 11 кадров
Идентификатор кодека : V_MPEG4/ISO/AVC
Продолжительность : 1 ч. 48 м.
Битрейт : 4241 Кбит/сек
Ширина : 1136 пикселей
Высота : 484 пикселя
Соотношение сторон : 2,35:1
Режим частоты кадров : Постоянный
Частота кадров : 23,976 (24000/1001) кадра/сек
Цветовое пространство : YUV
Субдискретизация насыщенности : 4:2:0
Битовая глубина : 8 бит
Тип развёртки : Прогрессивная
Бит/(Пиксели*Кадры) : 0.322
Размер потока : 3,22 Гбайт (72%)
Заголовок : The Rocketeer / Release from R.G.tRu
Библиотека кодирования : x264 core 124 r2197kMod 69a0443
Настройки программы : cabac=1 / ref=11 / deblock=1:-2:-2 / analyse=0x3:0x133 / me=umh / subme=11 / psy=1 / fade_compensate=0.00 / psy_rd=1.00:0.00 / mixed_ref=1 / me_range=64 / chroma_me=1 / trellis=2 / 8x8dct=1 / cqm=0 / deadzone=21,11 / fast_pskip=0 / chroma_qp_offset=-2 / threads=6 / sliced_threads=0 / nr=0 / decimate=1 / interlaced=0 / bluray_compat=0 / constrained_intra=0 / bframes=11 / b_pyramid=2 / b_adapt=2 / b_bias=0 / direct=3 / weightb=1 / open_gop=0 / weightp=2 / keyint=250 / keyint_min=23 / scenecut=40 / intra_refresh=0 / rc_lookahead=60 / rc=crf / mbtree=0 / crf=18.2000 / qcomp=0.65 / qpmin=0 / qpmax=69 / qpstep=4 / vbv_maxrate=25000 / vbv_bufsize=31250 / crf_max=0.0 / nal_hrd=none / ip_ratio=1.40 / pb_ratio=1.25 / aq=3:0.70 / zones=150254,156119,q=25
Язык : English
Default : Да
Forced : Нет
Цветовой диапазон : Limited
Коэффициенты матрицы : BT.709
Аудио #1
Идентификатор : 2
Формат : AC-3
Формат/Информация : Audio Coding 3
Параметр Endianness формата : Big
Идентификатор кодека : A_AC3
Продолжительность : 1 ч. 48 м.
Вид битрейта : Постоянный
Битрейт : 448 Кбит/сек
Каналы : 6 каналов
Расположение каналов : Front: L C R, Side: L R, LFE
Частота : 48,0 КГц
Частота кадров : 31,250 кадров/сек (1536 spf)
Битовая глубина : 16 бит
Метод сжатия : С потерями
Размер потока : 348 Мбайт (8%)
Заголовок : Видеосервис
Язык : Russian
ServiceKind/String : Complete Main
Default : Да
Forced : Нет
Аудио #2
Идентификатор : 3
Формат : AC-3
Формат/Информация : Audio Coding 3
Параметр Endianness формата : Big
Идентификатор кодека : A_AC3
Продолжительность : 1 ч. 48 м.
Вид битрейта : Постоянный
Битрейт : 448 Кбит/сек
Каналы : 6 каналов
Расположение каналов : Front: L C R, Side: L R, LFE
Частота : 48,0 КГц
Частота кадров : 31,250 кадров/сек (1536 spf)
Битовая глубина : 16 бит
Метод сжатия : С потерями
Размер потока : 348 Мбайт (8%)
Заголовок : А.Марченко
Язык : Russian
ServiceKind/String : Complete Main
Default : Нет
Forced : Нет
Аудио #3
Идентификатор : 4
Формат : AC-3
Формат/Информация : Audio Coding 3
Параметр Endianness формата : Big
Идентификатор кодека : A_AC3
Продолжительность : 1 ч. 48 м.
Вид битрейта : Постоянный
Битрейт : 192 Кбит/сек
Каналы : 2 канала
Расположение каналов : Front: L R
Частота : 48,0 КГц
Частота кадров : 31,250 кадров/сек (1536 spf)
Битовая глубина : 16 бит
Метод сжатия : С потерями
Размер потока : 149 Мбайт (3%)
Заголовок : А.Гаврилов
Язык : Russian
ServiceKind/String : Complete Main
Default : Нет
Forced : Нет
Аудио #4
Идентификатор : 5
Формат : AC-3
Формат/Информация : Audio Coding 3
Параметр Endianness формата : Big
Идентификатор кодека : A_AC3
Продолжительность : 1 ч. 48 м.
Вид битрейта : Постоянный
Битрейт : 448 Кбит/сек
Каналы : 6 каналов
Расположение каналов : Front: L C R, Side: L R, LFE
Частота : 48,0 КГц
Частота кадров : 31,250 кадров/сек (1536 spf)
Битовая глубина : 16 бит
Метод сжатия : С потерями
Размер потока : 348 Мбайт (8%)
Заголовок : Английский
Язык : English
ServiceKind/String : Complete Main
Default : Нет
Forced : Нет
Текст #1
Идентификатор : 6
Формат : UTF-8
Идентификатор кодека : S_TEXT/UTF8
Идентификатор кодека/Информация : UTF-8 Plain Text
Заголовок : Английские
Язык : English
Default : Нет
Forced : Нет
Текст #2
Идентификатор : 7
Формат : UTF-8
Идентификатор кодека : S_TEXT/UTF8
Идентификатор кодека/Информация : UTF-8 Plain Text
Заголовок : Английские - SDH
Язык : English
Default : Нет
Forced : Нет
Меню
00:00:00.000 : en:Opening
00:12:37.173 : en:The Hangar
00:18:20.724 : en:Tests
00:23:50.762 : en:Creeper
00:31:10.618 : en:The Movie Star
00:37:43.094 : en:Aerodrome
00:47:26.718 : en:What Have We Here?
00:53:39.883 : en:Above the Cafe
01:01:34.649 : en:Movie Star Spy!
01:08:44.787 : en:Trying to Spy on His Own
01:12:45.819 : en:In the Spider's Den
01:22:55.303 : en:Hughes Explains It All
01:26:41.029 : en:Smelling Victory
01:40:56.425 : en:Newspaper Clippings
01:44:03.695 : en:Heroes
Скриншоты:
       

indignation

Post 06-Jan-2019 20:31

[Quote]

Благодарю!

maxkiller

Post 31-Jul-2017 21:46

[Quote]

Хокинг / Hawking
Год выхода : 2004
Жанр : драма, биография,
Страна : Великобритания
Продолжительность : 01:28:40
Перевод : Любительский (одноголосый, закадровый) Игорь Степанов
Субтитры: Русские (daetoon1)
Режиссер : Филип Мартин / Philip Martin
В главных ролях : Бенедикт Камбербэтч, Майкл Брэндон, Том Ходжкинс, Лиза Диллон, Фиби Николлс, Адам Годли, Питер Фёрт, Том Уорд, Джон Сессионс, Роэн Сива
Описание : Биографический фильм об университетских годах выдающегося британского ученого астрофизика Стивена Хокинга.
Удивительная судьба удивительного человека. Фильм практически доподлинно рассказывает о самых значимых моментах начала карьеры Хокинга.
Замечательный фильм от ВВС снятый режиссером Филипом Мартином, не уступающий по своим меркам голливудским аналогам. И операторская работа и музыка и сюжет, который в прочем, не особо отличается от реальных событий, и даже интригующая концовка этого биографического фильма — заставляют смотреть его на одном дыхании.

Качество : HDRip-AVC
Формат видео : MKV
Видео : V_MPEG4/ISO/AVC, 720x404, ~2016 kbps avg, 25.000 fps
Aудио #1 : 48 kHz, AC3, 2ch, ~192.00 kbps avg [VO]
Aудио #2 : 48 kHz, AC3, 2ch, ~192.00 kbps avg [ENG]

MI

General
Unique ID : 190886131984201230732893321699560157122 (0x8F9B54EDF069A97FBA14F2DCDB1E6FC2)
Complete name : E:\INTERNET\Hawking.2004.HDRip-AVC.[VO]+Eng+Sub(Rus).mkv
Format : Matroska
Format version : Version 4 / Version 2
File size : 1.49 GiB
Duration : 1h 28mn
Overall bit rate : 2 401 Kbps
Movie name : Hawking (2004)
Encoded date : UTC 2017-07-30 19:21:41
Writing application : mkvmerge v6.1.0 ('Old Devil') built on Mar 2 2013 14:32:37
Writing library : libebml v1.3.0 + libmatroska v1.4.0
Video
ID : 1
Format : AVC
Format/Info : Advanced Video Codec
Format profile : High@L3
Format settings, CABAC : Yes
Format settings, ReFrames : 4 frames
Codec ID : V_MPEG4/ISO/AVC
Duration : 1h 28mn
Bit rate : 2 016 Kbps
Width : 720 pixels
Height : 404 pixels
Display aspect ratio : 16:9
Frame rate mode : Constant
Frame rate : 25.000 fps
Color space : YUV
Chroma subsampling : 4:2:0
Bit depth : 8 bits
Scan type : Progressive
Bits/(Pixel*Frame) : 0.277
Stream size : 1.22 GiB (82%)
Title : Hawking.2004.HDRip-AVC.[VO]+Eng
Writing library : x264 core 123 r2189 35cf912
Encoding settings : cabac=1 / ref=3 / deblock=1:0:0 / analyse=0x3:0x133 / me=hex / subme=7 / psy=1 / psy_rd=1.00:0.00 / mixed_ref=1 / me_range=16 / chroma_me=1 / trellis=1 / 8x8dct=1 / cqm=0 / deadzone=21,11 / fast_pskip=1 / chroma_qp_offset=-2 / threads=6 / sliced_threads=0 / nr=0 / decimate=1 / interlaced=0 / bluray_compat=0 / constrained_intra=0 / bframes=3 / b_pyramid=2 / b_adapt=1 / b_bias=0 / direct=1 / weightb=1 / open_gop=0 / weightp=2 / keyint=250 / keyint_min=25 / scenecut=40 / intra_refresh=0 / rc_lookahead=40 / rc=2pass / mbtree=1 / bitrate=2016 / ratetol=1.0 / qcomp=0.60 / qpmin=10 / qpmax=51 / qpstep=4 / cplxblur=20.0 / qblur=0.5 / ip_ratio=1.40 / aq=1:1.00
Language : English
Default : Yes
Forced : No
DURATION : 01:28:39.680000000
NUMBER_OF_FRAMES : 132992
NUMBER_OF_BYTES : 1340036031
_STATISTICS_WRITING_APP : mkvmerge v7.2.0 ('On Every Street') 32bit built on Sep 13 2014 15:42:11
_STATISTICS_WRITING_DATE_UTC : 2015-01-17 08:27:45
_STATISTICS_TAGS : BPS DURATION NUMBER_OF_FRAMES NUMBER_OF_BYTES
Audio #1
ID : 2
Format : AC-3
Format/Info : Audio Coding 3
Mode extension : CM (complete main)
Format settings, Endianness : Big
Codec ID : A_AC3
Duration : 1h 28mn
Bit rate mode : Constant
Bit rate : 192 Kbps
Channel(s) : 2 channels
Channel positions : Front: L R
Sampling rate : 48.0 KHz
Compression mode : Lossy
Delay relative to video : -369ms
Stream size : 122 MiB (8%)
Title : VO_Игорь Степанов
Language : Russian
Default : Yes
Forced : No
DURATION : 01:28:39.200000000
NUMBER_OF_FRAMES : 166225
NUMBER_OF_BYTES : 127660800
_STATISTICS_WRITING_APP : mkvmerge v7.2.0 ('On Every Street') 32bit built on Sep 13 2014 15:42:11
_STATISTICS_WRITING_DATE_UTC : 2015-01-17 08:27:45
_STATISTICS_TAGS : BPS DURATION NUMBER_OF_FRAMES NUMBER_OF_BYTES
Audio #2
ID : 3
Format : AC-3
Format/Info : Audio Coding 3
Mode extension : CM (complete main)
Format settings, Endianness : Big
Codec ID : A_AC3
Duration : 1h 28mn
Bit rate mode : Constant
Bit rate : 192 Kbps
Channel(s) : 2 channels
Channel positions : Front: L R
Sampling rate : 48.0 KHz
Compression mode : Lossy
Delay relative to video : -240ms
Stream size : 122 MiB (8%)
Title : ENG
Language : English
Default : No
Forced : No
Text
ID : 4
Format : UTF-8
Codec ID : S_TEXT/UTF8
Codec ID/Info : UTF-8 Plain Text
Title : [Sub Rus] by daetoon1
Language : Russian
Default : No
Forced : No

Скриншоты

     

}{@R0N

Post 30-Jan-2017 22:05

[Quote]

Потерянный в снегах / The Snow Walker - Производство: Канада
Жанр: Драма, приключения
Режиссер: Чарльз Мартин Смит
Актеры: Бэрри Пеппер, Анабелла Пиугаттук, Джеймс Кромуэлл, Кирстен Уоррен, Джон Грайз, Робин Данн, Малкольм Скотт, Майкл Бубле, Брэд Сивон, Грег Споттисвуд ...
Описание: Чарли Холлидей был рожден для того, чтобы работать в арктической пустыни. Его самолет бороздил воздушное пространство практически в любую погоду, доставляя продовольствие в самые отдаленные уголки Канадской Арктики.
Не удивительно, что даже зная о предстоящем буране он согласился доставить в больницу, страдающую от туберкулеза девушку Иунит из местного племени.
Однако даже Чарли не был готов к тому, какую участь уготовила ему судьба. Его верный самолет оказавшийся не в силах противостоять разбушевавшейся стихии, терпит катастрофу и отважный пилот вместе со спутницей, практически не говорящей по-английски, оказывается один на один с бесконечной арктической пустыней...

Возраст: 16+ (зрителям, достигшим 16 лет)
Рейтинг MPAA: PG (рекомендуется присутствие родителей)
Продолжительность: 01:45:19
Качество видео: DVDRip
Перевод: Профессиональный двухголосый
Субтитры: Отсутствуют
Видео: MPEG4, XviD, 720x384 (1.875), 29.970 fps, 2 338 Kbps (0.282 bit/pixel)
Аудио #1: AC-3, 48.0 KHz, 6 ch, 384 Kbps, CBR | Русский
Аудио #2: AC-3, 48.0 KHz, 6 ch, 224 Kbps, CBR | Английский

MediaInfo:

Общее
Полное имя : C:\NNM\Потерянный в снегах\Poteryannyj v snegah 2003 DVDRip.avi
Формат : AVI
Формат/Информация : Audio Video Interleave
Профиль формата : OpenDML
Настройки формата : rec
Размер файла : 2,17 Гбайт
Продолжительность : 1 ч. 45 м.
Общий поток : 2954 Кбит/сек
Программа кодирования : AVI-Mux GUI 1.17.8.3, Feb 16 201019:42:50
Видео
Идентификатор : 0
Формат : MPEG-4 Visual
Профиль формата : Advanced Simple@L5
Параметр BVOP формата : 1
Параметр QPel формата : Нет
Параметр GMC формата : Без точки перехода
Параметр матрицы формата : Default (MPEG)
Режим смешивания : Сжатый битовый поток
Идентификатор кодека : XVID
Идентификатор кодека/Подсказка : XviD
Продолжительность : 1 ч. 45 м.
Битрейт : 2338 Кбит/сек
Ширина : 720 пикселей
Высота : 384 пикселя
Соотношение сторон : 1,85:1
Частота кадров : 29,970 (30000/1001) кадров/сек
Цветовое пространство : YUV
Субдискретизация насыщенности : 4:2:0
Битовая глубина : 8 бит
Тип развёртки : Прогрессивная
Метод сжатия : С потерями
Бит/(Пиксели*Кадры) : 0.282
Размер потока : 1,72 Гбайт (79%)
Библиотека кодирования : XviD 1.2.0.dev47 (UTC 2006-11-01)
Аудио #1
Идентификатор : 1
Формат : AC-3
Формат/Информация : Audio Coding 3
Расширение режима : CM (complete main)
Параметр Endianness формата : Big
Идентификатор кодека : 2000
Продолжительность : 1 ч. 45 м.
Вид битрейта : Постоянный
Битрейт : 384 Кбит/сек
Каналы : 6 каналов
Расположение каналов : Front: L C R, Side: L R, LFE
Частота : 48,0 КГц
Частота кадров : 31,250 кадров/сек (1536 spf)
Битовая глубина : 16 бит
Метод сжатия : С потерями
Размер потока : 289 Мбайт (13%)
Выравнивание : Соединение по промежуткам
Продолжительность промежутка : 64 мс. (1,92 видеокадра)
Время предзагрузки промежутка : 192 мс.
Заголовок : Rus MVO
Аудио #2
Идентификатор : 2
Формат : AC-3
Формат/Информация : Audio Coding 3
Расширение режима : CM (complete main)
Параметр Endianness формата : Big
Идентификатор кодека : 2000
Продолжительность : 1 ч. 45 м.
Вид битрейта : Постоянный
Битрейт : 224 Кбит/сек
Каналы : 6 каналов
Расположение каналов : Front: L C R, Side: L R, LFE
Частота : 48,0 КГц
Частота кадров : 31,250 кадров/сек (1536 spf)
Битовая глубина : 16 бит
Метод сжатия : С потерями
Размер потока : 169 Мбайт (8%)
Выравнивание : Соединение по промежуткам
Продолжительность промежутка : 64 мс. (1,92 видеокадра)
Время предзагрузки промежутка : 192 мс.
Заголовок : Eng
Скриншоты:        

Russian Mafia

Post 15-Sep-2016 20:09

[Quote]

Девушка с татуировкой дракона / Man som hatar kvinnor / The Girl with the Dragon Tattoo (2009) BDRip [Расширенная версия]- Производство: Швеция, Дания, Германия, Норвегия / Danish Filminstitute, Danmarks Radio (DR), Film i Väst
Жанр: триллер, драма, криминал, детектив
Режиссер: Нильс Арден Оплев
Продюсер: Сёрен Стемосе, Сьюзанн Биллберг-Ридхольм, Анни Форби Фернандез
Актеры: Микаэл Нюквист, Нуми Рапас, Питер Абер, Свен-Бертиль Таубе, Петер Андерссон, Ингвар Хирдвалль, Марика Лагеркранц, Лена Эндре, Бьёрн Гранат, Эва Фрёлинг, Михалис Куцогианнакис, Анника Халлин, София Ледарп, Томас Колер, Давид Денсик, Гуннель Линдблум
Описание:
Фильм выполнен в духе классических детективов - Агаты Кристи и Артур Конан Дойля, но снят в стиле современных остросюжетных лент, которым присущи жестокость, эротика, кровь. Расследование главных героев, журналиста Микаэля Блумквиста и хакерши Лисбет Саландер, исчезновения юной племянницы промышленного магната, которое произошло более сорока лет назад, представляет собой захватывающую головоломку, следующий ход которой практически нельзя предугадать заранее. У вас не получится проникнуться какими-то чувствами к подозреваемым в этом деле, да оно и не важно, тут интересен сам ход расследования. А в расширенном варианте и с великолепным переводом Юрия Немахова фильм заиграет новыми красками!

Возраст: 18+ (зрителям, достигшим 18 лет. запрещено для детей)
Рейтинг MPAA: R (лицам до 17 лет обязательно присутствие взрослого)
Награды и номинации

Продолжительность: 03:06:01
Качество: BDRip Сэмпл
Перевод: Профессиональный (многоголосый закадровый) (Русский Репортаж, 100ТВ), Авторский (одноголосый, закадровый) (Юрий Немахов)
Вид субтитров: Внешние, отключаемые
Язык субтитров: Русский, Английский
Данные по 1 части:
Видео: XviD, 720x400, (16:9), 1790 kbps, 23,976 fps
Аудио 01: AC3, 6 ch, 448 kbps - Русский, (AVO, Юрий Немахов) в контейнере
Аудио 02: AC3, 2 ch, 192 kbps - Русский, (MVO, 100ТВ) отдельно
Аудио 03: AC3, 6 ch, 448 kbps - Шведский, отдельно
Данные по 2 части:
Видео: XviD, 720x400, (16:9), 1792 kbps, 23,976 fps
Аудио 01: AC3, 6 ch, 448 kbps - Русский, (AVO, Юрий Немахов) в контейнере
Аудио 02: AC3, 2 ch, 192 kbps - Русский, (MVO, 100ТВ) отдельно
Аудио 03: AC3, 6 ch, 448 kbps - Шведский, отдельно

Дополнительная информация:

Код:
Общее
Полное имя : B:\Män.som.hatar.kvinnor.2009.Extended.BDRip-ylnian\1.avi
Формат : AVI
Формат/Информация : Audio Video Interleave
Размер файла : 1,46 Гбайт
Продолжительность : 1 ч. 33 м.
Общий поток : 2247 Кбит/сек
Программа кодирования : VirtualDubMod 1.5.10.2 (build 2540/release)
Библиотека кодирования : VirtualDubMod build 2540/release
Видео
Идентификатор : 0
Формат : MPEG-4 Visual
Профиль формата : Advanced Simple@L5
Параметр BVOP формата : 1
Параметр QPel формата : Нет
Параметр GMC формата : Без точки перехода
Параметр матрицы формата : Default (MPEG)
Идентификатор кодека : XVID
Идентификатор кодека/Подсказка : XviD
Продолжительность : 1 ч. 33 м.
Битрейт : 1790 Кбит/сек
Ширина : 720 пикселей
Высота : 400 пикселей
Соотношение сторон : 16:9
Частота кадров : 23,976 (24000/1001) кадра/сек
Цветовое пространство : YUV
Субдискретизация насыщенности : 4:2:0
Битовая глубина : 8 бит
Тип развёртки : Прогрессивная
Метод сжатия : С потерями
Бит/(Пиксели*Кадры) : 0.259
Размер потока : 1,16 Гбайт (80%)
Библиотека кодирования : XviD 67
Аудио
Идентификатор : 1
Формат : AC-3
Формат/Информация : Audio Coding 3
Расширение режима : CM (complete main)
Параметр Endianness формата : Big
Идентификатор кодека : 2000
Продолжительность : 1 ч. 33 м.
Вид битрейта : Постоянный
Битрейт : 448 Кбит/сек
Каналы : 6 каналов
Расположение каналов : Front: L C R, Side: L R, LFE
Частота : 48,0 КГц
Частота кадров : 31,250 кадров/сек (1536 spf)
Метод сжатия : С потерями
Размер потока : 298 Мбайт (20%)
Выравнивание : Разделение по промежуткам
Продолжительность промежутка : 42 мс. (1,00 видеокадр)
Время предзагрузки промежутка : 500 мс.
Заголовок : RUS - AVO - Nemahov
Общее
Полное имя : B:\Män.som.hatar.kvinnor.2009.Extended.BDRip-ylnian\1_eng.srt
Размер файла : 55,2 Кбайт
Общее
Полное имя : B:\Män.som.hatar.kvinnor.2009.Extended.BDRip-ylnian\1_mvo_100TV.ac3
Формат : AC-3
Формат/Информация : Audio Coding 3
Размер файла : 128 Мбайт
Продолжительность : 1 ч. 33 м.
Режим общего битрейта : Постоянный
Общий поток : 192 Кбит/сек
Аудио
Формат : AC-3
Формат/Информация : Audio Coding 3
Расширение режима : CM (complete main)
Параметр Endianness формата : Big
Продолжительность : 1 ч. 33 м.
Вид битрейта : Постоянный
Битрейт : 192 Кбит/сек
Каналы : 2 канала
Расположение каналов : Front: L R
Частота : 48,0 КГц
Частота кадров : 31,250 кадров/сек (1536 spf)
Метод сжатия : С потерями
Размер потока : 128 Мбайт (100%)
Общее
Полное имя : B:\Män.som.hatar.kvinnor.2009.Extended.BDRip-ylnian\1_rus.srt
Формат : SubRip
Размер файла : 83,5 Кбайт
Текст
Формат : SubRip
Метод сжатия : Без потерь
Общее
Полное имя : B:\Män.som.hatar.kvinnor.2009.Extended.BDRip-ylnian\1_swe.ac3
Формат : AC-3
Формат/Информация : Audio Coding 3
Размер файла : 298 Мбайт
Продолжительность : 1 ч. 33 м.
Режим общего битрейта : Постоянный
Общий поток : 448 Кбит/сек
Аудио
Формат : AC-3
Формат/Информация : Audio Coding 3
Расширение режима : CM (complete main)
Параметр Endianness формата : Big
Продолжительность : 1 ч. 33 м.
Вид битрейта : Постоянный
Битрейт : 448 Кбит/сек
Каналы : 6 каналов
Расположение каналов : Front: L C R, Side: L R, LFE
Частота : 48,0 КГц
Частота кадров : 31,250 кадров/сек (1536 spf)
Метод сжатия : С потерями
Размер потока : 298 Мбайт (100%)
Общее
Полное имя : B:\Män.som.hatar.kvinnor.2009.Extended.BDRip-ylnian\2.avi
Формат : AVI
Формат/Информация : Audio Video Interleave
Размер файла : 1,46 Гбайт
Продолжительность : 1 ч. 33 м.
Общий поток : 2249 Кбит/сек
Программа кодирования : VirtualDubMod 1.5.10.2 (build 2540/release)
Библиотека кодирования : VirtualDubMod build 2540/release
Видео
Идентификатор : 0
Формат : MPEG-4 Visual
Профиль формата : Advanced Simple@L5
Параметр BVOP формата : 1
Параметр QPel формата : Нет
Параметр GMC формата : Без точки перехода
Параметр матрицы формата : Default (MPEG)
Идентификатор кодека : XVID
Идентификатор кодека/Подсказка : XviD
Продолжительность : 1 ч. 33 м.
Битрейт : 1792 Кбит/сек
Ширина : 720 пикселей
Высота : 400 пикселей
Соотношение сторон : 16:9
Частота кадров : 23,976 (24000/1001) кадра/сек
Цветовое пространство : YUV
Субдискретизация насыщенности : 4:2:0
Битовая глубина : 8 бит
Тип развёртки : Прогрессивная
Метод сжатия : С потерями
Бит/(Пиксели*Кадры) : 0.259
Размер потока : 1,16 Гбайт (80%)
Библиотека кодирования : XviD 67
Аудио
Идентификатор : 1
Формат : AC-3
Формат/Информация : Audio Coding 3
Расширение режима : CM (complete main)
Параметр Endianness формата : Big
Идентификатор кодека : 2000
Продолжительность : 1 ч. 33 м.
Вид битрейта : Постоянный
Битрейт : 448 Кбит/сек
Каналы : 6 каналов
Расположение каналов : Front: L C R, Side: L R, LFE
Частота : 48,0 КГц
Частота кадров : 31,250 кадров/сек (1536 spf)
Метод сжатия : С потерями
Размер потока : 298 Мбайт (20%)
Выравнивание : Разделение по промежуткам
Продолжительность промежутка : 42 мс. (1,00 видеокадр)
Время предзагрузки промежутка : 500 мс.
Заголовок : RUS - AVO - Nemahov
Общее
Полное имя : B:\Män.som.hatar.kvinnor.2009.Extended.BDRip-ylnian\2_eng.srt
Формат : SubRip
Размер файла : 51,4 Кбайт
Текст
Формат : SubRip
Метод сжатия : Без потерь
Общее
Полное имя : B:\Män.som.hatar.kvinnor.2009.Extended.BDRip-ylnian\2_mvo_100TV.ac3
Формат : AC-3
Формат/Информация : Audio Coding 3
Размер файла : 128 Мбайт
Продолжительность : 1 ч. 33 м.
Режим общего битрейта : Постоянный
Общий поток : 192 Кбит/сек
Аудио
Формат : AC-3
Формат/Информация : Audio Coding 3
Расширение режима : CM (complete main)
Параметр Endianness формата : Big
Продолжительность : 1 ч. 33 м.
Вид битрейта : Постоянный
Битрейт : 192 Кбит/сек
Каналы : 2 канала
Расположение каналов : Front: L R
Частота : 48,0 КГц
Частота кадров : 31,250 кадров/сек (1536 spf)
Метод сжатия : С потерями
Размер потока : 128 Мбайт (100%)
Общее
Полное имя : B:\Män.som.hatar.kvinnor.2009.Extended.BDRip-ylnian\2_rus.srt
Формат : SubRip
Размер файла : 75,9 Кбайт
Текст
Формат : SubRip
Метод сжатия : Без потерь
Общее
Полное имя : B:\Män.som.hatar.kvinnor.2009.Extended.BDRip-ylnian\2_swe.ac3
Формат : AC-3
Формат/Информация : Audio Coding 3
Размер файла : 298 Мбайт
Продолжительность : 1 ч. 33 м.
Режим общего битрейта : Постоянный
Общий поток : 448 Кбит/сек
Аудио
Формат : AC-3
Формат/Информация : Audio Coding 3
Расширение режима : CM (complete main)
Параметр Endianness формата : Big
Продолжительность : 1 ч. 33 м.
Вид битрейта : Постоянный
Битрейт : 448 Кбит/сек
Каналы : 6 каналов
Расположение каналов : Front: L C R, Side: L R, LFE
Частота : 48,0 КГц
Частота кадров : 31,250 кадров/сек (1536 spf)
Метод сжатия : С потерями
Размер потока : 298 Мбайт (100%)

Скриншоты

       

Region_13

Post 15-Apr-2016 16:47

[Quote]

Парасомния / Parasomnia Год выпуска: 2008
Страна: США
Жанр: Ужасы, триллер, мелодрама
Длительность: 01:39:47
Перевод:Профессиональный многоголосый (Flagman Trade)
Субтитры: Отсутствуют
Режиссер: Уильям Мэлоун
Продюссер: Элизабет Эрнхарт, Вероника Харт, Джон Джанотта
Сценарий: Уильям Мэлоун
Премьера в мире: 17 октября 2008
лицам до 17 лет обязательно присутствие взрослого
В ролях: Дилан Пурселл, Патрик Килпатрик, Джеффри Комбс, Шерилин Уилсон, Тимоти Боттомс, Кэтрин Ли Скотт, Бреннан Мандт, Дов Тифенбах, Элисон Бри, Мэдисон Девенпорт, Сара Лэйн
Описание: Главная героиня — молодая девушка по имени Лора Бакстер, которая в детстве стала жертвой несчастного случая. Это послужило причиной того, что она впала в длительную спячку, лишь изредка просыпаясь. В госпиталь, в котором находится девушка, помещен жестокий маньяк-убийца Байрон Волп. И у него есть свои планы насчет спящей Лауры. Только бойфренд девушки студент Дэнни, искренне любящий ее, сможет помочь своей возлюбленной.


Качество: BDRip 720p
Формат: MKV
Видео кодек: XviD
Аудио кодек: AC3
Видео: MPEG-4 AVC, 5812 Кбит/с, 1280x720
Аудио#1: Русский (AC3, 2 ch, 192 Кбит/с), английский (AC3, 6 ch, 448 Кбит/с)

Mediainfo

Код:
General
Unique ID : 210840214194474617095225236566096256243 (0x9E9E59239F8512FF99BA85ECC0549CF3)
Название : F:\Parasomnia.2008.720p.mkv
Формат : Matroska
Формат version : Version 2
Размер файла : 4.50 GiB
Длительность : 1h 39mn
Общий Битрейт : 6 456 Kbps
Encoded date : UTC 2011-01-30 20:45:37
Создано приложением : mkvmerge v3.3.0 ('Язык') built on Mar 24 2010 14:59:24
Writing library : libebml v0.8.0 + libmatroska v0.9.0
Video
ID : 1
Формат : AVC
Формат/Info : Advanced Video Кодек
Формат profile : High@L4.1
Формат настройки, CABAC : Yes
Формат настройки, ReFrames : 8 frames
Кодек ID : V_MPEG4/ISO/AVC
Длительность : 1h 39mn
Битрейт : 5 812 Kbps
Width : 1 280 пикселей
Высота : 720 пикселей
Соотношение кадра : 16:9
Частота кадров mode : Constant
Частота кадров : 25.000 fps
Цветопередача : YUV
Chroma subsampling : 4:2:0
Разрядность : 8 bits
Тип сканирования : Progressive
Bits/(Pixel*Frame) : 0.252
Размер потока : 3.96 GiB (88%)
Title : Parasomnia.2008.BluRay.720P.AC3.x264-CHD
Writing library : x264 core 88 r1471 1144615
Encoding настройки : cabac=1 / ref=8 / deblock=1:-3:-3 / analyse=0x3:0x113 / me=umh / subme=9 / psy=1 / psy_rd=1.00:0.10 / mixed_ref=1 / me_range=32 / chroma_me=1 / trellis=2 / 8x8dct=1 / cqm=2 / deadzone=21,11 / fast_pskip=0 / chroma_qp_offset=-2 / threads=6 / sliced_threads=0 / nr=0 / decimate=1 / mbaff=0 / constrained_intra=0 / bframes=3 / b_pyramid=2 / b_adapt=2 / b_bias=0 / direct=3 / wpredb=1 / wpredp=2 / keyint=250 / keyint_min=25 / scenecut=40 / intra_refresh=0 / rc_lookahead=60 / rc=2pass / mbtree=1 / bitrate=5812 / ratetol=1.0 / qcomp=0.60 / qpmin=10 / qpmax=51 / qpstep=4 / cplxblur=20.0 / qblur=0.5 / vbv_maxrate=50000 / vbv_bufsize=50000 / ip_ratio=1.40 / aq=1:0.60
Язык : English
Default : Yes
Forced : No
Audio #1
ID : 2
Формат : AC-3
Формат/Info : Audio Coding 3
Расширение режима : CM (complete main)
Формат настройки, Endianness : Big
Кодек ID : A_AC3
Длительность : 1h 39mn
Битрейт mode : Constant
Битрейт : 192 Kbps
Channel(s) : 2 канала
Channel positions : Front: L R
Частота : 48.0 KHz
Частота кадров : 31.250 fps (1536 spf)
Режим сжатия : Lossy
Размер потока : 137 MiB (3%)
Title : MVO R5 AC3 2.0 192
Язык : Russian
Default : Yes
Forced : No
Audio #2
ID : 3
Формат : AC-3
Формат/Info : Audio Coding 3
Расширение режима : CM (complete main)
Формат настройки, Endianness : Big
Кодек ID : A_AC3
Длительность : 1h 39mn
Битрейт mode : Constant
Битрейт : 448 Kbps
Channel(s) : 6 каналов
Channel positions : Front: L C R, Side: L R, LFE
Частота : 48.0 KHz
Частота кадров : 31.250 fps (1536 spf)
Режим сжатия : Lossy
Размер потока : 320 MiB (7%)
Title : English AC3 5.1 448Kbps
Язык : English
Default : No
Forced : No

Скриншоты

     

Region_13

Post 06-Feb-2016 14:53

[Quote]

Геймер / Gamer Год выпуска: 2009
Страна: США
Жанр: фантастика, боевик, триллер
Длительность: 01:34:50
Перевод: Дубляж
Субтитры: русские (Полные), английские (Полные)
Режиссер: Марк Невелдайн , Брайан Тейлор
В ролях: Джерард Батлер (Kable), Эмбер Валлетта (Angie), Майкл С. Холл (Ken Castle), Кира Седжвик (Gina Parker Smith), Логан Лерман (Simon), Элисон Ломан (Trace), Терри Крюс (Hackman), Рэмси Мур (Gorge), Лудакрис (Humanz Brother), Аарон Йу (Humanz Dude), Джонатан Чейз (Geek Leader), Дэн Каллахан (Backup Geek)
Описание:
Действие фильма происходит в недалёком утопическом будущем, где высочайшее развитие нанотехнологий позволило технологическому гению Кену Кастлу соединить видеоигру с реалити-шоу и смоделировать ультрафункциональную, мультиплеерную игру «Убийцы», которая стала средой обитания местных преступников.
Джон Тиллман, приговоренный к пожизненному заключению за преступление, которого не совершал, должен принять участие в Игре, чтобы получить свободу. Для одного богатого молодого игрока Джон Тиллман это - Кэйбл, всего лишь сим, управляемый персонаж игры. Благодаря своим боевым способностям и физической силе, Кэйбл становится национальным героем и занимает первые позиции в игре.
Каждую неделю миллионы людей во всём мире в режиме онлайн следят за ним и сотней других смертников, которые участвуют в битвах игры. По мнению группы мятежников, которая противостоит Кастлу, его игра - это высокотехнологичное рабство, а он является тем критическим элементом, который необходимо уничтожить. Кэйбл/Тиллман оказался между двумя мощными противоборствующими силами, которые не заинтересованы в том, чтобы он выжил. С каждым шагом, за которым наблюдают миллионы, Джон Тилман сражается, чтобы получить свободу, восстановить свою личность и низвергнуть систему, которая его заключила в тюрьму.
Рейтинг:
MPAA: R - Лицам до 17 лет обязательно присутствие взрослого
Качество: BDRip-AVC 60fps
Формат: MKV
Видео: AVC, 1024x552 (1.855), 4800 kbps, 59,940 fps, 0,142 bpp
Аудио: русский / AC3 / 5.1 / 48 kHz / 640 kbps / 16 bit
Навигация по главам: есть
СКРИНШОТЫ            

MEDIAINFO

General
Unique ID : 189965943244131831768867342518351563937 (0x8EEA1C1F2DFEA86CADCEB0BAE9500CA1)
Название : D:\Геймер BDRip-AVC 60fps
Формат : Matroska
Формат version : Version 4 / Version 2
Размер файла : 3.60 GiB
Длительность : 1h 34mn
Общий Битрейт : 5 439 Kbps
Encoded date : UTC 2016-02-06 02:09:45
Создано приложением : mkvmerge v8.8.0 ('Wind at my back') 64bit
Writing library : libebml v1.3.3 + libmatroska v1.4.4
Длительность : 01:23:58.583000000
NUMBER_OF_FRAMES : 861
NUMBER_OF_BYTES : 31487
_STATISTICS_WRITING_APP : mkvmerge v8.8.0 ('Wind at my back') 64bit
_STATISTICS_WRITING_DATE_UTC : 2016-02-06 02:09:45
_STATISTICS_TAGS : BPS Длительность NUMBER_OF_FRAMES NUMBER_OF_BYTES
Attachment : Yes
Video
ID : 1
Формат : AVC
Формат/Info : Advanced Video Кодек
Формат profile : High@L4.1
Формат настройки, CABAC : Yes
Формат настройки, ReFrames : 4 frames
Кодек ID : V_MPEG4/ISO/AVC
Длительность : 1h 34mn
Битрейт : 4 800 Kbps
Width : 1 024 пикселей
Высота : 552 пикселей
Соотношение кадра : 1.855
Частота кадров : 59.940 fps
Цветопередача : YUV
Chroma subsampling : 4:2:0
Разрядность : 8 bits
Тип сканирования : Progressive
Bits/(Pixel*Frame) : 0.142
Размер потока : 3.11 GiB (86%)
Writing library : x264 core 146 r2538 121396c
Encoding настройки : cabac=1 / ref=3 / deblock=1:0:0 / analyse=0x3:0x113 / me=umh / subme=9 / psy=1 / psy_rd=1.00:0.10 / mixed_ref=1 / me_range=32 / chroma_me=1 / trellis=2 / 8x8dct=1 / cqm=0 / deadzone=21,11 / fast_pskip=0 / chroma_qp_offset=-3 / threads=12 / lookahead_threads=3 / sliced_threads=0 / nr=0 / decimate=1 / interlaced=0 / bluray_compat=0 / constrained_intra=0 / bframes=16 / b_pyramid=2 / b_adapt=2 / b_bias=0 / direct=3 / weightb=1 / open_gop=0 / weightp=2 / keyint=250 / keyint_min=25 / scenecut=40 / intra_refresh=0 / rc_lookahead=40 / rc=2pass / mbtree=1 / bitrate=4800 / ratetol=1.0 / qcomp=0.60 / qpmin=0 / qpmax=69 / qpstep=4 / cplxblur=20.0 / qblur=0.5 / vbv_maxrate=14000 / vbv_bufsize=14000 / nal_hrd=none / filler=0 / ip_ratio=1.40 / aq=1:1.00
Язык : English
Default : Yes
Forced : No
Длительность : 01:34:50.624000000
NUMBER_OF_FRAMES : 341096
NUMBER_OF_BYTES : 3410921315
_STATISTICS_WRITING_APP : mkvmerge v8.8.0 ('Wind at my back') 64bit
_STATISTICS_WRITING_DATE_UTC : 2016-02-06 02:09:45
_STATISTICS_TAGS : BPS Длительность NUMBER_OF_FRAMES NUMBER_OF_BYTES
Audio
ID : 2
Формат : AC-3
Формат/Info : Audio Coding 3
Расширение режима : CM (complete main)
Кодек ID : A_AC3
Длительность : 1h 34mn
Битрейт mode : Constant
Битрейт : 640 Kbps
Channel(s) : 6 каналов
Channel positions : Front: L C R, Side: L R, LFE
Частота : 48.0 KHz
Разрядность : 16 bits
Режим сжатия : Lossy
Delay relative to video : 1s 500ms
Размер потока : 434 MiB (12%)
Title : Дубляж
Язык : Russian
Default : Yes
Forced : No
Text #1
ID : 3
Формат : UTF-8
Кодек ID : S_TEXT/UTF8
Кодек ID/Info : UTF-8 Plain Text
Title : Полные
Язык : Russian
Default : No
Forced : No
Text #2
ID : 4
Формат : UTF-8
Кодек ID : S_TEXT/UTF8
Кодек ID/Info : UTF-8 Plain Text
Title : Полные
Язык : English
Default : No
Forced : No
Menu
00:00:00.000 : en:Chapter 1
00:05:00.000 : en:Chapter 2
00:10:00.000 : en:Chapter 3
00:15:00.000 : en:Chapter 4
00:20:00.000 : en:Chapter 5
00:25:00.000 : en:Chapter 6
00:30:00.000 : en:Chapter 7
00:35:00.000 : en:Chapter 8
00:40:00.000 : en:Chapter 9
00:45:00.000 : en:Chapter 10
00:50:00.000 : en:Chapter 11
00:55:00.000 : en:Chapter 12
01:00:00.000 : en:Chapter 13
01:05:00.000 : en:Chapter 14
01:10:00.000 : en:Chapter 15
01:15:00.000 : en:Chapter 16
01:20:00.000 : en:Chapter 17
01:25:00.000 : en:Chapter 18
01:30:00.000 : en:Chapter 19

Region_13

Post 31-Jan-2016 16:51

[Quote]

Пятница 13-е / Friday the 13th
Год выпуска: 2009
Страна: США
Жанр: ужасы
Продолжительность: 97 мин. / 01:37
Перевод: Профессиональный(дублированный)
Режиссер: Маркус Ниспел
Продюссер: Майкл Бэй, Шон С. Каннингэм, Эндрю Форм
Сценарий: Дэмиэн Шеннон, Марк Свифт, Марк Уитон
Бюджет: $19 000 000
Премьера в мире: 9 февраля 2009
рейтинг R лицам до 17 лет обязательно присутствие взрослого


В ролях: Джаред Падалеки, Даниэль Панабэйкер, Аманда Ригетти, Трэвис Ван Винкль , Дерек Мирс, Аарон Йоо...
Описание: Молодые друзья Уитни, Майк, Ричи, Аманда и Уэйд заблудились в лесах около заброшенного лагеря «Хрустальное озеро». Когда их любопытство взяло верх, они решили посетить то место, где когда-то обитал убийца-психопат. Тем временем Трент приглашает друзей: Джену, Брии, Чеви, Челси, Лоуренса и Нолана в его хижину, расположенную у озера, на уикэнд, полный секса, выпивки и наркотиков.
Однако их забавный уикэнд, по-видимому, скоро перерастет в кошмар после того, как одинокий путешественник Клэй начинает поиски своей пропавшей сестры Уитни, и молодые тинейджеры вскоре оказываются лицом к лицу со злом, заново рожденным, невообразимым, и усовершенствованным, его имя Джейсон Вурхиз!

Доп. информация: Расширенная версия не выходила в дубляже, есть места со вставками профессионального двухголосого перевода.
Качество: HDRip-AVC
Формат: MKV
Видео кодек: H.26x
Аудио кодек: AC3
Видео: 864x360 (2.40:1), 23.976 fps, x264 ~889 kbps avg, 0.119 bit/pixel
Аудио: 48 kHz, AAC-LC, 2 ch, ~96.00 kbps avg        

MEDIAINFO

Общее
Уникальный идентификатор : 228455483280390582103490818732940309146 (0xABDEECF57E0B743B8B721DC7C0FFB29A)
Полное имя : D:Пятница_13.(2009).HDRip-AVC.mkv
Формат : Matroska
Версия формата : Version 4 / Version 2
Размер файла : 746 Мбайт
Продолжительность : 1 ч. 45 м.
Общий поток : 986 Кбит/сек
Дата кодирования : UTC 2016-01-31 11:56:56
Программа кодирования : mkvmerge v6.1.0 ('Old Devil') built on Mar 2 2013 14:32:37
Библиотека кодирования : libebml v1.3.0 + libmatroska v1.4.0
Видео
Идентификатор : 1
Формат : AVC
Формат/Информация : Advanced Video Codec
Профиль формата : High@L3.1
Параметр CABAC формата : Да
Параметр ReFrames формата : 12 кадров
Идентификатор кодека : V_MPEG4/ISO/AVC
Продолжительность : 1 ч. 45 м.
Номинальный битрейт : 889 Кбит/сек
Ширина : 864 пикселя
Высота : 360 пикселей
Соотношение сторон : 2,40:1
Режим частоты кадров : Постоянный
Частота кадров : 23,976 кадра/сек
Цветовое пространство : YUV
Субдискретизация насыщенности : 4:2:0
Битовая глубина : 8 бит
Тип развёртки : Прогрессивная
Бит/(Пиксели*Кадры) : 0.119
Заголовок : Friday the 13th [Extended Killer Cut]
Библиотека кодирования : x264 core 119 r2106 07efeb4
Настройки программы : cabac=1 / ref=12 / deblock=1:-1:-1 / analyse=0x3:0x133 / me=umh / subme=11 / psy=1 / psy_rd=1.00:0.10 / mixed_ref=1 / me_range=32 / chroma_me=1 / trellis=2 / 8x8dct=1 / cqm=0 / deadzone=21,11 / fast_pskip=0 / chroma_qp_offset=-3 / threads=6 / sliced_threads=0 / nr=0 / decimate=1 / interlaced=0 / bluray_compat=0 / constrained_intra=0 / bframes=10 / b_pyramid=2 / b_adapt=2 / b_bias=0 / direct=3 / weightb=1 / open_gop=0 / weightp=2 / keyint=250 / keyint_min=23 / scenecut=40 / intra_refresh=0 / rc_lookahead=60 / rc=2pass / mbtree=1 / bitrate=889 / ratetol=1.0 / qcomp=0.60 / qpmin=0 / qpmax=69 / qpstep=4 / cplxblur=20.0 / qblur=0.5 / ip_ratio=1.40 / aq=1:1.00
Язык : English
Default : Да
Forced : Нет
Аудио
Идентификатор : 2
Формат : AAC
Формат/Информация : Advanced Audio Codec
Профиль формата : HE-AAC / LC
Идентификатор кодека : A_AAC
Продолжительность : 1 ч. 45 м.
Каналы : 2 канала
Расположение каналов : Front: L R
Частота : 48,0 КГц / 24,0 КГц
Метод сжатия : С потерями
Заголовок : Дубляж (96.00 kbps)
Язык : Russian
Default : Да
Forced : Нет
Текст #1
Идентификатор : 3
Формат : UTF-8
Идентификатор кодека : S_TEXT/UTF8
Идентификатор кодека/Информация : UTF-8 Plain Text
Язык : Russian
Default : Нет
Forced : Нет
Текст #2
Идентификатор : 4
Формат : UTF-8
Идентификатор кодека : S_TEXT/UTF8
Идентификатор кодека/Информация : UTF-8 Plain Text
Язык : English
Default : Нет
Forced : Нет
Меню
00:00:00.000 : en:Chapter 01
00:03:33.338 : en:Chapter 02
00:08:00.688 : en:Chapter 03
00:10:28.628 : en:Chapter 04
00:13:58.045 : en:Chapter 05
00:17:02.021 : en:Chapter 06
00:20:16.089 : en:Chapter 07
00:22:11.330 : en:Chapter 08
00:26:37.887 : en:Chapter 09
00:30:32.038 : en:Chapter 10
00:34:29.776 : en:Chapter 11
00:36:00.992 : en:Chapter 12
00:38:18.087 : en:Chapter 13
00:40:37.101 : en:Chapter 14
00:45:53.792 : en:Chapter 15
00:48:53.847 : en:Chapter 16
00:51:58.156 : en:Chapter 17
00:54:43.113 : en:Chapter 18
00:57:51.426 : en:Chapter 19
01:00:48.186 : en:Chapter 20
01:03:26.594 : en:Chapter 21
01:07:09.567 : en:Chapter 22
01:09:43.596 : en:Chapter 23
01:13:11.470 : en:Chapter 24
01:15:31.860 : en:Chapter 25
01:17:27.726 : en:Chapter 26
01:19:30.098 : en:Chapter 27
01:24:50.710 : en:Chapter 28
01:26:58.254 : en:Chapter 29
01:31:04.250 : en:Chapter 30
01:34:03.679 : en:Chapter 31
01:37:33.180 : en:Chapter 32
01:41:54.817 : en:Chapter 33
01:44:52.995 : en:Chapter 34

Region_13

Post 28-Jan-2016 12:00

[Quote]

Западня / Коттедж / / The Cottage
Год выпуска: 2008
Страна: Великобритания
Жанр: ужасы, чёрная комедия, триллер, криминал
Продолжительность: 92 мин. / 01:32
Перевод: Авторский (одноголосый закадровый)[Максим Логинофф]
Режиссер: Пол Эндрю Уильямс
Продюссер: Кен Маршалл, Мартин Поуп, Стив Кристиан
Сценарий: Пол Эндрю Уильямс
Бюджет: £2 500 000
Премьера в мире: 23 февраля 2008
+18


В ролях: Энди Серкис, Рис Шерсмит, Дженнифер Эллисон, Стив О’Доннелл, Джеймс Биерман, Кэт Мичер, Дэнни Нуссбаум, Логан Вонг, Джонатан Чан-Пинсли, Саймон Шатцбергер
Описание: Два незадачливых брата похитили дочь известного мафиози. В ожидании выкупа они привезли её в старый коттедж, расположенный в глухом районе Англии. Все бы хорошо, но мафия пронюхала, где их искать, заложница оказалось не подарок, а местный фермер оказался не вполне нормальным.
Качество: HDTVRip
Формат: AVI
Видео кодек: XviD
Аудио кодек: AC3
Видео: 720x400 (1.80:1), 25 fps, XviD MPEG-4 ~1835 kbps avg, 0.26 bit/pixel
Аудио: 48 kHz, AC3 Dolby Digital, 3/2 (L,C,R,l,r) + LFE ch, ~384 kbps

Скриншоты

                   

MI

General
Complete name : D:\Релизы\Cottage.avi
Format : AVI
Format/Info : Audio Video Interleave
File size : 1.37 GiB
Duration : 1h 27mn
Overall bit rate : 2 230 Kbps
Movie name : T
Director : T
Writing application : V
Copyright : h
Video
ID : 0
Format : MPEG-4 Visual
Format profile : Advanced Simple@L5
Format settings, BVOP : 1
Format settings, QPel : No
Format settings, GMC : No warppoints
Format settings, Matrix : Default (H.263)
Muxing mode : Packed bitstream
Codec ID : XVID
Codec ID/Hint : XviD
Duration : 1h 27mn
Bit rate : 1 748 Kbps
Width : 720 pixels
Height : 400 pixels
Display aspect ratio : 16:9
Frame rate : 25.000 fps
Color space : YUV
Chroma subsampling : 4:2:0
Bit depth : 8 bits
Scan type : Progressive
Compression mode : Lossy
Bits/(Pixel*Frame) : 0.243
Stream size : 1.07 GiB (78%)
Writing library : XviD 1.2.1 (UTC 2008-12-04)
Audio
ID : 1
Format : AC-3
Format/Info : Audio Coding 3
Mode extension : CM (complete main)
Format settings, Endianness : Big
Codec ID : 2000
Duration : 1h 27mn
Bit rate mode : Constant
Bit rate : 384 Kbps
Channel count : 6 channels
Channel positions : Front: L C R, Side: L R, LFE
Sampling rate : 48.0 KHz
Bit depth : 16 bits
Compression mode : Lossy
Stream size : 241 MiB (17%)
Alignment : Split accross interleaves

Region_13

Post 27-Jan-2016 12:24

[Quote]

Кровавая жатва / Haute tension
Год выпуска: 2003
Страна: Франция, Италия, Румыния
Жанр: ужасы
Продолжительность: 91 мин. / 01:31
Перевод: Профессиональный (многоголосый закадровый)
Режиссер: Александр Ажа
Продюссер: Александр Аркади, Роберт Бенмусса, Андрей Бончя
Сценарий: Александр Ажа, Грегори Левассёр
Бюджет: €2 200 000
Премьера в мире: 18 июня 2003
рейтинг NC-лицам до 17 лет просмотр запрещен


В ролях: Сесиль де Франс, Майвенн Ле Беско, Филипп Наон, Франк Халфун, Андрей Финти, Оана Пелля, Марко Клаудиу Паску, Жан-Клод де Горос, Богдан Уритеску, Габриэль Спахиу
Описание: Дом на отшибе. Две лучшие подруги и кровожадный убийца. Героиням фильма за одну ночь придется пережить самый страшный кошмар, какой только они могли себе вообразить. Они столкнутся со страхом неизвестного, со страхом темноты и животным страхом неотвратимости смерти.
Качество: BDRip
Формат: AVI
Видео кодек: XviD
Аудио кодек: AC3
Видео: 720x304 (2.37:1), 23.976 fps, XviD build 57 ~1898 kbps avg, 0.36 bit/pixel
Аудио: 48 kHz, AC3 Dolby Digital, 3/2 (L,C,R,l,r) + LFE ch, ~384 kbps

Скриншоты

         

MI

General
Complete name : D:\Релизы\Krovavaya.zhatva_Klayd X.avi
Format : AVI
Format/Info : Audio Video Interleave
File size : 1.45 GiB
Duration : 1h 30mn
Overall bit rate : 2 292 Kbps
Movie name : Krovavaya.zhatva.2003.RUS.BDRip.XviD.AC3
Director : Orbit
Writing application : VirtualDubMod 1.5.10.2 (build 2542/release)
Copyright : hqclub.net
Comment : 19.02.2011
Video
ID : 0
Format : MPEG-4 Visual
Format profile : Advanced Simple@L5
Format settings, BVOP : 1
Format settings, QPel : No
Format settings, GMC : No warppoints
Format settings, Matrix : Custom
Codec ID : XVID
Codec ID/Hint : XviD
Duration : 1h 30mn
Bit rate : 1 808 Kbps
Width : 720 pixels
Height : 304 pixels
Display aspect ratio : 2.35:1
Frame rate : 23.976 fps
Color space : YUV
Chroma subsampling : 4:2:0
Bit depth : 8 bits
Scan type : Progressive
Compression mode : Lossy
Bits/(Pixel*Frame) : 0.345
Stream size : 1.15 GiB (79%)
Writing library : XviD 57
Audio
ID : 1
Format : AC-3
Format/Info : Audio Coding 3
Mode extension : CM (complete main)
Format settings, Endianness : Big
Codec ID : 2000
Duration : 1h 30mn
Bit rate mode : Constant
Bit rate : 384 Kbps
Channel count : 6 channels
Channel positions : Front: L C R, Side: L R, LFE
Sampling rate : 48.0 KHz
Bit depth : 16 bits
Compression mode : Lossy
Stream size : 249 MiB (17%)
Alignment : Split accross interleaves

Region_13

Post 15-Jan-2016 18:30

[Quote]

Необратимость / Irréversible
Год выпуска: 2002
Страна: Франция
Жанр: триллер, драма, криминал, детектив
Продолжительность: 99 мин. / 01:39
Перевод: Профессиональный (двухголосый закадровый)
Режиссер: Гаспар Ноэ
Продюссер: Христоф Россигнон, Венсан Кассель, Брагим Шиуа
Сценарий: Гаспар Ноэ
Бюджет: неизвестно
Премьера в мире: 22 мая 2002
рейтинг R лицам до 17 лет обязательно присутствие взрослого


В ролях: Моника Беллуччи, Венсан Кассель, Альбер Дюпонтель, Джо Престиа, Филипп Наон, Стефан Друо, Жан-Луи Кост, Мишель Гондуэн, Мурад Хима, Эллаль
Описание: История раскручивается из конца в начало. Темнота ночи, багровые отблески на стенах притона, бледные, как простыня, лица. Герой Венсента Касселя мечется в лабиринте лестниц и переходов одного из подпольных гей-клубов. Цель — найти и убить человека, которого он… никогда даже не видел в глаза. Но у него есть веская причина ненавидеть: незнакомец до смерти изнасиловал его подругу, с которой случайно столкнулся в безлюдном городском переходе…
Cамая натуралистичная сцена изнасилования за всю историю кинематографа — 9 минут анального секса. Два убийства, толпа геев и трансвеститов, полностью обнаженные Венсент Кассель и Моника Беллуччи…

Качество: DVDRip
Формат: AVI
Видео кодек: XviD
Аудио кодек: AC3
Видео: 720x320 (2.25:1), 25 fps, XviD build 50 ~1438 kbps avg, 0.25 bit/pixel
Аудио: 1-2: 48 kHz, AC3 Dolby Digital, 3/2 (L,C,R,l,r) + LFE ch, ~384 kbps [перевод / оригинал]

Скриншоты

   

MEDIAINFO

General
Complete name : D:\Релизы\Neobratimost.2002.DUAL.DVDRip.XviD.AC3\Neobratimost.2002.DUAL.DVDRip.XviD.AC3.avi
Format : AVI
Format/Info : Audio Video Interleave
File size : 1.46 GiB
Duration : 1h 34mn
Overall bit rate : 2 222 Kbps
Writing application : VirtualDubMod 1.5.10.2 (build 2542/release)
Writing library : VirtualDubMod build 2542/release
Video
ID : 0
Format : MPEG-4 Visual
Format profile : Advanced Simple@L5
Format settings, BVOP : 1
Format settings, QPel : No
Format settings, GMC : No warppoints
Format settings, Matrix : Custom
Codec ID : XVID
Codec ID/Hint : XviD
Duration : 1h 34mn
Bit rate : 1 439 Kbps
Width : 720 pixels
Height : 320 pixels
Display aspect ratio : 16:10
Original display aspect ratio : 2.25:1
Frame rate : 25.000 fps
Color space : YUV
Chroma subsampling : 4:2:0
Bit depth : 8 bits
Scan type : Progressive
Compression mode : Lossy
Bits/(Pixel*Frame) : 0.250
Stream size : 968 MiB (65%)
Writing library : XviD 1.2.1 (UTC 2008-12-04)
Audio #1
ID : 1
Format : AC-3
Format/Info : Audio Coding 3
Mode extension : CM (complete main)
Format settings, Endianness : Big
Codec ID : 2000
Duration : 1h 34mn
Bit rate mode : Constant
Bit rate : 384 Kbps
Channel count : 6 channels
Channel positions : Front: L C R, Side: L R, LFE
Sampling rate : 48.0 KHz
Bit depth : 16 bits
Compression mode : Lossy
Stream size : 258 MiB (17%)
Alignment : Split accross interleaves
Interleave, duration : 40 ms (1.00 video frame)
Interleave, preload duration : 500 ms
Audio #2
ID : 2
Format : AC-3
Format/Info : Audio Coding 3
Mode extension : CM (complete main)
Format settings, Endianness : Big
Codec ID : 2000
Duration : 1h 34mn
Bit rate mode : Constant
Bit rate : 384 Kbps
Channel count : 6 channels
Channel positions : Front: L C R, Side: L R, LFE
Sampling rate : 48.0 KHz
Bit depth : 16 bits
Compression mode : Lossy
Stream size : 258 MiB (17%)
Alignment : Split accross interleaves
Interleave, duration : 40 ms (1.00 video frame)
Interleave, preload duration : 500 ms

Знаете ли вы, что...

* «Необратимость» состоит из тринадцати эпизодов различной длины, смонтированных в обратном хронологическом порядке.
* Премьера фильма «Необратимость» состоялась 23 мая 2002 года в рамках 55-го Каннского кинофестиваля. Картина участвовала в основном конкурсе.
* Слоган ленты «Время уничтожает всё» - первая фраза, звучащая в картине.
* Фильм получил скандальную известность из-за двух сцен: семиминутного анального изнасилования героини Моники Белуччи Алекс и жестокого убийства насильника в садо-мазо-гей-клубе «Прямая кишка» (более двадцати ударов огнетушителем по голове).
* Начальные эпизоды фильма оформлены почти неслышимым низкочастотным звуком, похожим на шум землетрясения. У многих людей данный шум вызывает беспокойство, лёгкую тошноту и головокружение. Считается, что звуковое оформление «Необратимости» - основная причина, по которой зрители уходили с просмотра в течение первых тридцати минут ленты. Именно на такую реакцию и рассчитывал режиссёр Гаспар Ноэ.
* Музыку к фильму написал Тома Бангальтер, участник электронного дуэта Daft Punk. Помимо оригинальной музыки в картине звучат Седьмая симфония Людвига ван Бетховена и Девятая симфония Густава Малера.
* Режиссёр и сценарист «Необратимости» Гаспар Ноэ является также одним из операторов и сопродюсеров фильма. Кроме того он сыграл камео - роль мастурбирующего клиента клуба «Прямая кишка».
* Фильм включен в список запрещенных к распространению в Республике Беларусь.

Region_13

Post 15-Jan-2016 18:09

[Quote]

Когда смолкли выстрелы / Home Room
Год выпуска: 2002
Страна: США
Жанр: драма, криминал
Продолжительность: 133 мин. / 02:13
Перевод: Профессиональный (многоголосый закадровый)
Режиссер: Пол Ф. Райан
Продюссер: Бен Орманд, Расс Мэтьюз, Пол Ф. Райан
Сценарий: Пол Ф. Райан
Бюджет: неизвестно
Премьера в мире: 12 апреля 2002
рейтинг R лицам до 17 лет обязательно присутствие взрослого


В ролях: Бизи Филиппс, Эрика Кристенсен, Виктор Гарбер, Рафаэль Сбардж, Кен Дженкинс, Холланд Тейлор, Артур Таксиер, Джеймс Пикенс мл., Констанс Зиммер, Ричард Джиллилэнд
Описание: Выстрелы в школьном классе оставили шрамы в душе каждого жителя маленького городка. Стрелявший погиб, но детективу Ван Зандту нужно найти виновника трагедии, который ответит за 8 невинных жертв, и только Алисия Браунинг, видевшая всё своими глазами, способна объяснить причины происшедшего.
Не в силах добиться ответов от мрачной, нелюдимой девушки, полиция заставляет ее навещать в больнице раненую школьницу, надеясь, что в их разговорах всплывет истина. Кажется, что у неформалки Алисии и отличницы Дианы нет ничего общего, но вскоре между ними завязываются странные отношения, которые приведут к неожиданным открытиям и шокирующим откровениям…

Качество: DVDRip
Формат: AVI
Видео кодек: XviD
Аудио кодек: AC3
Видео: 720x400 (1.80:1), 23.976 fps, XviD build 50 ~1092 kbps avg, 0.16 bit/pixel
Аудио: 48 kHz, AC3 Dolby Digital, 3/2 (L,C,R,l,r) + LFE ch, ~384 kbps

Скриншоты

             

Mediainfo

General
Complete name : D:\Релизы\Home_Room_Klayd X.avi
Format : AVI
Format/Info : Audio Video Interleave
File size : 1.37 GiB
Duration : 2h 11mn
Overall bit rate : 1 486 Kbps
Writing application : VirtualDubMod 1.5.10.2 (build 2540/release)
Writing library : VirtualDubMod build 2540/release
Video
ID : 0
Format : MPEG-4 Visual
Format profile : Advanced Simple@L5
Format settings, BVOP : 1
Format settings, QPel : No
Format settings, GMC : No warppoints
Format settings, Matrix : Default (H.263)
Codec ID : XVID
Codec ID/Hint : XviD
Duration : 2h 11mn
Bit rate : 1 092 Kbps
Width : 720 pixels
Height : 400 pixels
Display aspect ratio : 16:9
Frame rate : 23.976 fps
Color space : YUV
Chroma subsampling : 4:2:0
Bit depth : 8 bits
Scan type : Progressive
Compression mode : Lossy
Bits/(Pixel*Frame) : 0.158
Stream size : 1.00 GiB (74%)
Writing library : XviD 1.2.1 (UTC 2008-12-04)
Audio
ID : 1
Format : AC-3
Format/Info : Audio Coding 3
Mode extension : CM (complete main)
Format settings, Endianness : Big
Codec ID : 2000
Duration : 2h 11mn
Bit rate mode : Constant
Bit rate : 384 Kbps
Channel count : 6 channels
Channel positions : Front: L C R, Side: L R, LFE
Sampling rate : 48.0 KHz
Bit depth : 16 bits
Compression mode : Lossy
Delay relative to video : 42ms
Stream size : 362 MiB (26%)
Alignment : Split accross interleaves
Interleave, duration : 42 ms (1.00 video frame)
Interleave, preload duration : 500 ms

Region_13

Post 13-Jan-2016 12:27

[Quote]

Дневник памяти / The Notebook
Год выпуска: 2004
Страна: США
Жанр: драма, мелодрама
Продолжительность: 124 мин. / 02:04
Перевод: Профессиональный(дублированный)
Режиссер: Ник Кассаветис
Продюссер: Линн Харрис, Марк Джонсон, Тоби Эммерик
Сценарий: Джереми Левин, Ян Сарди, Николас Спаркс
Бюджет: $29 000 000
Премьера в мире: 20 мая 2004
рейтинг PG-13 детям до 13 лет просмотр не желателен


В ролях: Райан Гослинг (Noah Calhoun), Рэйчел МакАдамс (Allie Hamilton), Джеймс Гарнер (Duke), Джина Роулендс (Allie Calhoun), Сэм Шепард (Frank Calhoun), Джоан Аллен (Anne Hamilton), Дэвид Торнтон (John Hamilton), Тим Айви (Rower), Старлетта Дюпуа (Nurse Esther), Энтони-Майкл К. Томас (Nurse Keith), Эд Грейди (Harry), Джеймс Марсден (Lon Hammond Jr.)

Описание: Трогательная история любви, прочитанная пожилым мужчиной из старой записной книжки женщине в доме престарелых. Это история отношений юноши и девушки из разных социальных слоев, живших в Северной Каролине. Ной и Элли провели вместе незабываемое лето, пока их не разделили вначале родители, а затем Вторая мировая война.
После войны все изменилось: Элли обручилась с удачливым бизнесменом, а Ной жил наедине со своими воспоминаниями в старинном доме, который ему удалось отреставрировать. Когда Элли прочла об этом в местной газете, она поняла: ей нужно найти его и решить наконец судьбу их любви…

Качество: BDRip
Формат: AVI
Видео кодек: XviD
Аудио кодек: AC3
Видео: 720x304 (2.37:1), 23.976 fps, XviD build 65 ~1296 kbps avg, 0.25 bit/pixel
Аудио: 48 kHz, AC3 Dolby Digital, 3/2 (L,C,R,l,r) + LFE ch, ~384.00 kbps avg

Скриншоты

       

Mediainfo

General
Complete name : F:\TORRENTS\ФИЛЬМЫ\Dnevnik_pamyati_2004_BDRip.avi
Format : AVI
Format/Info : Audio Video Interleave
File size : 1.46 GiB
Duration : 2h 3mn
Overall bit rate : 1 690 Kbps
Writing application : VirtualDubMod 1.5.10.3 | www.virtualdub-fr.org || (build 2550/release)
Writing library : VirtualDubMod build 2550/release
Video
ID : 0
Format : MPEG-4 Visual
Format profile : Advanced Simple@L5
Format settings, BVOP : 1
Format settings, QPel : No
Format settings, GMC : No warppoints
Format settings, Matrix : Custom
Codec ID : XVID
Codec ID/Hint : XviD
Duration : 2h 3mn
Bit rate : 1 297 Kbps
Width : 720 pixels
Height : 304 pixels
Display aspect ratio : 2.35:1
Frame rate : 23.976 fps
Color space : YUV
Chroma subsampling : 4:2:0
Bit depth : 8 bits
Scan type : Progressive
Compression mode : Lossy
Bits/(Pixel*Frame) : 0.247
Stream size : 1.12 GiB (77%)
Writing library : XviD 65
Audio
ID : 1
Format : AC-3
Format/Info : Audio Coding 3
Mode extension : CM (complete main)
Format settings, Endianness : Big
Codec ID : 2000
Duration : 2h 3mn
Bit rate mode : Constant
Bit rate : 384 Kbps
Channel count : 6 channels
Channel positions : Front: L C R, Side: L R, LFE
Sampling rate : 48.0 KHz
Bit depth : 16 bits
Compression mode : Lossy
Stream size : 340 MiB (23%)
Alignment : Split accross interleaves
Interleave, duration : 42 ms (1.00 video frame)
Interleave, preload duration : 500 ms

А знаете ли ВЫ.......

Фильм снят по мотивам романа Николаса Спаркса «Дневник памяти» (The Notebook, 1996), ставшего бестселлером в первую же неделю продаж.
Джастин Тимберлейк рассматривался в качестве кандидата на роль Ноя.
Сыгравшая пожилую Элли Нелсон актриса Джина Роулэндс — мать режиссера Ника Кассаветеса.
 

Region_13

Post 13-Jan-2016 11:49

[Quote]

Горячая точка / Flash Point / Dou fo sin
Год выпуска: 2007
Страна: Гонконг, Китай
Жанр: боевик
Продолжительность: 87 мин. / 01:27
Перевод: Авторский (одноголосый закадровый)С. Кузнецов
Режиссер: Уилсон Ип
Продюссер: Нансун Ши, Донни Ен, Ли-Чжуань Лью
Сценарий: Кам-Юэнь Зето, Лик-Кей Тан
Бюджет: $8 000 000
Премьера в мире: 26 июля 2007
рейтинг R лицам до 17 лет обязательно присутствие взрослого


В ролях: Донни Йен, Луис Ку, Коллин Чоу, Рэй Луи, Бингбинг Фан, Кент Ченг, Йю Ксинг
Описание: Детектив-сержант ОБОП Джан Ма, при очередных внутренних проверках, получает нагоняи за частое применение грубой силы при задержание преступников, но из-за успешной работы на это стараются прикрывать глаза. Основное действие разворачивается, после того, как его напарник Уилсон, внедрённый в банду вьетнамских отморозков, чуть не погиб при очередном преступлении вьетнамцев. В результате в руках полиции оказывается идейный предводитель банды Арчи Син. Банда собирается вызволить своего босса, уничтожив всех свидетелей, включая выжившего Уилсона, но в их планы вмешивается детектив Ма…
Качество: BDRip
Формат: AVI
Видео кодек: XviD
Аудио кодек: AC3
Видео: 720x304 (2.37:1), 23.976 fps, XviD build 50 ~2000 kbps avg, 0.38 bit/pixel
Аудио: 48 kHz, AC3 Dolby Digital, 3/2 (L,C,R,l,r) + LFE ch, ~384.00 kbps avg

Скриншоты

                 

MEDIAINFO

General
Complete name : F:\TORRENTS\ФИЛЬМЫ\Goryachaya.Tochka.2007.BDRip.Xvid.AC3\Goryachaya.Tochka.2007.BDRip.Xvid.AC3.avi
Format : AVI
Format/Info : Audio Video Interleave
File size : 1.46 GiB
Duration : 1h 27mn
Overall bit rate : 2 394 Kbps
Writing application : VirtualDubMod 1.5.10.2 (build 2542/release)
Writing library : VirtualDubMod build 2542/release
Video
ID : 0
Format : MPEG-4 Visual
Format profile : Advanced Simple@L5
Format settings, BVOP : 1
Format settings, QPel : No
Format settings, GMC : No warppoints
Format settings, Matrix : Default (MPEG)
Codec ID : XVID
Codec ID/Hint : XviD
Duration : 1h 27mn
Bit rate : 2 001 Kbps
Width : 720 pixels
Height : 304 pixels
Display aspect ratio : 16:9
Original display aspect ratio : 2.35:1
Frame rate : 23.976 fps
Color space : YUV
Chroma subsampling : 4:2:0
Bit depth : 8 bits
Scan type : Progressive
Compression mode : Lossy
Bits/(Pixel*Frame) : 0.381
Stream size : 1.22 GiB (84%)
Writing library : XviD 1.2.1 (UTC 2008-12-04)
Audio
ID : 1
Format : AC-3
Format/Info : Audio Coding 3
Mode extension : CM (complete main)
Format settings, Endianness : Big
Codec ID : 2000
Duration : 1h 27mn
Bit rate mode : Constant
Bit rate : 384 Kbps
Channel count : 6 channels
Channel positions : Front: L C R, Side: L R, LFE
Sampling rate : 48.0 KHz
Bit depth : 16 bits
Compression mode : Lossy
Stream size : 239 MiB (16%)
Alignment : Split accross interleaves
Interleave, duration : 42 ms (1.00 video frame)
Interleave, preload duration : 500 ms
 

The time now is: Today 11:52

All times are GMT + 3 Hours