Today is a free download without charge Download

Search found 500 matches

Author Message

SIRUS

Post 31-Jul-2020 11:24

[Quote]

Информация о фильме
Название: Вокруг света за 80 дней
Оригинальное название: Around the World in 80 Days
Год выхода: 2004
Жанр: Боевик, комедия, приключения, семейный
Режиссер: Фрэнк Корачи
В ролях: Джеки Чан, Стив Кугэн, Роберт Файф, Джим Бродбент, Иэн МакНис, Дэвид Райалл, Роджер Хэммонд, Адам Годли, Карен Мок, Ховард Купер, Дэниэл Хинчклифф, Вольфрам Тюфель, Том Штраусс, Кит Уэст, Юэн Бремнер, Патрик Пару, Сесиль Де Франс, Перри Блейк, Микаэль Юн, Ева Эбнер, Ричард Брэнсон, Гийом Сиро, Мейси Грэй, Бен Поснер, Михаэль Хёнхер, Джордж Инчи, Арнольд Шварценеггер, Уиратэм Норман Вичаираксакуй
О фильме :
Эксцентричный лондонский изобретатель Филеас Фогг раскрыл тайны полетов, электричества и многие другие, но общество не принимает его, считая сумасшедшим. Фоггу очень хочется, чтобы к нему относились серьезно, и он заключает необычное пари с лордом Келвином, главой Королевской академии наук: он берется совершить путешествие вокруг земного шара не более чем за 80 дней. Вместе со своим лакеем Паспарту и жаждущей острых ощущений французской художницей Моник Фогг пускается в безумную, захватывающую кругосветную гонку по суше, морю и воздуху. Во время головокружительного путешествия наши герои попадают в самые экзотические уголки планеты. В пути их ждут многочисленные приключения и препятствия…
Страна: США, Германия, Ирландия, Великобритания
Студия: 80 Days Productions Ltd., Babelsberg Film GmbH, Spanknyce Films, Walden Media, Walt Disney Pictures
Продолжительность: 02:00:16
Перевод: Профессиональный (полное дублирование)
Файл
Формат: MKV
Качество: HDRip-AVC
Видео: MPEG-4 AVC, 752x320, ~ 790 Кбит/с
Аудио: AAC-HE, 2 ch, ~ 76 Кбит/с
Субтитры: Русские, английские

MI

Общее
Уникальный идентификатор : 181612597461383747066345956769602670065 (0x88A1506086DDD8C5B279B33C03770DF1)
Полное имя : D:MOVIES80 Days.2004.ExKinoRay.mkv
Формат : Matroska
Версия формата : Version 4 / Version 2
Размер файла : 747 Мбайт
Продолжительность : 2 ч. 0 м.
Общий поток : 868 Кбит/сек
Дата кодирования : UTC 2018-04-01 18:17:30
Программа кодирования : mkvmerge v15.0.0 ('Duel with the Devil') 64-bit
Библиотека кодирования : libebml v1.3.5 + libmatroska v1.4.5
Видео
Идентификатор : 1
Формат : AVC
Формат/Информация : Advanced Video Codec
Профиль формата : High@L4.1
Параметр CABAC формата : Да
Параметр RefFrames формата : 10 кадров
Идентификатор кодека : V_MPEG4/ISO/AVC
Продолжительность : 2 ч. 0 м.
Битрейт : 790 Кбит/сек
Ширина : 752 пикселя
Высота : 320 пикселей
Соотношение сторон : 2,35:1
Режим частоты кадров : Постоянный
Частота кадров : 23,976 (24000/1001) кадра/сек
Цветовое пространство : YUV
Субдискретизация насыщенности : 4:2:0
Битовая глубина : 8 бит
Тип развёртки : Прогрессивная
Бит/(Пиксели*Кадры) : 0.137
Размер потока : 679 Мбайт (91%)
Библиотека кодирования : x264 core 155 r2901 7d0ff22
Настройки программы : cabac=1 / ref=10 / deblock=1:-2:-2 / analyse=0x3:0x133 / me=umh / subme=11 / psy=1 / psy_rd=1.00:0.10 / mixed_ref=1 / me_range=32 / chroma_me=1 / trellis=2 / 8x8dct=1 / cqm=0 / deadzone=21,11 / fast_pskip=0 / chroma_qp_offset=-3 / threads=6 / lookahead_threads=1 / sliced_threads=0 / nr=0 / decimate=0 / interlaced=0 / bluray_compat=0 / constrained_intra=0 / bframes=10 / b_pyramid=2 / b_adapt=2 / b_bias=0 / direct=3 / weightb=1 / open_gop=0 / weightp=2 / keyint=240 / keyint_min=23 / scenecut=40 / intra_refresh=0 / rc_lookahead=40 / rc=2pass / mbtree=1 / bitrate=790 / ratetol=1.0 / qcomp=0.60 / qpmin=0 / qpmax=69 / qpstep=4 / cplxblur=20.0 / qblur=0.5 / vbv_maxrate=50000 / vbv_bufsize=62500 / nal_hrd=none / filler=0 / ip_ratio=1.40 / aq=3:1.00
Default : Да
Forced : Нет
Аудио
Идентификатор : 2
Формат : AAC
Формат/Информация : Advanced Audio Codec
Профиль формата : HE-AAC / LC
Идентификатор кодека : A_AAC
Продолжительность : 2 ч. 0 м.
Битрейт : 76,0 Кбит/сек
Каналы : 2 канала
Расположение каналов : Front: L R
Частота : 48,0 КГц / 24,0 КГц
Частота кадров : 23,438 кадра/сек (1024 SPF)
Метод сжатия : С потерями
Задержка видео : 31 мс.
Размер потока : 65,4 Мбайт (9%)
Язык : Russian
Default : Да
Forced : Нет
Текст #1
Идентификатор : 3
Формат : UTF-8
Идентификатор кодека : S_TEXT/UTF8
Идентификатор кодека/Информация : UTF-8 Plain Text
Продолжительность : 1 ч. 52 м.
Битрейт : 87 бит/сек
ElementCount : 1155
Размер потока : 71,8 Кбайт (0%)
Заголовок : Full
Язык : Russian
Default : Нет
Forced : Нет
Текст #2
Идентификатор : 4
Формат : UTF-8
Идентификатор кодека : S_TEXT/UTF8
Идентификатор кодека/Информация : UTF-8 Plain Text
Продолжительность : 1 ч. 52 м.
Битрейт : 92 бит/сек
ElementCount : 1420
Размер потока : 75,8 Кбайт (0%)
Заголовок : Full [Tycoon-Studio]
Язык : Russian
Default : Нет
Forced : Нет
Текст #3
Идентификатор : 5
Формат : UTF-8
Идентификатор кодека : S_TEXT/UTF8
Идентификатор кодека/Информация : UTF-8 Plain Text
Продолжительность : 1 ч. 58 м.
Битрейт : 53 бит/сек
ElementCount : 1424
Размер потока : 46,3 Кбайт (0%)
Заголовок : Full
Язык : English
Default : Нет
Forced : Нет
Текст #4
Идентификатор : 6
Формат : UTF-8
Идентификатор кодека : S_TEXT/UTF8
Идентификатор кодека/Информация : UTF-8 Plain Text
Продолжительность : 55 м. 53 с.
Битрейт : 2 бит/сек
ElementCount : 29
Размер потока : 992 байт (0%)
Заголовок : Forced
Язык : English
Default : Нет
Forced : Нет
Меню
00:00:00.000 : en:Chapter 01
00:03:32.712 : en:Chapter 02
00:07:47.508 : en:Chapter 03
00:10:18.743 : en:Chapter 04
00:13:17.046 : en:Chapter 05
00:19:22.161 : en:Chapter 06
00:22:54.748 : en:Chapter 07
00:30:26.658 : en:Chapter 08
00:36:40.698 : en:Chapter 09
00:43:13.966 : en:Chapter 10
00:50:17.097 : en:Chapter 11
00:51:30.629 : en:Chapter 12
01:00:21.200 : en:Chapter 13
01:06:51.257 : en:Chapter 14
01:09:38.465 : en:Chapter 15
01:17:11.460 : en:Chapter 16
01:19:53.205 : en:Chapter 17
01:25:17.153 : en:Chapter 18
01:28:58.374 : en:Chapter 19
01:37:41.854 : en:Chapter 20
01:41:19.698 : en:Chapter 21
01:42:36.525 : en:Chapter 22
01:49:59.092 : en:Chapter 23
01:53:59.707 : en:Chapter 24
02:00:15.875 : en:Chapter 25

Скриншоты

     

SIRUS

Post 31-Jul-2020 11:18

[Quote]

Информация о фильме
Название: Ведьмина гора
Оригинальное название: Race to Witch Mountain
Год выхода: 2009
Жанр: Фантастика, триллер, комедия, приключения, семейный
Режиссер: Энди Фикмен /Andy Fickman
В ролях: Дуэйн Джонсон, Анна-София Робб, Александр Людвиг, Карла Гуджино, Том Эверетт Скотт, Киаран Хайндз, Гэрри Маршалл, Ким Ричардс, Айк Айсенманн, Том Вудрафф-мл., Чич Марин, Кристин Лакин, Крис Маркетт, Мередит Сейленджер, Роберт Торти, Джон Кэссир, Арло Хэмпхилл, Бренди Гудбред, Боб Кленденин, Сюзанн Кралл, Плезант Уэйн, Деннис Хэйден, Ли Рехерман, Ланетта Фюджит, Омар Джей Дорси, Франклин Руэл, Брэндон Скотт Миллер, Дейв Энгфер, Пол Нигро, Джек Истленд
О фильме:
Когда в машину разочарованного в жизни лос-анджелесского таксиста садятся двое подростков, он поначалу решает, что ребята всего лишь сбежали из дома. Но вскоре оказывается, что выглядящие как земные дети мальчик и девочка на самом деле — пришельцы из космоса, и спасаются они от неприятностей куда более серьезных, чем строгие родители. Волей-неволей водителю приходится помогать новым знакомым не только победить их могущественного врага, но и спасти нашу Землю.
Страна: США
Студия: Gunn Films, Walt Disney Pictures
Продолжительность: 01:38:31
Перевод: Профессиональный (полное дублирование)
Файл
Формат: MKV
Качество: WEB-DLRip-AVC
Видео: MPEG-4 AVC, 704x396, - 980 Кбит/с
Аудио: AAC-HE, 2 ch, - 76 Кбит/с
Субтитры: Русские (forced, full), английские

MI

Общее
Уникальный идентификатор : 152034628448508524433902952620892110574 (0x7260CDE9F71D3FB14F17E31C34EC3EEE)
Полное имя : D:MOVIESVedmina.Gora.2009.Open.Matte.WEB-DLRip-AVC.ExKinoRay.mkv
Формат : Matroska
Версия формата : Version 4
Размер файла : 746 Мбайт
Продолжительность : 1 ч. 38 м.
Общий поток : 1 058 Кбит/сек
Дата кодирования : UTC 2020-05-17 11:17:42
Программа кодирования : mkvmerge v45.0.0 ('Heaven in Pennies') 64-bit
Библиотека кодирования : libebml v1.3.10 + libmatroska v1.5.2
Видео
Идентификатор : 1
Формат : AVC
Формат/Информация : Advanced Video Codec
Профиль формата : High@L4.1
Настройки формата : CABAC / 11 Ref Frames
Параметр CABAC формата : Да
Параметр RefFrames формата : 11 кадров
Идентификатор кодека : V_MPEG4/ISO/AVC
Продолжительность : 1 ч. 38 м.
Битрейт : 980 Кбит/сек
Ширина : 704 пикселя
Высота : 396 пикселей
Соотношение сторон : 16:9
Режим частоты кадров : Постоянный
Частота кадров : 23,976 (24000/1001) кадра/сек
Цветовое пространство : YUV
Субдискретизация насыщенности : 4:2:0
Битовая глубина : 8 бит
Тип развёртки : Прогрессивная
Бит/(Пиксели*Кадры) : 0.147
Размер потока : 690 Мбайт (93%)
Библиотека кодирования : x264 core 159 r2991 1771b55
Настройки программы : cabac=1 / ref=11 / deblock=1:-3:-3 / analyse=0x3:0x133 / me=umh / subme=10 / psy=1 / psy_rd=1.05:0.14 / mixed_ref=1 / me_range=32 / chroma_me=1 / trellis=2 / 8x8dct=1 / cqm=0 / deadzone=21,11 / fast_pskip=0 / chroma_qp_offset=-3 / threads=6 / lookahead_threads=1 / sliced_threads=0 / nr=0 / decimate=0 / interlaced=0 / bluray_compat=0 / constrained_intra=0 / bframes=12 / b_pyramid=2 / b_adapt=2 / b_bias=0 / direct=3 / weightb=1 / open_gop=0 / weightp=2 / keyint=240 / keyint_min=23 / scenecut=40 / intra_refresh=0 / rc_lookahead=40 / rc=2pass / mbtree=1 / bitrate=980 / ratetol=1.0 / qcomp=0.60 / qpmin=0 / qpmax=69 / qpstep=4 / cplxblur=20.0 / qblur=0.5 / ip_ratio=1.40 / aq=3:1.00
Default : Да
Forced : Нет
Цветовой диапазон : Limited
Основные цвета : BT.709
Характеристики трансфера : BT.709
Коэффициенты матрицы : BT.709
Аудио
Идентификатор : 2
Формат : AAC LC SBR
Формат/Информация : Advanced Audio Codec Low Complexity with Spectral Band Replication
Коммерческое название : HE-AAC
Настройки формата : Explicit
Идентификатор кодека : A_AAC-2
Продолжительность : 1 ч. 38 м.
Битрейт : 76,0 Кбит/сек
Каналы : 2 канала
Channel layout : L R
Частота : 48,0 КГц
Частота кадров : 23,438 кадра/сек (2048 SPF)
Метод сжатия : С потерями
Задержка видео : 31 мс.
Размер потока : 53,6 Мбайт (7%)
Язык : Russian
Default : Да
Forced : Нет
Текст #1
Идентификатор : 3
Формат : UTF-8
Идентификатор кодека : S_TEXT/UTF8
Идентификатор кодека/Информация : UTF-8 Plain Text
Продолжительность : 1 ч. 34 м.
Битрейт : 2 бит/сек
Count of elements : 33
Размер потока : 1,70 Кбайт (0%)
Заголовок : Forced
Язык : Russian
Default : Да
Forced : Да
Текст #2
Идентификатор : 4
Формат : UTF-8
Идентификатор кодека : S_TEXT/UTF8
Идентификатор кодека/Информация : UTF-8 Plain Text
Продолжительность : 1 ч. 34 м.
Битрейт : 82 бит/сек
Count of elements : 1055
Размер потока : 57,6 Кбайт (0%)
Заголовок : Full
Язык : Russian
Default : Нет
Forced : Нет
Текст #3
Идентификатор : 5
Формат : UTF-8
Идентификатор кодека : S_TEXT/UTF8
Идентификатор кодека/Информация : UTF-8 Plain Text
Продолжительность : 1 ч. 34 м.
Битрейт : 60 бит/сек
Count of elements : 1150
Размер потока : 41,8 Кбайт (0%)
Заголовок : SDH
Язык : English
Default : Нет
Forced : Нет

Скриншоты

     

SIRUS

Post 08-Jul-2020 19:41

[Quote]

Ван Хельсинг / Van Helsing --Информация о фильме
Название: Ван Хельсинг
Оригинальное название: Van Helsing
Год выхода: 2004
Жанр: Фэнтези, боевик, приключения, ужасы, триллер
Режиссер: Стивен Соммерс
В ролях: Хью Джекман, Кейт Бекинсейл, Ричард Роксбург, Дэвид Уэнэм, Шулер Хенсли, Елена Анайя, Уилл Кемп, Кевин Дж. О’Коннор, Алан Армстронг, Сильвия Коллока, Джози Мэран, Том Фишер, Сэмьюэл Уэст, Робби Колтрейн, Стивен Фишер, Дэна Маравкова, Зузана Дурдинова, Ярослав Визнер, Марек Вашут, Саманта Соммерс, Дорел Моис, Марианна Моис, Лоуренс Расин, Патрис Войцеховский, Каси Борроумэн, Райан Джеймс, Мартин Клеббэ, Эллисон Квил
О фильме :
Глубоко в Карпатах лежит таинственная страна Трансильвания — мир, в котором зло встречается на каждом шагу, мир, в котором опасность оживает с заходом солнца, и где монстры, живущие в глубине человеческих кошмаров, обретают форму. В этот мир попадает легендарный охотник на чудовищ Ван Хельсинг, рождённый на страницах романа «Дракула» Брэма Стокера. В своей непрерывной битве против сил зла и за освобождение мира от порождений ада, Ван Хельсинг, по заданию секретного общества, отправляется в Трансильванию, чтобы скрестить оружие со смертельно опасным, наделённым неведомой силой графом Дракулой. На помощь ему внезапно приходит бесстрашная Анна Валери, поставившая целью избавить свою семью от векового проклятья, наложенного убитым вампиром.
Страна: США, Чехия, Carpathian Pictures, Stillking Films, The Sommers Company, Universal Pictures
Продолжительность: 02:11:38
Перевод 1: Профессиональный (полное дублирование) R5
Перевод 2: Профессиональный (двухголосый закадровый) Tycoon-studio

Файл
Формат: MKV
Качество: BDRip-AVC (BDRemux 1080p)
Видео: MPEG-4 AVC, 768x416, ~ 1026 Кбит/с
Аудио: AAC-HE, 2 ch, ~ 76 Кбит/с
Субтитры: Русские, украинские, английские

MI

Общее
Уникальный идентификатор : 219119439549794387585747615339771561806 (0xA4D8DE76F4D30A48A0643F86751B874E)
Полное имя : D:MOVIESVan.Helsing.2004.ExKinoRay.mkv
Формат : Matroska
Версия формата : Version 4 / Version 2
Размер файла : 1,09 Гбайт
Продолжительность : 2 ч. 11 м.
Общий поток : 1180 Кбит/сек
Дата кодирования : UTC 2018-03-14 05:49:47
Программа кодирования : mkvmerge v15.0.0 ('Duel with the Devil') 64-bit
Библиотека кодирования : libebml v1.3.5 + libmatroska v1.4.5
Видео
Идентификатор : 1
Формат : AVC
Формат/Информация : Advanced Video Codec
Профиль формата : High@L4.1
Параметр CABAC формата : Да
Параметр RefFrames формата : 10 кадров
Идентификатор кодека : V_MPEG4/ISO/AVC
Продолжительность : 2 ч. 11 м.
Битрейт : 1026 Кбит/сек
Ширина : 768 пикселей
Высота : 416 пикселей
Соотношение сторон : 1,85:1
Режим частоты кадров : Постоянный
Частота кадров : 23,976 (24000/1001) кадра/сек
Цветовое пространство : YUV
Субдискретизация насыщенности : 4:2:0
Битовая глубина : 8 бит
Тип развёртки : Прогрессивная
Бит/(Пиксели*Кадры) : 0.134
Размер потока : 966 Мбайт (87%)
Библиотека кодирования : x264 core 155 r2901 7d0ff22
Настройки программы : cabac=1 / ref=10 / deblock=1:-3:-3 / analyse=0x3:0x133 / me=umh / subme=11 / psy=1 / psy_rd=1.00:0.08 / mixed_ref=1 / me_range=32 / chroma_me=1 / trellis=2 / 8x8dct=1 / cqm=0 / deadzone=21,11 / fast_pskip=0 / chroma_qp_offset=-3 / threads=6 / lookahead_threads=1 / sliced_threads=0 / nr=0 / decimate=0 / interlaced=0 / bluray_compat=0 / constrained_intra=0 / bframes=10 / b_pyramid=2 / b_adapt=2 / b_bias=0 / direct=3 / weightb=1 / open_gop=0 / weightp=2 / keyint=240 / keyint_min=23 / scenecut=40 / intra_refresh=0 / rc_lookahead=40 / rc=2pass / mbtree=1 / bitrate=1026 / ratetol=1.0 / qcomp=0.60 / qpmin=0 / qpmax=69 / qpstep=4 / cplxblur=20.0 / qblur=0.5 / vbv_maxrate=50000 / vbv_bufsize=62500 / nal_hrd=none / filler=0 / ip_ratio=1.40 / aq=3:1.00
Default : Да
Forced : Нет
Аудио #1
Идентификатор : 2
Формат : AAC
Формат/Информация : Advanced Audio Codec
Профиль формата : HE-AAC / LC
Идентификатор кодека : A_AAC
Продолжительность : 2 ч. 11 м.
Битрейт : 76,0 Кбит/сек
Каналы : 2 канала
Расположение каналов : Front: L R
Частота : 48,0 КГц / 24,0 КГц
Частота кадров : 23,438 кадра/сек (1024 SPF)
Метод сжатия : С потерями
Задержка видео : 31 мс.
Размер потока : 71,5 Мбайт (6%)
Язык : Russian
Default : Да
Forced : Нет
Аудио #2
Идентификатор : 3
Формат : AAC
Формат/Информация : Advanced Audio Codec
Профиль формата : HE-AAC / LC
Идентификатор кодека : A_AAC
Продолжительность : 2 ч. 11 м.
Битрейт : 76,0 Кбит/сек
Каналы : 2 канала
Расположение каналов : Front: L R
Частота : 48,0 КГц / 24,0 КГц
Частота кадров : 23,438 кадра/сек (1024 SPF)
Метод сжатия : С потерями
Задержка видео : 31 мс.
Размер потока : 71,6 Мбайт (6%)
Язык : Russian
Default : Нет
Forced : Нет
Текст #1
Идентификатор : 4
Формат : UTF-8
Идентификатор кодека : S_TEXT/UTF8
Идентификатор кодека/Информация : UTF-8 Plain Text
Продолжительность : 2 ч. 2 м.
Битрейт : 52 бит/сек
ElementCount : 846
Размер потока : 47,6 Кбайт (0%)
Заголовок : Full Rus
Язык : Russian
Default : Нет
Forced : Нет
Текст #2
Идентификатор : 5
Формат : UTF-8
Идентификатор кодека : S_TEXT/UTF8
Идентификатор кодека/Информация : UTF-8 Plain Text
Продолжительность : 2 ч. 4 м.
Битрейт : 57 бит/сек
ElementCount : 901
Размер потока : 52,6 Кбайт (0%)
Заголовок : Full Rus [Ганс]
Язык : Russian
Default : Нет
Forced : Нет
Текст #3
Идентификатор : 6
Формат : UTF-8
Идентификатор кодека : S_TEXT/UTF8
Идентификатор кодека/Информация : UTF-8 Plain Text
Продолжительность : 1 ч. 58 м.
Битрейт : 60 бит/сек
ElementCount : 917
Размер потока : 52,4 Кбайт (0%)
Заголовок : Full Ukr
Язык : Ukrainian
Default : Нет
Forced : Нет
Текст #4
Идентификатор : 7
Формат : UTF-8
Идентификатор кодека : S_TEXT/UTF8
Идентификатор кодека/Информация : UTF-8 Plain Text
Продолжительность : 1 ч. 58 м.
Битрейт : 42 бит/сек
ElementCount : 1157
Размер потока : 36,9 Кбайт (0%)
Заголовок : Full Eng
Язык : English
Default : Нет
Forced : Нет
Текст #5
Идентификатор : 8
Формат : UTF-8
Идентификатор кодека : S_TEXT/UTF8
Идентификатор кодека/Информация : UTF-8 Plain Text
Продолжительность : 2 ч. 2 м.
Битрейт : 138 бит/сек
ElementCount : 2238
Размер потока : 124 Кбайт (0%)
Заголовок : Commentary with Director Stephen Sommers and Editor / Producer Bob Ducsay
Язык : English
Default : Нет
Forced : Нет
Текст #6
Идентификатор : 9
Формат : UTF-8
Идентификатор кодека : S_TEXT/UTF8
Идентификатор кодека/Информация : UTF-8 Plain Text
Продолжительность : 2 ч. 1 м.
Битрейт : 98 бит/сек
ElementCount : 1972
Размер потока : 88,0 Кбайт (0%)
Заголовок : Commentary with Richard Roxburgh, Shuler Henley and Will Kemp
Язык : English
Default : Нет
Forced : Нет
Меню
00:00:00.000 : :It's Alive
00:07:49.218 : :The Vatican's Avenger
00:13:42.613 : :The Order
00:20:14.503 : :Werewolf Hunters
00:23:12.724 : :Welcome to Transylvania
00:33:58.036 : :His Name Is Van Helsing
00:38:22.257 : :Looking for Answers
00:40:34.265 : :Curse of the Werewolf
00:48:41.793 : :Castle Frankenstein
00:53:18.862 : :Dracula's Children
01:02:07.055 : :Old Acquaintances
01:04:31.784 : :Failure
01:08:42.952 : :The Living Painting
01:09:54.982 : :The Frankenstein Monster
01:14:17.703 : :Hell on Wheels
01:18:55.313 : :Mark of the Wolf
01:23:57.866 : :The Monster's Ball
01:29:19.103 : :Van Helsing's Vow
01:31:11.340 : :The Door to Dracula
01:37:30.970 : :The Cure
01:40:34.528 : :Life for My Children
01:43:46.345 : :You Can Go When You're Dead
01:45:56.808 : :The Spawning
01:50:21.197 : :The Only Way
01:55:16.075 : :The Left Hand of God
01:57:08.396 : :Sacrifice
01:58:42.240 : :Reunion
02:02:01.188 : :End Titles

Скриншоты

     

Kon912

Post 04-Jul-2020 21:12

[Quote]

SIRUS,
Спасибо вам за поправку, "проверено".

SIRUS

Post 04-Jul-2020 21:07

[Quote]

Kon912 писал(а):
SIRUS,
Измините скриншоты, чтоб были в теге [IMGS]
Читайте правила (9 п.)
https://darkos.me/viewtopic.php?t=378
«Извиняюсь»: правильно

Kon912

Post 04-Jul-2020 20:58

[Quote]

SIRUS,
Измините скриншоты, чтоб были в теге [IMGS]
Читайте правила (9 п.)
https://darkos.me/viewtopic.php?t=378

SIRUS

Post 04-Jul-2020 18:47

[Quote]

Автостопом по галактике / The Hitchhiker's Guide to the Galaxy --Информация о фильме
Название: Автостопом по галактике
Оригинальное название: The Hitchhiker's Guide to the Galaxy
Год выхода: 2005
Жанр: Фантастика, комедия, приключения
Режиссер: Гарт Дженнингс
В ролях: Мос Деф, Мартин Фриман, Сэм Рокуэлл, Зои Дешанель, Анна Чэнселлор, Уорвик Дэвис, Су Эллиот, Стивен Фрай, Ричард Гриффитс, Доминик Джексон, Саймон Джонс, Марк Лонгхерст, Келли Макдональд, Джон Малкович, Иэн МакНис, Хелен Миррен, Билл Найи, Стив Пембертон, Марк Гэтисс, Рис Шерсмит, Джек Стэнли, Элби Вудингтон, Дэнни Блэкнер, Хейли Барроуз, Найджел Пласкитт, Жером Блэйк, Тим Перрин, Спенсер Уидлинг, Рэй Донн, Джон Гомес, Сьюзи Госслинг Валерио, Джейсон Шварцман, Эдгар Райт, Сесиль Фэй, Таккер Стивенс, Бен Аттли
О фильме:
В один прекрасный день над Землей нависли огромные звездолеты инопланетян, и людям объявили, что их родная планета подлежит сносу, а на ее месте будет проложено шикарное межзвездное шоссе. Н-да, не повезло человечеству. Кроме самого заурядного парня по имени Артур Дент, старый друг и собутыльник которого Форд Префект оказался... инопланетянином!

Страна: Великобритания, США
Студия: Touchstone Pictures, Spyglass Entertainment, Hammer & Tongs, Everyman Pictures
Продолжительность: 01:48:46
Перевод: Профессиональный (полное дублирование)

Файл
Формат: MKV
Качество: HDRip-AVC
Видео: MPEG-4 AVC, 768x320, - 881 Кбит/с
Аудио: AAC-HE, 2 ch, - 76 Кбит/с
Субтитры: Русские

MI

Общее
Уникальный идентификатор : 234061398201856551310917577291537235391 (0xB01695E767ADD51D091C08B44182BDBF)
Полное имя : D:MOVIESAvtostopom.Po.Galaktike.2005.HDRip-AVC..mkv
Формат : Matroska
Версия формата : Version 4 / Version 2
Размер файла : 746 Мбайт
Продолжительность : 1 ч. 48 м.
Общий поток : 959 Кбит/сек
Дата кодирования : UTC 2019-08-14 04:01:38
Программа кодирования : mkvmerge v35.0.0 ('All The Love In The World') 64-bit
Библиотека кодирования : libebml v1.3.9 + libmatroska v1.5.2
Видео
Идентификатор : 1
Формат : AVC
Формат/Информация : Advanced Video Codec
Профиль формата : High@L4.1
Параметр CABAC формата : Да
Параметр RefFrames формата : 12 кадров
Идентификатор кодека : V_MPEG4/ISO/AVC
Продолжительность : 1 ч. 48 м.
Битрейт : 881 Кбит/сек
Ширина : 768 пикселей
Высота : 320 пикселей
Соотношение сторон : 2,40:1
Режим частоты кадров : Постоянный
Частота кадров : 23,976 (24000/1001) кадра/сек
Цветовое пространство : YUV
Субдискретизация насыщенности : 4:2:0
Битовая глубина : 8 бит
Тип развёртки : Прогрессивная
Бит/(Пиксели*Кадры) : 0.150
Размер потока : 685 Мбайт (92%)
Библиотека кодирования : x264 core 152 r2851kMod ba24899
Настройки программы : cabac=1 / ref=12 / deblock=1:-3:-3 / analyse=0x3:0x133 / me=umh / subme=10 / psy=1 / fade_compensate=0.00 / psy_rd=1.00:0.12 / mixed_ref=1 / me_range=32 / chroma_me=1 / trellis=2 / 8x8dct=1 / cqm=0 / deadzone=21,11 / fast_pskip=0 / chroma_qp_offset=-3 / threads=6 / lookahead_threads=1 / sliced_threads=0 / nr=0 / decimate=0 / interlaced=0 / bluray_compat=0 / constrained_intra=0 / bframes=12 / b_pyramid=2 / b_adapt=2 / b_bias=0 / direct=3 / weightb=1 / open_gop=0 / weightp=2 / keyint=240 / keyint_min=23 / scenecut=40 / intra_refresh=0 / rc_lookahead=40 / rc=2pass / mbtree=1 / bitrate=881 / ratetol=1.0 / qcomp=0.60 / qpmin=0 / qpmax=69 / qpstep=4 / cplxblur=20.0 / qblur=0.5 / ip_ratio=1.40 / aq=3:1.00
Default : Да
Forced : Нет
Аудио
Идентификатор : 2
Формат : AAC
Формат/Информация : Advanced Audio Codec
Профиль формата : HE-AAC / LC
Идентификатор кодека : A_AAC
Продолжительность : 1 ч. 48 м.
Битрейт : 76,0 Кбит/сек
Каналы : 2 канала
Расположение каналов : Front: L R
Частота : 48,0 КГц / 24,0 КГц
Частота кадров : 23,438 кадра/сек (1024 SPF)
Метод сжатия : С потерями
Задержка видео : 31 мс.
Размер потока : 59,1 Мбайт (8%)
Язык : Russian
Default : Да
Forced : Нет
Текст
Идентификатор : 3
Формат : UTF-8
Идентификатор кодека : S_TEXT/UTF8
Идентификатор кодека/Информация : UTF-8 Plain Text
Продолжительность : 1 ч. 46 м.
Битрейт : 107 бит/сек
ElementCount : 1405
Размер потока : 83,8 Кбайт (0%)
Язык : Russian
Default : Нет
Forced : Нет
Меню
00:00:00.000 : en:00:00:00.000
00:03:53.233 : en:00:03:53.233
00:06:46.781 : en:00:06:46.781
00:12:57.485 : en:00:12:57.485
00:14:33.247 : en:00:14:33.247
00:18:34.697 : en:00:18:34.697
00:25:41.331 : en:00:25:41.331
00:30:17.274 : en:00:30:17.274
00:34:33.321 : en:00:34:33.321
00:40:10.950 : en:00:40:10.950
00:43:55.633 : en:00:43:55.633
00:48:41.669 : en:00:48:41.669
00:52:33.984 : en:00:52:33.984
00:56:34.766 : en:00:56:34.766
01:01:03.827 : en:01:01:03.827
01:06:15.889 : en:01:06:15.889
01:10:18.798 : en:01:10:18.798
01:14:01.979 : en:01:14:01.979
01:18:38.631 : en:01:18:38.631
01:23:06.356 : en:01:23:06.356
01:26:01.448 : en:01:26:01.448
01:30:46.316 : en:01:30:46.316
01:35:49.786 : en:01:35:49.786
01:41:53.816 : en:01:41:53.816
01:48:46.270 : en:01:48:46.270

Скриншоты

     

RazBoyNik

Post 15-Feb-2020 11:23

[Quote]

21 грамм / 21 Grams (2003) BDRip - Год: 2003
Производство: США / Mediana Productions Filmgesellschaft, This Is That Productions
Жанр: Драма, Триллер, Криминал
Режиссер: Алехандро Гонсалес Иньярриту
Актеры: Шон Пенн, Наоми Уоттс, Бенисио Дель Торо, Шарлотта Генсбур, Мелисса Лео, Эдди Марсан, Клеа ДюВалл, Дэнни Хьюстон, Пол Кальдерон
Описание:
Говорят, что каждый человек в момент смерти теряет 21 грамм. Столько весит горстка монет в пять центов, плитка шоколада, птица колибри…
«21 грамм» — это история о надежде и человечности, жизнелюбии и выживании. Независимо от того, боитесь вы смерти или нет, она приходит, и в этот момент ваше тело становится на 21 грамм легче. Быть может, это вес человеческой души?

Возраст: 16+ (зрителям, достигшим 16 лет)
Рейтинг MPAA: R (лицам до 17 лет обязательно присутствие взрослого)
Продолжительность: 02:04:36
Качество видео: BDRip
Перевод: Дублированный, Многоголосый профессиональный х2
Субтитры: Русские, Английские
Видео: AVC/H.264, 1280x694, ~2500 Kbps
Аудио #1: AC3, 6 ch, 448 Kbps - Русский (DUB - Blu-Ray "ПАРАДИЗ-ВC")
Аудио #2: AC3, 6 ch, 448 Kbps - Английский
Аудио #3: AC3, 6 ch, 448 Kbps - Русский (MVO - Tycoon)
Аудио #4: AC3, 6 ch, 384 Kbps - Русский (MVO - R1)

MediaInfo:

General
Unique ID : 299765572658815623491000570528965748942 (0xE184BFD007143B774179C708538268CE)
Complete name : /media/win/TORRENT/UPLOAD_TORRENTS/gBagIIamb_0guH_rpaMM_2003_BDRip_H264_H10P_720p (1).mkv
Format : Matroska
Format version : Version 4
File size : 2.62 GiB
Duration : 2 h 4 min
Overall bit rate : 3 006 kb/s
Movie name : gBagIIamb_0guH_rpaMM_2003_BDRip_H264_H10P_720p
Encoded date : UTC 2020-02-04 13:55:40
Writing application : mkvmerge v42.0.0 ('Overtime') 64-bit
Writing library : libebml v1.3.10 + libmatroska v1.5.2
IsTruncated : Yes
Video
ID : 1
Format : AVC
Format/Info : Advanced Video Codec
Format profile : High [url=mailto:10@L4.1]10@L4.1[/url]
Format settings : CABAC / 9 Ref Frames
Format settings, CABAC : Yes
Format settings, Reference frames : 9 frames
Codec ID : V_MPEG4/ISO/AVC
Duration : 2 h 4 min
Bit rate : 1 218 kb/s
Nominal bit rate : 2 500 kb/s
Width : 1 280 pixels
Height : 694 pixels
Display aspect ratio : 1.85:1
Frame rate mode : Constant
Frame rate : 23.976 (24000/1001) FPS
Color space : YUV
Chroma subsampling : 4:2:0
Bit depth : 10 bits
Scan type : Progressive
Bits/(Pixel*Frame) : 0.057
Stream size : 1.06 GiB (41%)
Writing library : x264 core 159 r2991 1771b55
Encoding settings : cabac=1 / ref=9 / deblock=1:0:0 / analyse=0x3:0x113 / me=umh / subme=9 / psy=1 / psy_rd=1,00:0,00 / mixed_ref=1 / me_range=24 / chroma_me=1 / trellis=1 / 8x8dct=1 / cqm=0 / deadzone=21,11 / fast_pskip=1 / chroma_qp_offset=-2 / threads=22 / lookahead_threads=2 / sliced_threads=0 / nr=0 / decimate=1 / interlaced=0 / bluray_compat=0 / constrained_intra=0 / bframes=6 / b_pyramid=2 / b_adapt=2 / b_bias=0 / direct=1 / weightb=1 / open_gop=0 / weightp=2 / keyint=240 / keyint_min=24 / scenecut=40 / intra_refresh=0 / rc_lookahead=40 / rc=2pass / mbtree=1 / bitrate=2500 / ratetol=1,0 / qcomp=0,60 / qpmin=0 / qpmax=81 / qpstep=4 / cplxblur=20,0 / qblur=0,5 / vbv_maxrate=150000 / vbv_bufsize=187500 / nal_hrd=none / filler=0 / ip_ratio=1,40 / aq=1:1,00
Default : Yes
Forced : No
Color range : Limited
Color primaries : BT.709
Transfer characteristics : BT.709
Matrix coefficients : BT.709
Audio #1
ID : 2
Format : AC-3
Format/Info : Audio Coding 3
Commercial name : Dolby Digital
Codec ID : A_AC3
Duration : 2 h 4 min
Bit rate mode : Constant
Bit rate : 448 kb/s
Channel(s) : 6 channels
Channel layout : L R C LFE Ls Rs
Sampling rate : 48.0 kHz
Frame rate : 31.250 FPS (1536 SPF)
Compression mode : Lossy
Delay relative to video : -5 ms
Stream size : 399 MiB (15%)
Title : RUS DUB
Language : Russian
Service kind : Complete Main
Default : No
Forced : No
Audio #2
ID : 3
Format : AC-3
Format/Info : Audio Coding 3
Commercial name : Dolby Digital
Codec ID : A_AC3
Duration : 2 h 4 min
Bit rate mode : Constant
Bit rate : 448 kb/s
Channel(s) : 6 channels
Channel layout : L R C LFE Ls Rs
Sampling rate : 48.0 kHz
Frame rate : 31.250 FPS (1536 SPF)
Compression mode : Lossy
Delay relative to video : -5 ms
Stream size : 399 MiB (15%)
Title : ENG
Language : English
Service kind : Complete Main
Default : No
Forced : No
Audio #3
ID : 6
Format : AC-3
Format/Info : Audio Coding 3
Commercial name : Dolby Digital
Codec ID : A_AC3
Duration : 2 h 4 min
Bit rate mode : Constant
Bit rate : 448 kb/s
Channel(s) : 6 channels
Channel layout : L R C LFE Ls Rs
Sampling rate : 48.0 kHz
Frame rate : 31.250 FPS (1536 SPF)
Compression mode : Lossy
Delay relative to video : -5 ms
Stream size : 399 MiB (15%)
Title : RUS (MVO Tycoon)
Language : Russian
Service kind : Complete Main
Default : Yes
Forced : No
Audio #4
ID : 7
Format : AC-3
Format/Info : Audio Coding 3
Commercial name : Dolby Digital
Codec ID : A_AC3
Duration : 2 h 4 min
Bit rate mode : Constant
Bit rate : 384 kb/s
Channel(s) : 6 channels
Channel layout : L R C LFE Ls Rs
Sampling rate : 48.0 kHz
Frame rate : 31.250 FPS (1536 SPF)
Compression mode : Lossy
Delay relative to video : -5 ms
Stream size : 342 MiB (13%)
Title : RUS (MVO R1)
Language : Russian
Service kind : Complete Main
Default : No
Forced : No
Text #1
ID : 4
Format : ASS
Codec ID : S_TEXT/ASS
Codec ID/Info : Advanced Sub Station Alpha
Compression mode : Lossless
Language : Russian
Default : No
Forced : No
Text #2
ID : 5
Format : ASS
Codec ID : S_TEXT/ASS
Codec ID/Info : Advanced Sub Station Alpha
Compression mode : Lossless
Language : English
Default : No
Forced : No
Menu
00:00:00.000 : :1. Mom Is Waiting for Us
00:04:03.702 : :2. So This Is Death's Waiting Room?
00:07:17.103 : :3. Jesus Is Our Hope
00:11:20.972 : :4. Call an Ambulance
00:14:30.787 : :5. Washing the Past
00:18:32.111 : :6. There's No Hitting in This House
00:22:11.455 : :7. Nobody Saw Him
00:26:51.944 : :8. Have You Been Drinking?
00:31:30.806 : :9. Heart-to-Heart
00:38:35.230 : :10. Duty Bound
00:43:18.930 : :11. The First Day of My New Life
00:45:32.521 : :12. Life Does Not Go On
00:49:52.990 : :13. Original Owner
00:52:48.415 : :14. Bled Dry
00:54:51.455 : :15. God Even Knows When a Single Hair Moves...
00:57:00.751 : :16. Going to Heaven
00:59:47.417 : :17. Your Friend
01:03:26.594 : :18. Did You Bring What I Asked You For?
01:06:06.838 : :19. Making Plans
01:10:44.907 : :20. Coming Home
01:14:53.614 : :21. Hidden Numbers
01:16:33.047 : :22. You Shouldn't Have Done It
01:20:47.259 : :23. Can I See You Again?
01:24:28.146 : :24. A Good Heart
01:36:01.923 : :25. Lack of Evidence
01:39:50.109 : :26. Daddy, a Pigeon!
01:43:22.822 : :27. Despair
01:45:18.270 : :28. Red Shoelaces
01:49:31.690 : :29. You're Pregnant
01:50:28.122 : :30. How Many Times?
01:55:34.469 : :31. 21 Grams
01:58:18.174 : :32. End Titles

Дополнительная информация:

Награды и номинации:
Сезар, 2005 год
Номинации (1):
Лучший фильм на иностранном языке
Оскар, 2004 год
Номинации (2):
Лучшая женская роль (Наоми Уоттс)
Лучшая мужская роль второго плана (Бенисио Дель Торо)
Британская академия, 2004 год
Номинации (5):
Лучшая мужская роль (Бенисио Дель Торо)
Лучшая мужская роль (Шон Пенн)
Лучшая женская роль (Наоми Уоттс)
Лучший оригинальный сценарий
Лучший монтаж
Премия Гильдии актеров, 2004 год
Номинации (2):
Лучшая женская роль (Наоми Уоттс)
Лучшая мужская роль второго плана (Бенисио Дель Торо)
Венецианский кинофестиваль, 2003 год
Победитель (4):
Кубок Вольпи за лучшую мужскую роль ( Шон Пенн )
Приз зрительских симпатий за лучшую мужскую роль ( Бенисио Дель Торо )
Приз зрительских симпатий за лучшую женскую роль ( Наоми Уоттс )
Приз компании Wella
Номинации (1):
Золотой лев
Европейская киноакадемия, 2003 год
Номинации (1):
Премия Screen International Award
Премия Национального совета обозревателей и «Золотой сателлит» за главную мужскую роль (Шон Пенн — также за участие в картине «Таинственная река» / Mystic River), специальное упоминание на церемонии вручения премий «Независимый дух».
Скриншоты:
       

Clavik

Post 28-Dec-2019 17:04

[Quote]

Пиджак / The Jacket (2005) BDRip [H.265/1080p-LQ] [10-bit] - Производство: США, Германия / Rising Star, Warner Independent Pictures
Жанр: Детектив, Триллер, Фантастика, Драма
Режиссер: Джон Мэйбери
Продюсер: Джордж Клуни, Питер Губер, Стивен Содерберг
Актеры: Эдриан Броуди, Кира Найтли, Крис Кристофферсон, Дженнифер Джейсон Ли, Келли Линч, Брэд Ренфро, Дэниэл Крэйг, Стивен Макинтош, Брендан Койл, МакКензи Филлипс
Описание:
Ветеран войны в Персидском заливе Джек Старкс поправляется после ранения в голову. Он возвращается в родной штат Вермонт, но ранение дает о себе знать приступами амнезии. Когда Старкса обвиняют в убийстве полицейского, его направляют на психиатрическую экспертизу.
Доктор Беккер использует экспериментальные методы лечения, вводя Старксу новейшие препараты. После инъекций Старксу надевают смирительную рубашку и помещают в подвал. В наркотическом опьянении мысли Старкса устремляются в будущее, где он встречает Джеки и узнает, что ему осталось жить 4 дня. Вместе с Джеки он ищет возможность убежать от судьбы.

Возраст: 16+ (зрителям, достигшим 16 лет)
Рейтинг MPAA: R (лицам до 17 лет обязательно присутствие взрослого)
Релиз от: DoSam
Продолжительность: 01:42:55
Качество видео: BDRip
Перевод: Дублированный, Двухголосый (Tycoon)
Субтитры: Русские (полные)
Видео: HEVC/H.265, 1920x792, ~8 032 Kbps
Аудио: AC3, 6 ch, 448 Kbps - Дубляж (русский)
Аудио: AC3, 6 ch, 448 Kbps - Двухголосый закадровый [Tycoon-Studio] (русский)

Mediainfo:

General
Unique ID : 137492299691722656888336671453876380964 (0x67700DBFEE839B001BA035157530E524)
Format : Matroska
Format version : Version 4
File size : 6.42 GiB
Duration : 1 h 42 min
Overall bit rate : 8 929 kb/s
Movie name : THE_JACKET_2005 BDRip_DoSam
Encoded date : UTC 2019-12-10 08:07:07
Writing application : mkvmerge v41.0.0 ('Smarra') 64-bit
Writing library : libebml v1.3.9 + libmatroska v1.5.2
Video
ID : 1
Format : HEVC
Format/Info : High Efficiency Video Coding
Format profile : Main [url=mailto:10@L4.1]10@L4.1[/url]@High
Codec ID : V_MPEGH/ISO/HEVC
Duration : 1 h 42 min
Bit rate : 8 032 kb/s
Width : 1 920 pixels
Height : 792 pixels
Display aspect ratio : 2.40:1
Frame rate mode : Constant
Frame rate : 23.976 (24000/1001) FPS
Color space : YUV
Chroma subsampling : 4:2:0
Bit depth : 10 bits
Bits/(Pixel*Frame) : 0.220
Stream size : 5.77 GiB (90%)
Writing library : x265 3.2.1+2-09f3b1d9349a:[Windows][GCC 9.2.0][64 bit] 10bit
Encoding settings : cpuid=1111039 / frame-threads=3 / numa-pools=12 / wpp / no-pmode / no-pme / no-psnr / no-ssim / log-level=2 / input-csp=1 / input-res=1920x792 / interlace=0 / total-frames=148009 / level-idc=41 / high-tier=1 / uhd-bd=0 / ref=5 / no-allow-non-conformance / no-repeat-headers / annexb / no-aud / no-hrd / info / hash=0 / no-temporal-layers / open-gop / min-keyint=23 / keyint=250 / gop-lookahead=0 / bframes=10 / b-adapt=2 / b-pyramid / bframe-bias=0 / rc-lookahead=40 / lookahead-slices=4 / scenecut=40 / radl=0 / no-splice / no-intra-refresh / ctu=64 / min-cu-size=8 / no-rect / no-amp / max-tu-size=32 / tu-inter-depth=1 / tu-intra-depth=1 / limit-tu=0 / rdoq-level=2 / dynamic-rd=0.00 / no-ssim-rd / signhide / no-tskip / nr-intra=0 / nr-inter=0 / no-constrained-intra / strong-intra-smoothing / max-merge=3 / limit-refs=1 / no-limit-modes / me=2 / subme=4 / merange=57 / temporal-mvp / no-hme / weightp / weightb / no-analyze-src-pics / deblock=-3:-3 / no-sao / no-sao-non-deblock / rd=4 / selective-sao=0 / early-skip / rskip / no-fast-intra / no-tskip-fast / no-cu-lossless / b-intra / no-splitrd-skip / rdpenalty=0 / psy-rd=4.00 / psy-rdoq=10.00 / no-rd-refine / no-lossless / cbqpoffs=0 / crqpoffs=0 / rc=crf / crf=21.0 / qcomp=0.60 / qpstep=4 / stats-write=0 / stats-read=0 / vbv-maxrate=50000 / vbv-bufsize=50000 / vbv-init=0.9 / crf-max=0.0 / crf-min=0.0 / ipratio=1.10 / pbratio=1.00 / aq-mode=1 / aq-strength=1.00 / cutree / zone-count=0 / no-strict-cbr / qg-size=32 / rc-grain / qpmax=69 / qpmin=0 / no-const-vbv / sar=0 / overscan=0 / videoformat=5 / range=0 / colorprim=1 / transfer=1 / colormatrix=1 / chromaloc=0 / display-window=0 / cll=0,0 / min-luma=0 / max-luma=1023 / log2-max-poc-lsb=8 / vui-timing-info / vui-hrd-info / slices=1 / no-opt-qp-pps / no-opt-ref-list-length-pps / no-multi-pass-opt-rps / scenecut-bias=0.05 / no-opt-cu-delta-qp / no-aq-motion / no-hdr / no-hdr-opt / no-dhdr10-opt / no-idr-recovery-sei / analysis-reuse-level=5 / scale-factor=0 / refine-intra=0 / refine-inter=0 / refine-mv=1 / refine-ctu-distortion=0 / no-limit-sao / ctu-info=0 / no-lowpass-dct / refine-analysis-type=0 / copy-pic=1 / max-ausize-factor=1.0 / no-dynamic-refine / no-single-sei / no-hevc-aq / no-svt / no-field / qp-adaptation-range=1.00
Default : Yes
Forced : No
Color range : Limited
Color primaries : BT.709
Transfer characteristics : BT.709
Matrix coefficients : BT.709
Audio #1
ID : 2
Format : AC-3
Format/Info : Audio Coding 3
Commercial name : Dolby Digital
Codec ID : A_AC3
Duration : 1 h 42 min
Bit rate mode : Constant
Bit rate : 448 kb/s
Channel(s) : 6 channels
Channel layout : L R C LFE Ls Rs
Sampling rate : 48.0 kHz
Frame rate : 31.250 FPS (1536 SPF)
Compression mode : Lossy
Stream size : 330 MiB (5%)
Title : Dub - AC3 5.1 448 kb/s
Language : Russian
Service kind : Complete Main
Default : Yes
Forced : No
Audio #2
ID : 3
Format : AC-3
Format/Info : Audio Coding 3
Commercial name : Dolby Digital
Codec ID : A_AC3
Duration : 1 h 42 min
Bit rate mode : Constant
Bit rate : 448 kb/s
Channel(s) : 6 channels
Channel layout : L R C LFE Ls Rs
Sampling rate : 48.0 kHz
Frame rate : 31.250 FPS (1536 SPF)
Compression mode : Lossy
Stream size : 330 MiB (5%)
Title : DVO (Tycoon-Studio) - AC3 5.1 448 kb/s
Language : Russian
Service kind : Complete Main
Default : No
Forced : No
Text
ID : 4
Format : UTF-8
Codec ID : S_TEXT/UTF8
Codec ID/Info : UTF-8 Plain Text
Duration : 1 h 34 min
Bit rate : 74 b/s
Count of elements : 1029
Stream size : 51.9 KiB (0%)
Title : Full
Language : Russian
Default : No
Forced : No
Menu
00:00:00.000 : en:(01)00:00:00:000
00:03:44.599 : en:(02)00:03:44:599
00:07:10.805 : en:(03)00:07:10:805
00:12:29.248 : en:(04)00:12:29:248
00:16:41.417 : en:(05)00:16:41:417
00:19:28.584 : en:(06)00:19:28:584
00:22:50.827 : en:(07)00:22:50:827
00:27:10.211 : en:(08)00:27:10:211
00:30:38.378 : en:(09)00:30:38:378
00:35:53.359 : en:(10)00:35:53:359
00:38:28.806 : en:(11)00:38:28:806
00:43:26.812 : en:(12)00:43:26:812
00:46:23.405 : en:(13)00:46:23:405
00:51:16.990 : en:(14)00:51:16:990
00:56:20.627 : en:(15)00:56:20:627
00:59:24.727 : en:(16)00:59:24:727
01:01:49.539 : en:(17)01:01:49:539
01:04:44.463 : en:(18)01:04:44:463
01:09:45.723 : en:(19)01:09:45:723
01:15:02.289 : en:(20)01:15:02:289
01:17:59.091 : en:(21)01:17:59:091
01:21:42.314 : en:(22)01:21:42:314
01:27:48.513 : en:(23)01:27:48:513
01:32:45.184 : en:(24)01:32:45:184
01:35:29.724 : en:(25)01:35:29:724
01:42:53.250 : en:(26)01:42:53:250
Скриншоты:
       

Clavik

Post 13-Sep-2019 19:34

[Quote]

Всё или ничего / All or Nothing (2002) WEB-DL - Производство: Великобритания, Франция, Les Films Alain Sarde, Thin Man Films
Жанр: драма
Режиссер: Майк Ли
Актеры: Тимоти Сполл, Лесли Менвилл, Элисон Гарлэнд, Джеймс Корден, Рут Шин, Мэрион Бэйли, Пол Джессон, Сэм Келли, Кэтрин Хантер, Сэлли Хоукинс
Описание:
Фильм рассказывает о жизни таксиста Фила, его жены Пенни и их детей. Дети страдают ожирением и от того видимо несчастны. Впрочем, несчастны и их родители, которым жизнь подкидывает суровые испытания. Пройти сквозь все невзгоды и сохранить семью — вот непростая задача, которая стоит перед Филом и Пенни.

Возраст: 16+ (зрителям, достигшим 16 лет)
Рейтинг MPAA: R (лицам до 17 лет обязательно присутствие взрослого)
Продолжительность: 02:08:21
Качество видео: WEB-DL
Перевод: Двуголосый профессиональный
Субтитры: Aнглийские
Видео: AVC/H.264, 1920x1040, ~9094 kbps
Аудио #1: AC3, 6 ch, 384 kbps - Русский
Аудио #2: AC3, 6 ch, 640 kbps - Aнглийский

MediaInfo:

General
Unique ID : 287762041059035035458873092652141112985 (0xD87CF4032B5219EB17157459CEA7EE99)
Complete name : D:\All Or Nothing (2002) [1080p].mkv
Format : Matroska
Format version : Version 4 / Version 2
File size : 9.07 GiB
Duration : 2 h 8 min
Overall bit rate mode : Variable
Overall bit rate : 10.1 Mb/s
Encoded date : UTC 2019-09-13 06:54:17
Writing application : mkvmerge v35.0.0 ('All The Love In The World') 64-bit
Writing library : libebml v1.3.9 + libmatroska v1.5.2
Video
ID : 1
Format : AVC
Format/Info : Advanced Video Codec
Format profile : High@L4
Format settings, CABAC : Yes
Format settings, RefFrames : 4 frames
Codec ID : V_MPEG4/ISO/AVC
Duration : 2 h 8 min
Bit rate mode : Variable
Bit rate : 9 094 kb/s
Maximum bit rate : 15.0 Mb/s
Width : 1 920 pixels
Height : 1 040 pixels
Display aspect ratio : 1.85:1
Frame rate mode : Constant
Frame rate : 23.976 (24000/1001) FPS
Color space : YUV
Chroma subsampling : 4:2:0
Bit depth : 8 bits
Scan type : Progressive
Bits/(Pixel*Frame) : 0.190
Stream size : 8.15 GiB (90%)
Default : Yes
Forced : No
Color range : Limited
Color primaries : BT.709
Transfer characteristics : BT.709
Matrix coefficients : BT.709
Audio #1
ID : 2
Format : AC-3
Format/Info : Audio Coding 3
Format settings, Endianness : Big
Codec ID : A_AC3
Duration : 2 h 8 min
Bit rate mode : Constant
Bit rate : 384 kb/s
Channel(s) : 6 channels
Channel positions : Front: L C R, Side: L R, LFE
Sampling rate : 48.0 kHz
Frame rate : 31.250 FPS (1536 SPF)
Bit depth : 16 bits
Compression mode : Lossy
Stream size : 353 MiB (4%)
Title : DVO
Language : Russian
Service kind : Complete Main
Default : Yes
Forced : No
Audio #2
ID : 3
Format : E-AC-3
Format/Info : Enhanced Audio Coding 3
Format settings, Endianness : Big
Codec ID : A_EAC3
Duration : 2 h 8 min
Bit rate mode : Constant
Bit rate : 640 kb/s
Channel(s) : 6 channels
Channel positions : Front: L C R, Side: L R, LFE
Sampling rate : 48.0 kHz
Frame rate : 187.500 FPS (256 SPF)
Compression mode : Lossy
Stream size : 588 MiB (6%)
Language : English
Service kind : Complete Main
Default : No
Forced : No
Text
ID : 4
Format : UTF-8
Codec ID : S_TEXT/UTF8
Codec ID/Info : UTF-8 Plain Text
Duration : 2 h 5 min
Bit rate : 52 b/s
Count of elements : 2135
Stream size : 48.1 KiB (0%)
Language : English
Default : No
Forced : No
Menu
00:00:00.220 : en:Studio Logos
00:00:22.437 : en:Rachel Cleans the Floors, Opening Credits; Multiple Locations
00:07:17.554 : en:Penny Returns Home; Multiple Locations
00:09:14.725 : en:Phil Shares a Philosophy over a Beer with Ron; Multiple Locations
00:12:05.102 : en:Phil Brings Home Bread; Bassett Household
00:16:55.133 : en:Samantha Comes Home Starving; Multiple Locations
00:22:05.171 : en:Phil Looks for Some Change; Bassett Household
00:28:32.178 : en:Rachel Cleans at Work; Nursing Home
00:29:37.192 : en:Ron Pays His Mechanic; Multiple Locations
00:32:02.209 : en:Sam Asks about Rachel's Night; Multiple Locations
00:34:51.230 : en:Phil Drives His Taxi; Multiple Locations
00:38:23.253 : en:Donna and Jason Spend Time Together; Donna's Room
00:42:14.263 : en:Penny Hangs Out with Her Friends; Bar
00:43:49.276 : en:Jason Reacts Explosively to Donna's News; Donna's Home
00:45:57.301 : en:Carol Compliments Maureen's Dress; Multiple Locations
00:50:14.317 : en:Samantha and Craig Flirt; Outside the Apartment Building
00:52:48.329 : en:Phil Finishes His Night Shift; Multiple Locations
00:54:50.335 : en:Rachel Checks on Martha; Nursing Home
00:55:54.379 : en:Maureen Tries to Help Donna; Multiple Locations
01:03:14.416 : en:Another Depressing Day; Multiple Locations
01:09:15.464 : en:Rory Has a Health Scare; Multiple Locations
01:17:23.487 : en:Rory Is Rushed to the Hospital; Multiple Locations
01:21:11.541 : en:Rory's Health Is Diagnosed; Multiple Locations
01:30:12.572 : en:Phil Learns about Rory's Hospitalization; Multiple Locations
01:35:17.609 : en:Phil Finally Arrives at the Hospital; Hospital
01:41:25.679 : en:Penny Discusses Rory's Health; Multiple Locations
01:53:11.692 : en:Penny Tries to Console Rachel; Bassett Household
01:55:21.722 : en:Penny and Phil Try to Reconcile; Bassett Household
02:00:24.751 : en:The Bassetts Visit Rory; Hospital
02:05:06.770 : en:End Credits
Скриншоты:
       

Clavik

Post 26-Aug-2019 17:36

[Quote]

Ракетчик / The Rocketeer (1991) BDRip «Three years before the United States declares war, Cliff Secord leads America's first battle against the Nazis.»-Производство: США / Walt Disney Pictures, Touchstone Pictures, Silver Screen Partners IV
Жанр: Фантастика, боевик, приключения, семейный
Режиссер: Джо Джонстон
Актеры: Билл Кэмпбелл, Дженнифер Коннелли, Алан Аркин, Тимоти Далтон, Пол Сорвино, Терри О’Куинн, Эд Лотер, Джеймс Хэнди, Тайни Рон, Роберт Миранда, Джон Полито, Эдди Джонс, Уильям Сэндерсон, Дон Пагсли, Марго Мартиндейл, Клинт Ховард
Описание:
Америка тридцатых годов, золотое время! Гангстеры, нацистские шпионы и допотопные аэропланы, заполнившие небо. Молодой пилот Клифф Сэкорд находит сверхсекретное устройство — ракетный ранец, позволяющий подниматься в воздух. Вскоре в газетах появляются сообщения о таинственном человеке, парящем в небе словно ракета.
Журналисты дают ему громкое прозвище «Ракетчик». По его следу пускаются буквально все: репортеры, агенты ФБР и фашисты, больше других заинтересованные в совершенном оружии. В облаках снова мелькнула стремительная тень. Мертвая петля вокруг его шеи затягивается все туже.

Возраст: 16+ (зрителям, достигшим 16 лет)
Рейтинг MPAA: PG (рекомендуется присутствие родителей)
Релиз от: Release Group
Продолжительность: 01:48:31
Качество видео: BDRip
Перевод: Профессиональный двухголосый, авторский
Субтитры: Английские
Видео: AVC/H.264, 1136x484, 4241 Кbps
Аудио 1: Русский: AC3, 6 ch, 448 Кbps | Профессиональный двухголосый закадровый, Видеосервис
Аудио 2: Русский: AC3, 6 ch, 448 Кbps | Авторский А.Марченко
Аудио 3: Русский: AC3, 2 ch, 192 Кbps | Авторский А.Гаврилов
Аудио 4: Английский: AC3, 6 ch, 448 Кbps | Оригинал

MediaInfo:

x264 [info]: frame I:1201  Avg QP:16.75  size: 74786
x264 [info]: frame P:30697 Avg QP:18.93 size: 38859
x264 [info]: frame B:124222 Avg QP:20.69 size: 18242
Общее
Уникальный идентификатор : 243064543835258032200653242761891603217 (0xB6DC87413B72FC5BB8756E9E0AC4E311)
Полное имя : D:\Мое видео\Torrenty\The.Rocketeer.1991.BDRip-AVC.mkv
Формат : Matroska
Версия формата : Version 2
Размер файла : 4,47 Гбайт
Продолжительность : 1 ч. 48 м.
Общий поток : 5894 Кбит/сек
Название фильма : The Rocketeer 1991
Дата кодирования : UTC 2012-05-01 19:56:46
Программа кодирования : mkvmerge v5.5.0 ('Healer') built on Apr 6 2012 21:43:24
Библиотека кодирования : libebml v1.2.3 + libmatroska v1.3.0
Attachments : The Rocketeer.jpg
Видео
Идентификатор : 1
Формат : AVC
Формат/Информация : Advanced Video Codec
Профиль формата : [url=mailto:High@L4.1]High@L4.1[/url]
Параметр CABAC формата : Да
Параметр ReFrames формата : 11 кадров
Идентификатор кодека : V_MPEG4/ISO/AVC
Продолжительность : 1 ч. 48 м.
Битрейт : 4241 Кбит/сек
Ширина : 1136 пикселей
Высота : 484 пикселя
Соотношение сторон : 2,35:1
Режим частоты кадров : Постоянный
Частота кадров : 23,976 (24000/1001) кадра/сек
Цветовое пространство : YUV
Субдискретизация насыщенности : 4:2:0
Битовая глубина : 8 бит
Тип развёртки : Прогрессивная
Бит/(Пиксели*Кадры) : 0.322
Размер потока : 3,22 Гбайт (72%)
Заголовок : The Rocketeer / Release from R.G.tRu
Библиотека кодирования : x264 core 124 r2197kMod 69a0443
Настройки программы : cabac=1 / ref=11 / deblock=1:-2:-2 / analyse=0x3:0x133 / me=umh / subme=11 / psy=1 / fade_compensate=0.00 / psy_rd=1.00:0.00 / mixed_ref=1 / me_range=64 / chroma_me=1 / trellis=2 / 8x8dct=1 / cqm=0 / deadzone=21,11 / fast_pskip=0 / chroma_qp_offset=-2 / threads=6 / sliced_threads=0 / nr=0 / decimate=1 / interlaced=0 / bluray_compat=0 / constrained_intra=0 / bframes=11 / b_pyramid=2 / b_adapt=2 / b_bias=0 / direct=3 / weightb=1 / open_gop=0 / weightp=2 / keyint=250 / keyint_min=23 / scenecut=40 / intra_refresh=0 / rc_lookahead=60 / rc=crf / mbtree=0 / crf=18.2000 / qcomp=0.65 / qpmin=0 / qpmax=69 / qpstep=4 / vbv_maxrate=25000 / vbv_bufsize=31250 / crf_max=0.0 / nal_hrd=none / ip_ratio=1.40 / pb_ratio=1.25 / aq=3:0.70 / zones=150254,156119,q=25
Язык : English
Default : Да
Forced : Нет
Цветовой диапазон : Limited
Коэффициенты матрицы : BT.709
Аудио #1
Идентификатор : 2
Формат : AC-3
Формат/Информация : Audio Coding 3
Параметр Endianness формата : Big
Идентификатор кодека : A_AC3
Продолжительность : 1 ч. 48 м.
Вид битрейта : Постоянный
Битрейт : 448 Кбит/сек
Каналы : 6 каналов
Расположение каналов : Front: L C R, Side: L R, LFE
Частота : 48,0 КГц
Частота кадров : 31,250 кадров/сек (1536 spf)
Битовая глубина : 16 бит
Метод сжатия : С потерями
Размер потока : 348 Мбайт (8%)
Заголовок : Видеосервис
Язык : Russian
ServiceKind/String : Complete Main
Default : Да
Forced : Нет
Аудио #2
Идентификатор : 3
Формат : AC-3
Формат/Информация : Audio Coding 3
Параметр Endianness формата : Big
Идентификатор кодека : A_AC3
Продолжительность : 1 ч. 48 м.
Вид битрейта : Постоянный
Битрейт : 448 Кбит/сек
Каналы : 6 каналов
Расположение каналов : Front: L C R, Side: L R, LFE
Частота : 48,0 КГц
Частота кадров : 31,250 кадров/сек (1536 spf)
Битовая глубина : 16 бит
Метод сжатия : С потерями
Размер потока : 348 Мбайт (8%)
Заголовок : А.Марченко
Язык : Russian
ServiceKind/String : Complete Main
Default : Нет
Forced : Нет
Аудио #3
Идентификатор : 4
Формат : AC-3
Формат/Информация : Audio Coding 3
Параметр Endianness формата : Big
Идентификатор кодека : A_AC3
Продолжительность : 1 ч. 48 м.
Вид битрейта : Постоянный
Битрейт : 192 Кбит/сек
Каналы : 2 канала
Расположение каналов : Front: L R
Частота : 48,0 КГц
Частота кадров : 31,250 кадров/сек (1536 spf)
Битовая глубина : 16 бит
Метод сжатия : С потерями
Размер потока : 149 Мбайт (3%)
Заголовок : А.Гаврилов
Язык : Russian
ServiceKind/String : Complete Main
Default : Нет
Forced : Нет
Аудио #4
Идентификатор : 5
Формат : AC-3
Формат/Информация : Audio Coding 3
Параметр Endianness формата : Big
Идентификатор кодека : A_AC3
Продолжительность : 1 ч. 48 м.
Вид битрейта : Постоянный
Битрейт : 448 Кбит/сек
Каналы : 6 каналов
Расположение каналов : Front: L C R, Side: L R, LFE
Частота : 48,0 КГц
Частота кадров : 31,250 кадров/сек (1536 spf)
Битовая глубина : 16 бит
Метод сжатия : С потерями
Размер потока : 348 Мбайт (8%)
Заголовок : Английский
Язык : English
ServiceKind/String : Complete Main
Default : Нет
Forced : Нет
Текст #1
Идентификатор : 6
Формат : UTF-8
Идентификатор кодека : S_TEXT/UTF8
Идентификатор кодека/Информация : UTF-8 Plain Text
Заголовок : Английские
Язык : English
Default : Нет
Forced : Нет
Текст #2
Идентификатор : 7
Формат : UTF-8
Идентификатор кодека : S_TEXT/UTF8
Идентификатор кодека/Информация : UTF-8 Plain Text
Заголовок : Английские - SDH
Язык : English
Default : Нет
Forced : Нет
Меню
00:00:00.000 : en:Opening
00:12:37.173 : en:The Hangar
00:18:20.724 : en:Tests
00:23:50.762 : en:Creeper
00:31:10.618 : en:The Movie Star
00:37:43.094 : en:Aerodrome
00:47:26.718 : en:What Have We Here?
00:53:39.883 : en:Above the Cafe
01:01:34.649 : en:Movie Star Spy!
01:08:44.787 : en:Trying to Spy on His Own
01:12:45.819 : en:In the Spider's Den
01:22:55.303 : en:Hughes Explains It All
01:26:41.029 : en:Smelling Victory
01:40:56.425 : en:Newspaper Clippings
01:44:03.695 : en:Heroes
Скриншоты:
       

indignation

Post 06-Jan-2019 20:31

[Quote]

Благодарю!

maxkiller

Post 31-Jul-2017 21:46

[Quote]

Хокинг / Hawking
Год выхода : 2004
Жанр : драма, биография,
Страна : Великобритания
Продолжительность : 01:28:40
Перевод : Любительский (одноголосый, закадровый) Игорь Степанов
Субтитры: Русские (daetoon1)
Режиссер : Филип Мартин / Philip Martin
В главных ролях : Бенедикт Камбербэтч, Майкл Брэндон, Том Ходжкинс, Лиза Диллон, Фиби Николлс, Адам Годли, Питер Фёрт, Том Уорд, Джон Сессионс, Роэн Сива
Описание : Биографический фильм об университетских годах выдающегося британского ученого астрофизика Стивена Хокинга.
Удивительная судьба удивительного человека. Фильм практически доподлинно рассказывает о самых значимых моментах начала карьеры Хокинга.
Замечательный фильм от ВВС снятый режиссером Филипом Мартином, не уступающий по своим меркам голливудским аналогам. И операторская работа и музыка и сюжет, который в прочем, не особо отличается от реальных событий, и даже интригующая концовка этого биографического фильма — заставляют смотреть его на одном дыхании.

Качество : HDRip-AVC
Формат видео : MKV
Видео : V_MPEG4/ISO/AVC, 720x404, ~2016 kbps avg, 25.000 fps
Aудио #1 : 48 kHz, AC3, 2ch, ~192.00 kbps avg [VO]
Aудио #2 : 48 kHz, AC3, 2ch, ~192.00 kbps avg [ENG]

MI

General
Unique ID : 190886131984201230732893321699560157122 (0x8F9B54EDF069A97FBA14F2DCDB1E6FC2)
Complete name : E:\INTERNET\Hawking.2004.HDRip-AVC.[VO]+Eng+Sub(Rus).mkv
Format : Matroska
Format version : Version 4 / Version 2
File size : 1.49 GiB
Duration : 1h 28mn
Overall bit rate : 2 401 Kbps
Movie name : Hawking (2004)
Encoded date : UTC 2017-07-30 19:21:41
Writing application : mkvmerge v6.1.0 ('Old Devil') built on Mar 2 2013 14:32:37
Writing library : libebml v1.3.0 + libmatroska v1.4.0
Video
ID : 1
Format : AVC
Format/Info : Advanced Video Codec
Format profile : High@L3
Format settings, CABAC : Yes
Format settings, ReFrames : 4 frames
Codec ID : V_MPEG4/ISO/AVC
Duration : 1h 28mn
Bit rate : 2 016 Kbps
Width : 720 pixels
Height : 404 pixels
Display aspect ratio : 16:9
Frame rate mode : Constant
Frame rate : 25.000 fps
Color space : YUV
Chroma subsampling : 4:2:0
Bit depth : 8 bits
Scan type : Progressive
Bits/(Pixel*Frame) : 0.277
Stream size : 1.22 GiB (82%)
Title : Hawking.2004.HDRip-AVC.[VO]+Eng
Writing library : x264 core 123 r2189 35cf912
Encoding settings : cabac=1 / ref=3 / deblock=1:0:0 / analyse=0x3:0x133 / me=hex / subme=7 / psy=1 / psy_rd=1.00:0.00 / mixed_ref=1 / me_range=16 / chroma_me=1 / trellis=1 / 8x8dct=1 / cqm=0 / deadzone=21,11 / fast_pskip=1 / chroma_qp_offset=-2 / threads=6 / sliced_threads=0 / nr=0 / decimate=1 / interlaced=0 / bluray_compat=0 / constrained_intra=0 / bframes=3 / b_pyramid=2 / b_adapt=1 / b_bias=0 / direct=1 / weightb=1 / open_gop=0 / weightp=2 / keyint=250 / keyint_min=25 / scenecut=40 / intra_refresh=0 / rc_lookahead=40 / rc=2pass / mbtree=1 / bitrate=2016 / ratetol=1.0 / qcomp=0.60 / qpmin=10 / qpmax=51 / qpstep=4 / cplxblur=20.0 / qblur=0.5 / ip_ratio=1.40 / aq=1:1.00
Language : English
Default : Yes
Forced : No
DURATION : 01:28:39.680000000
NUMBER_OF_FRAMES : 132992
NUMBER_OF_BYTES : 1340036031
_STATISTICS_WRITING_APP : mkvmerge v7.2.0 ('On Every Street') 32bit built on Sep 13 2014 15:42:11
_STATISTICS_WRITING_DATE_UTC : 2015-01-17 08:27:45
_STATISTICS_TAGS : BPS DURATION NUMBER_OF_FRAMES NUMBER_OF_BYTES
Audio #1
ID : 2
Format : AC-3
Format/Info : Audio Coding 3
Mode extension : CM (complete main)
Format settings, Endianness : Big
Codec ID : A_AC3
Duration : 1h 28mn
Bit rate mode : Constant
Bit rate : 192 Kbps
Channel(s) : 2 channels
Channel positions : Front: L R
Sampling rate : 48.0 KHz
Compression mode : Lossy
Delay relative to video : -369ms
Stream size : 122 MiB (8%)
Title : VO_Игорь Степанов
Language : Russian
Default : Yes
Forced : No
DURATION : 01:28:39.200000000
NUMBER_OF_FRAMES : 166225
NUMBER_OF_BYTES : 127660800
_STATISTICS_WRITING_APP : mkvmerge v7.2.0 ('On Every Street') 32bit built on Sep 13 2014 15:42:11
_STATISTICS_WRITING_DATE_UTC : 2015-01-17 08:27:45
_STATISTICS_TAGS : BPS DURATION NUMBER_OF_FRAMES NUMBER_OF_BYTES
Audio #2
ID : 3
Format : AC-3
Format/Info : Audio Coding 3
Mode extension : CM (complete main)
Format settings, Endianness : Big
Codec ID : A_AC3
Duration : 1h 28mn
Bit rate mode : Constant
Bit rate : 192 Kbps
Channel(s) : 2 channels
Channel positions : Front: L R
Sampling rate : 48.0 KHz
Compression mode : Lossy
Delay relative to video : -240ms
Stream size : 122 MiB (8%)
Title : ENG
Language : English
Default : No
Forced : No
Text
ID : 4
Format : UTF-8
Codec ID : S_TEXT/UTF8
Codec ID/Info : UTF-8 Plain Text
Title : [Sub Rus] by daetoon1
Language : Russian
Default : No
Forced : No

Скриншоты

     

}{@R0N

Post 30-Jan-2017 22:05

[Quote]

Потерянный в снегах / The Snow Walker - Производство: Канада
Жанр: Драма, приключения
Режиссер: Чарльз Мартин Смит
Актеры: Бэрри Пеппер, Анабелла Пиугаттук, Джеймс Кромуэлл, Кирстен Уоррен, Джон Грайз, Робин Данн, Малкольм Скотт, Майкл Бубле, Брэд Сивон, Грег Споттисвуд ...
Описание: Чарли Холлидей был рожден для того, чтобы работать в арктической пустыни. Его самолет бороздил воздушное пространство практически в любую погоду, доставляя продовольствие в самые отдаленные уголки Канадской Арктики.
Не удивительно, что даже зная о предстоящем буране он согласился доставить в больницу, страдающую от туберкулеза девушку Иунит из местного племени.
Однако даже Чарли не был готов к тому, какую участь уготовила ему судьба. Его верный самолет оказавшийся не в силах противостоять разбушевавшейся стихии, терпит катастрофу и отважный пилот вместе со спутницей, практически не говорящей по-английски, оказывается один на один с бесконечной арктической пустыней...

Возраст: 16+ (зрителям, достигшим 16 лет)
Рейтинг MPAA: PG (рекомендуется присутствие родителей)
Продолжительность: 01:45:19
Качество видео: DVDRip
Перевод: Профессиональный двухголосый
Субтитры: Отсутствуют
Видео: MPEG4, XviD, 720x384 (1.875), 29.970 fps, 2 338 Kbps (0.282 bit/pixel)
Аудио #1: AC-3, 48.0 KHz, 6 ch, 384 Kbps, CBR | Русский
Аудио #2: AC-3, 48.0 KHz, 6 ch, 224 Kbps, CBR | Английский

MediaInfo:

Общее
Полное имя : C:\NNM\Потерянный в снегах\Poteryannyj v snegah 2003 DVDRip.avi
Формат : AVI
Формат/Информация : Audio Video Interleave
Профиль формата : OpenDML
Настройки формата : rec
Размер файла : 2,17 Гбайт
Продолжительность : 1 ч. 45 м.
Общий поток : 2954 Кбит/сек
Программа кодирования : AVI-Mux GUI 1.17.8.3, Feb 16 201019:42:50
Видео
Идентификатор : 0
Формат : MPEG-4 Visual
Профиль формата : Advanced Simple@L5
Параметр BVOP формата : 1
Параметр QPel формата : Нет
Параметр GMC формата : Без точки перехода
Параметр матрицы формата : Default (MPEG)
Режим смешивания : Сжатый битовый поток
Идентификатор кодека : XVID
Идентификатор кодека/Подсказка : XviD
Продолжительность : 1 ч. 45 м.
Битрейт : 2338 Кбит/сек
Ширина : 720 пикселей
Высота : 384 пикселя
Соотношение сторон : 1,85:1
Частота кадров : 29,970 (30000/1001) кадров/сек
Цветовое пространство : YUV
Субдискретизация насыщенности : 4:2:0
Битовая глубина : 8 бит
Тип развёртки : Прогрессивная
Метод сжатия : С потерями
Бит/(Пиксели*Кадры) : 0.282
Размер потока : 1,72 Гбайт (79%)
Библиотека кодирования : XviD 1.2.0.dev47 (UTC 2006-11-01)
Аудио #1
Идентификатор : 1
Формат : AC-3
Формат/Информация : Audio Coding 3
Расширение режима : CM (complete main)
Параметр Endianness формата : Big
Идентификатор кодека : 2000
Продолжительность : 1 ч. 45 м.
Вид битрейта : Постоянный
Битрейт : 384 Кбит/сек
Каналы : 6 каналов
Расположение каналов : Front: L C R, Side: L R, LFE
Частота : 48,0 КГц
Частота кадров : 31,250 кадров/сек (1536 spf)
Битовая глубина : 16 бит
Метод сжатия : С потерями
Размер потока : 289 Мбайт (13%)
Выравнивание : Соединение по промежуткам
Продолжительность промежутка : 64 мс. (1,92 видеокадра)
Время предзагрузки промежутка : 192 мс.
Заголовок : Rus MVO
Аудио #2
Идентификатор : 2
Формат : AC-3
Формат/Информация : Audio Coding 3
Расширение режима : CM (complete main)
Параметр Endianness формата : Big
Идентификатор кодека : 2000
Продолжительность : 1 ч. 45 м.
Вид битрейта : Постоянный
Битрейт : 224 Кбит/сек
Каналы : 6 каналов
Расположение каналов : Front: L C R, Side: L R, LFE
Частота : 48,0 КГц
Частота кадров : 31,250 кадров/сек (1536 spf)
Битовая глубина : 16 бит
Метод сжатия : С потерями
Размер потока : 169 Мбайт (8%)
Выравнивание : Соединение по промежуткам
Продолжительность промежутка : 64 мс. (1,92 видеокадра)
Время предзагрузки промежутка : 192 мс.
Заголовок : Eng
Скриншоты:        

Russian Mafia

Post 15-Sep-2016 20:09

[Quote]

Девушка с татуировкой дракона / Man som hatar kvinnor / The Girl with the Dragon Tattoo (2009) BDRip [Расширенная версия]- Производство: Швеция, Дания, Германия, Норвегия / Danish Filminstitute, Danmarks Radio (DR), Film i Väst
Жанр: триллер, драма, криминал, детектив
Режиссер: Нильс Арден Оплев
Продюсер: Сёрен Стемосе, Сьюзанн Биллберг-Ридхольм, Анни Форби Фернандез
Актеры: Микаэл Нюквист, Нуми Рапас, Питер Абер, Свен-Бертиль Таубе, Петер Андерссон, Ингвар Хирдвалль, Марика Лагеркранц, Лена Эндре, Бьёрн Гранат, Эва Фрёлинг, Михалис Куцогианнакис, Анника Халлин, София Ледарп, Томас Колер, Давид Денсик, Гуннель Линдблум
Описание:
Фильм выполнен в духе классических детективов - Агаты Кристи и Артур Конан Дойля, но снят в стиле современных остросюжетных лент, которым присущи жестокость, эротика, кровь. Расследование главных героев, журналиста Микаэля Блумквиста и хакерши Лисбет Саландер, исчезновения юной племянницы промышленного магната, которое произошло более сорока лет назад, представляет собой захватывающую головоломку, следующий ход которой практически нельзя предугадать заранее. У вас не получится проникнуться какими-то чувствами к подозреваемым в этом деле, да оно и не важно, тут интересен сам ход расследования. А в расширенном варианте и с великолепным переводом Юрия Немахова фильм заиграет новыми красками!

Возраст: 18+ (зрителям, достигшим 18 лет. запрещено для детей)
Рейтинг MPAA: R (лицам до 17 лет обязательно присутствие взрослого)
Награды и номинации

Продолжительность: 03:06:01
Качество: BDRip Сэмпл
Перевод: Профессиональный (многоголосый закадровый) (Русский Репортаж, 100ТВ), Авторский (одноголосый, закадровый) (Юрий Немахов)
Вид субтитров: Внешние, отключаемые
Язык субтитров: Русский, Английский
Данные по 1 части:
Видео: XviD, 720x400, (16:9), 1790 kbps, 23,976 fps
Аудио 01: AC3, 6 ch, 448 kbps - Русский, (AVO, Юрий Немахов) в контейнере
Аудио 02: AC3, 2 ch, 192 kbps - Русский, (MVO, 100ТВ) отдельно
Аудио 03: AC3, 6 ch, 448 kbps - Шведский, отдельно
Данные по 2 части:
Видео: XviD, 720x400, (16:9), 1792 kbps, 23,976 fps
Аудио 01: AC3, 6 ch, 448 kbps - Русский, (AVO, Юрий Немахов) в контейнере
Аудио 02: AC3, 2 ch, 192 kbps - Русский, (MVO, 100ТВ) отдельно
Аудио 03: AC3, 6 ch, 448 kbps - Шведский, отдельно

Дополнительная информация:

Код:
Общее
Полное имя : B:\Män.som.hatar.kvinnor.2009.Extended.BDRip-ylnian\1.avi
Формат : AVI
Формат/Информация : Audio Video Interleave
Размер файла : 1,46 Гбайт
Продолжительность : 1 ч. 33 м.
Общий поток : 2247 Кбит/сек
Программа кодирования : VirtualDubMod 1.5.10.2 (build 2540/release)
Библиотека кодирования : VirtualDubMod build 2540/release
Видео
Идентификатор : 0
Формат : MPEG-4 Visual
Профиль формата : Advanced Simple@L5
Параметр BVOP формата : 1
Параметр QPel формата : Нет
Параметр GMC формата : Без точки перехода
Параметр матрицы формата : Default (MPEG)
Идентификатор кодека : XVID
Идентификатор кодека/Подсказка : XviD
Продолжительность : 1 ч. 33 м.
Битрейт : 1790 Кбит/сек
Ширина : 720 пикселей
Высота : 400 пикселей
Соотношение сторон : 16:9
Частота кадров : 23,976 (24000/1001) кадра/сек
Цветовое пространство : YUV
Субдискретизация насыщенности : 4:2:0
Битовая глубина : 8 бит
Тип развёртки : Прогрессивная
Метод сжатия : С потерями
Бит/(Пиксели*Кадры) : 0.259
Размер потока : 1,16 Гбайт (80%)
Библиотека кодирования : XviD 67
Аудио
Идентификатор : 1
Формат : AC-3
Формат/Информация : Audio Coding 3
Расширение режима : CM (complete main)
Параметр Endianness формата : Big
Идентификатор кодека : 2000
Продолжительность : 1 ч. 33 м.
Вид битрейта : Постоянный
Битрейт : 448 Кбит/сек
Каналы : 6 каналов
Расположение каналов : Front: L C R, Side: L R, LFE
Частота : 48,0 КГц
Частота кадров : 31,250 кадров/сек (1536 spf)
Метод сжатия : С потерями
Размер потока : 298 Мбайт (20%)
Выравнивание : Разделение по промежуткам
Продолжительность промежутка : 42 мс. (1,00 видеокадр)
Время предзагрузки промежутка : 500 мс.
Заголовок : RUS - AVO - Nemahov
Общее
Полное имя : B:\Män.som.hatar.kvinnor.2009.Extended.BDRip-ylnian\1_eng.srt
Размер файла : 55,2 Кбайт
Общее
Полное имя : B:\Män.som.hatar.kvinnor.2009.Extended.BDRip-ylnian\1_mvo_100TV.ac3
Формат : AC-3
Формат/Информация : Audio Coding 3
Размер файла : 128 Мбайт
Продолжительность : 1 ч. 33 м.
Режим общего битрейта : Постоянный
Общий поток : 192 Кбит/сек
Аудио
Формат : AC-3
Формат/Информация : Audio Coding 3
Расширение режима : CM (complete main)
Параметр Endianness формата : Big
Продолжительность : 1 ч. 33 м.
Вид битрейта : Постоянный
Битрейт : 192 Кбит/сек
Каналы : 2 канала
Расположение каналов : Front: L R
Частота : 48,0 КГц
Частота кадров : 31,250 кадров/сек (1536 spf)
Метод сжатия : С потерями
Размер потока : 128 Мбайт (100%)
Общее
Полное имя : B:\Män.som.hatar.kvinnor.2009.Extended.BDRip-ylnian\1_rus.srt
Формат : SubRip
Размер файла : 83,5 Кбайт
Текст
Формат : SubRip
Метод сжатия : Без потерь
Общее
Полное имя : B:\Män.som.hatar.kvinnor.2009.Extended.BDRip-ylnian\1_swe.ac3
Формат : AC-3
Формат/Информация : Audio Coding 3
Размер файла : 298 Мбайт
Продолжительность : 1 ч. 33 м.
Режим общего битрейта : Постоянный
Общий поток : 448 Кбит/сек
Аудио
Формат : AC-3
Формат/Информация : Audio Coding 3
Расширение режима : CM (complete main)
Параметр Endianness формата : Big
Продолжительность : 1 ч. 33 м.
Вид битрейта : Постоянный
Битрейт : 448 Кбит/сек
Каналы : 6 каналов
Расположение каналов : Front: L C R, Side: L R, LFE
Частота : 48,0 КГц
Частота кадров : 31,250 кадров/сек (1536 spf)
Метод сжатия : С потерями
Размер потока : 298 Мбайт (100%)
Общее
Полное имя : B:\Män.som.hatar.kvinnor.2009.Extended.BDRip-ylnian\2.avi
Формат : AVI
Формат/Информация : Audio Video Interleave
Размер файла : 1,46 Гбайт
Продолжительность : 1 ч. 33 м.
Общий поток : 2249 Кбит/сек
Программа кодирования : VirtualDubMod 1.5.10.2 (build 2540/release)
Библиотека кодирования : VirtualDubMod build 2540/release
Видео
Идентификатор : 0
Формат : MPEG-4 Visual
Профиль формата : Advanced Simple@L5
Параметр BVOP формата : 1
Параметр QPel формата : Нет
Параметр GMC формата : Без точки перехода
Параметр матрицы формата : Default (MPEG)
Идентификатор кодека : XVID
Идентификатор кодека/Подсказка : XviD
Продолжительность : 1 ч. 33 м.
Битрейт : 1792 Кбит/сек
Ширина : 720 пикселей
Высота : 400 пикселей
Соотношение сторон : 16:9
Частота кадров : 23,976 (24000/1001) кадра/сек
Цветовое пространство : YUV
Субдискретизация насыщенности : 4:2:0
Битовая глубина : 8 бит
Тип развёртки : Прогрессивная
Метод сжатия : С потерями
Бит/(Пиксели*Кадры) : 0.259
Размер потока : 1,16 Гбайт (80%)
Библиотека кодирования : XviD 67
Аудио
Идентификатор : 1
Формат : AC-3
Формат/Информация : Audio Coding 3
Расширение режима : CM (complete main)
Параметр Endianness формата : Big
Идентификатор кодека : 2000
Продолжительность : 1 ч. 33 м.
Вид битрейта : Постоянный
Битрейт : 448 Кбит/сек
Каналы : 6 каналов
Расположение каналов : Front: L C R, Side: L R, LFE
Частота : 48,0 КГц
Частота кадров : 31,250 кадров/сек (1536 spf)
Метод сжатия : С потерями
Размер потока : 298 Мбайт (20%)
Выравнивание : Разделение по промежуткам
Продолжительность промежутка : 42 мс. (1,00 видеокадр)
Время предзагрузки промежутка : 500 мс.
Заголовок : RUS - AVO - Nemahov
Общее
Полное имя : B:\Män.som.hatar.kvinnor.2009.Extended.BDRip-ylnian\2_eng.srt
Формат : SubRip
Размер файла : 51,4 Кбайт
Текст
Формат : SubRip
Метод сжатия : Без потерь
Общее
Полное имя : B:\Män.som.hatar.kvinnor.2009.Extended.BDRip-ylnian\2_mvo_100TV.ac3
Формат : AC-3
Формат/Информация : Audio Coding 3
Размер файла : 128 Мбайт
Продолжительность : 1 ч. 33 м.
Режим общего битрейта : Постоянный
Общий поток : 192 Кбит/сек
Аудио
Формат : AC-3
Формат/Информация : Audio Coding 3
Расширение режима : CM (complete main)
Параметр Endianness формата : Big
Продолжительность : 1 ч. 33 м.
Вид битрейта : Постоянный
Битрейт : 192 Кбит/сек
Каналы : 2 канала
Расположение каналов : Front: L R
Частота : 48,0 КГц
Частота кадров : 31,250 кадров/сек (1536 spf)
Метод сжатия : С потерями
Размер потока : 128 Мбайт (100%)
Общее
Полное имя : B:\Män.som.hatar.kvinnor.2009.Extended.BDRip-ylnian\2_rus.srt
Формат : SubRip
Размер файла : 75,9 Кбайт
Текст
Формат : SubRip
Метод сжатия : Без потерь
Общее
Полное имя : B:\Män.som.hatar.kvinnor.2009.Extended.BDRip-ylnian\2_swe.ac3
Формат : AC-3
Формат/Информация : Audio Coding 3
Размер файла : 298 Мбайт
Продолжительность : 1 ч. 33 м.
Режим общего битрейта : Постоянный
Общий поток : 448 Кбит/сек
Аудио
Формат : AC-3
Формат/Информация : Audio Coding 3
Расширение режима : CM (complete main)
Параметр Endianness формата : Big
Продолжительность : 1 ч. 33 м.
Вид битрейта : Постоянный
Битрейт : 448 Кбит/сек
Каналы : 6 каналов
Расположение каналов : Front: L C R, Side: L R, LFE
Частота : 48,0 КГц
Частота кадров : 31,250 кадров/сек (1536 spf)
Метод сжатия : С потерями
Размер потока : 298 Мбайт (100%)

Скриншоты

       
 

The time now is: Today 07:22

All times are GMT + 3 Hours