Today is a free download without charge Download

Search found 500 matches

Author Message

kilmister777

Post 25-May-2020 13:23

[Quote]

Проект «Анна Николаевна»- Год выпуска: 2020
Страна: Россия
Жанр: комедия, фантастика, драма
Продолжительность: 8 х ~ 00:50:00
Перевод: Не требуется- -Режиссер: Максим Пежемский-В ролях: Зоя Бербер, Антон Филипенко, Маруся Климова, Сергей Гармаш, Фёдор Лавров, Кузьма Сапрыкин, Антон Васильев, Никита Тарасов, Анна Котова, Ирина Розанова, Алексей Шильников, Дмитрий Поднозов, Юлия Ауг, Александра Сыдорук, Александр Ильин, Даниил Чибриков, Екатерина Ильина (III), Евгений Санников, Михаил Шеломенцев, Владимир Бирюков, Сергей Епишев, Виктор Цекало, Алиса Хазанова, Юлия Шубарева, Александр Баширов, Дмитрий Быковский-Ромашов, Игорь Хрипунов, Павел Деревянко, Михаил Пореченков, Ксения Каталымова, Борис Каморзин, Сергей Ланбамин, Никита Кологривый, Тимофей Трибунцев, Павел Ворожцов, Ольга Румянцева-Лобанова, Ринат Муталлапов...-Описание: Отечественные учёные создали андроида-полицейского. Идеальная во всех отношениях капитан Анна Николаевна Королькевич отправляется служить в провинциальный город, чтобы увидеть реальную жизнь и стать похожей на человека. Коллеги думают, что Анна Николаевна — дочь замминистра, и ничто не предвещает беды, пока очеловечивание не заходит слишком далеко.-Качество: WEBRip
Формат: AVI
Видео кодек: XviD
Аудио кодек: AC3
Видео: 720x304 (2.37:1), 24.000 fps, XviD build 73 ~1600 kbps avg, 0.30 bit/pixel
Аудио: 48 kHz, AC3 Dolby Digital, 2/0 (L,R) ch, ~192 kbps-

Скриншоты

       

}{@R0N

Post 24-May-2020 06:54

[Quote]

Kon912, В дальнейшем пользуйтесь прямой ссылкой и тегом imgs [imgs]***[/imgs]

Kon912

Post 23-May-2020 23:16

[Quote]

Филатов- Год выпуска: 2020
Производство: Медиаслово по заказу телеканала СТС
Жанр: комедия, мелодрама
Продолжительность: ~00:24:00 серия
Субтитры: нет-Режиссёр:
Максим Свешников-В ролях:
Фёдор Бондарчук, Олеся Судзиловская, Галина Польских, Эммануил Виторган, Мария Аронова, Максим Лагашкин, Егор Корешков, Пётр Романов, Марта Тимофеева, Алина Булынко, Александра Власова, Евгения Ярушникова, Кирилл Дубровицкий, Антонина Паперная, Екатерина Олькина, Полина Тузовская-Описание:
Доктора Филатова — первоклассного гинеколога, любимца женщин, но при этом верного семьянина — внезапно бросает жена. Пытаясь заполнить пустоту, возникшую с её уходом, Филатов начинает искать себе новую любовь. Но чем больше он узнаёт женщин, тем больше понимает, что его жена абсолютно идеальна и её во что бы то ни стало надо вернуть.-Качество: WEBRip 1080p - Getty
Формат: MKV
Видео кодек: H.264
Аудио кодек: AC3
Видео: MPEG4 AVC Video, H264, 16:9, 1920x1080, 25 fps, ~4900 kbps, 0.094 bit/pixel
Аудио: AC3 Dolby Digital, 48.0 kHz, 2/0 (L,R) ch, 192 kbps
Реклама: Нет.-

MI

General
Unique ID : 185269848802551968760743868939231897648 (0x8B61ACCA2F45C225BD7DC0B0FF3D2830)
Complete name : D:\Filatov.S01.2019.WEB-DL.(1080p).Getty\Filatov.s01e01.2019.WEB-DL.(1080p).Getty.mkv
Format : Matroska
Format version : Version 2
File size : 880 MiB
Duration : 23 min 46 s
Overall bit rate mode : Variable
Overall bit rate : 5 172 kb/s
Encoded date : UTC 2020-02-03 09:07:58
Writing application : mkvmerge v4.0.0 ('The Stars were mine') сборка от Jun 6 2010 16:18:42
Writing library : libebml v1.0.0 + libmatroska v1.0.0
Video
ID : 1
Format : AVC
Format/Info : Advanced Video Codec
Format profile : High@L4.1
Format settings : CABAC / 5 Ref Frames
Format settings, CABAC : Yes
Format settings, ReFrames : 5 frames
Codec ID : V_MPEG4/ISO/AVC
Duration : 23 min 46 s
Bit rate mode : Variable
Bit rate : 4 877 kb/s
Maximum bit rate : 40.0 Mb/s
Width : 1 920 pixels
Height : 1 080 pixels
Display aspect ratio : 16:9
Frame rate mode : Constant
Frame rate : 25.000 FPS
Standard : PAL
Color space : YUV
Chroma subsampling : 4:2:0
Bit depth : 8 bits
Scan type : Progressive
Bits/(Pixel*Frame) : 0.094
Stream size : 829 MiB (94%)
Language : Russian
Default : Yes
Forced : No
Color range : Limited
Color primaries : BT.709
Transfer characteristics : BT.709
Matrix coefficients : BT.709
Audio
ID : 2
Format : AC-3
Format/Info : Audio Coding 3
Codec ID : A_AC3
Duration : 23 min 46 s
Bit rate mode : Constant
Bit rate : 192 kb/s
Channel(s) : 2 channels
Channel positions : Front: L R
Sampling rate : 48.0 kHz
Frame rate : 31.250 FPS (1536 SPF)
Bit depth : 16 bits
Compression mode : Lossy
Stream size : 32.7 MiB (4%)
Language : Russian
Service kind : Complete Main
Default : Yes
Forced : No

Скриншоты


Kon912

Post 23-May-2020 23:15

[Quote]

Филатов- Год выпуска: 2020
Производство: Медиаслово по заказу телеканала СТС
Жанр: комедия, мелодрама
Продолжительность: ~00:24:00 серия
Субтитры: нет-Режиссёр:
Максим Свешников-В ролях:
Фёдор Бондарчук, Олеся Судзиловская, Галина Польских, Эммануил Виторган, Мария Аронова, Максим Лагашкин, Егор Корешков, Пётр Романов, Марта Тимофеева, Алина Булынко, Александра Власова, Евгения Ярушникова, Кирилл Дубровицкий, Антонина Паперная, Екатерина Олькина, Полина Тузовская-Описание:
Доктора Филатова — первоклассного гинеколога, любимца женщин, но при этом верного семьянина — внезапно бросает жена. Пытаясь заполнить пустоту, возникшую с её уходом, Филатов начинает искать себе новую любовь. Но чем больше он узнаёт женщин, тем больше понимает, что его жена абсолютно идеальна и её во что бы то ни стало надо вернуть.-Качество: WEBRip 720p - Getty
Формат: MKV
Видео кодек: H.264
Аудио кодек: AC3
Видео: MPEG4 AVC Video, H264, 16:9, 1280x720, 25 fps, ~3000 kbps, 0.130 bit/pixel
Аудио: AC3, 48.0 kHz, 2/0 (L,R) ch, 192 kbps
Реклама: Нет.-

MI

General
Unique ID : 202764340647431539481999219030830284026 (0x988AFDD4F46D305C87D86528BE36FCFA)
Complete name : D:\Filatov.S01.2019.WEB-DL.(720p).Getty\Filatov.s01e01.2019.WEB-DL.(720p).Getty.mkv
Format : Matroska
Format version : Version 4 / Version 2
File size : 541 MiB
Duration : 23 min 46 s
Overall bit rate : 3 178 kb/s
Movie name : Filatov.s01e01.2019.WEB-DL.(720p).Getty
Encoded date : UTC 2020-02-03 10:00:16
Writing application : mkvmerge v7.8.0 ('River Man') 32bit built on Mar 27 2015 16:18:02
Writing library : libebml v1.3.1 + libmatroska v1.4.2
Video
ID : 1
Format : AVC
Format/Info : Advanced Video Codec
Format profile : High@L4.1
Format settings : CABAC / 5 Ref Frames
Format settings, CABAC : Yes
Format settings, ReFrames : 5 frames
Codec ID : V_MPEG4/ISO/AVC
Duration : 23 min 46 s
Bit rate : 2 984 kb/s
Width : 1 280 pixels
Height : 720 pixels
Display aspect ratio : 16:9
Frame rate mode : Constant
Frame rate : 25.000 FPS
Standard : PAL
Color space : YUV
Chroma subsampling : 4:2:0
Bit depth : 8 bits
Scan type : Progressive
Bits/(Pixel*Frame) : 0.130
Stream size : 508 MiB (94%)
Default : Yes
Forced : No
Color range : Limited
Color primaries : BT.709
Transfer characteristics : BT.709
Matrix coefficients : BT.709
Audio
ID : 2
Format : AC-3
Format/Info : Audio Coding 3
Codec ID : A_AC3
Duration : 23 min 46 s
Bit rate mode : Constant
Bit rate : 192 kb/s
Channel(s) : 2 channels
Channel positions : Front: L R
Sampling rate : 48.0 kHz
Frame rate : 31.250 FPS (1536 SPF)
Bit depth : 16 bits
Compression mode : Lossy
Stream size : 32.7 MiB (6%)
Service kind : Complete Main
Default : Yes
Forced : No

Скриншоты


Kon912

Post 23-May-2020 23:15

[Quote]

Филатов- Год выпуска: 2020
Производство: Медиаслово по заказу телеканала СТС
Жанр: комедия, мелодрама
Продолжительность: ~00:24:00 серия
Субтитры: нет-Режиссёр:
Максим Свешников-В ролях:
Фёдор Бондарчук, Олеся Судзиловская, Галина Польских, Эммануил Виторган, Мария Аронова, Максим Лагашкин, Егор Корешков, Пётр Романов, Марта Тимофеева, Алина Булынко, Александра Власова, Евгения Ярушникова, Кирилл Дубровицкий, Антонина Паперная, Екатерина Олькина, Полина Тузовская-Описание:
Доктора Филатова — первоклассного гинеколога, любимца женщин, но при этом верного семьянина — внезапно бросает жена. Пытаясь заполнить пустоту, возникшую с её уходом, Филатов начинает искать себе новую любовь. Но чем больше он узнаёт женщин, тем больше понимает, что его жена абсолютно идеальна и её во что бы то ни стало надо вернуть.-Качество: WEBRip - 25Kuzmich
Формат: AVI
Видео кодек: XviD
Аудио кодек: AC3
Видео: 720x400 (1.80:1), 25 fps, XviD ~1550 kbps avg, 0.215 bit/pixel
Аудио: 48.0 kHz, AC3 Dolby Digital, 2/0 (L,R) ch, ~ 192 kbps
Реклама: Нет.-

MI

General
Complete name : D:\Filatov.S01.WEB-DLRip.25Kuzmich\Filatov.s01e01.WEB-DLRip.25Kuzmich.avi
Format : AVI
Format/Info : Audio Video Interleave
File size : 301 MiB
Duration : 23 min 46 s
Overall bit rate : 1 767 kb/s
Writing application : VirtualDubMod 1.5.10.3 | www.virtualdub-fr.org || (build 2550/release)
Writing library : VirtualDubMod build 2550/release
Video
ID : 0
Format : MPEG-4 Visual
Format profile : Advanced Simple@L5
Format settings : BVOP1
Format settings, BVOP : 1
Format settings, QPel : No
Format settings, GMC : No warppoints
Format settings, Matrix : Default (MPEG)
Codec ID : XVID
Codec ID/Hint : XviD
Duration : 23 min 46 s
Bit rate : 1 566 kb/s
Width : 720 pixels
Height : 400 pixels
Display aspect ratio : 16:9
Frame rate : 25.000 FPS
Color space : YUV
Chroma subsampling : 4:2:0
Bit depth : 8 bits
Scan type : Progressive
Compression mode : Lossy
Bits/(Pixel*Frame) : 0.217
Stream size : 266 MiB (89%)
Writing library : XviD 73
Audio
ID : 1
Format : AC-3
Format/Info : Audio Coding 3
Codec ID : 2000
Duration : 23 min 46 s
Bit rate mode : Constant
Bit rate : 192 kb/s
Channel(s) : 2 channels
Channel positions : Front: L R
Sampling rate : 48.0 kHz
Frame rate : 31.250 FPS (1536 SPF)
Bit depth : 16 bits
Compression mode : Lossy
Stream size : 32.7 MiB (11%)
Alignment : Split accross interleaves
Interleave, duration : 40 ms (1.00 video frame)
Interleave, preload duratio : 500 ms
Service kind : Complete Main

Скриншоты


Kon912

Post 23-May-2020 21:44

[Quote]

Три капитана- Год выпуска: 2019
Производство: «Киностудия КИТ», IKa film
Жанр: Детектив
Продолжительность: ~ 00:45:00
Субтитры: нет-Режиссёр: Илья Шеховцов-В ролях: Максим Щёголев, Иван Кокорин, Глеб Гервассиев, Николай Козак, Анатолий Кот, Олеся Фаттахова, Андрей Астраханцев, Екатерина Соломатина, Дмитрий Радонов, Кристина Кучеренко, Зепюр Брутян, Анна Бачалова, Денис Зайнуллин, Олег Руденко-Травин-Описание: Три капитана в отставке, три друга – Виктор Серёгин, Джокер и Александр Пехота – когда-то вместе воевали в горячих точках. Их бывший сослуживец, Иван Легостаев, был подрывником от бога. Однажды вместе с группой разведки Легостаев попал на территорию спрятанных в земле артиллерийских снарядов. Его тела тогда не нашли, думали, что он попал в плен. И только через полгода Серёгин случайно встретил Легостаева в горном ауле. Его было трудно узнать – борода, шапка, надвинутая на лоб, – но Серёгин узнал. Тогда он понял, что Легостаев сознательно переметнулся к террористам и, чтобы доказать преданность, привел своих на верную смерть... В результате штурма спецназом дома-убежища Легостаева, погибает его жена. Невольным виновником её смерти оказывается Серёгин.
Проходит 10 лет. Серёгин, Джокер и Пехота оставляют работу в отряде взрывотехников МВД России, но прошлое снова напоминает о себе. Легостаеву удается сбежать с пожизненного заключения. И он начинает мстить Серёгину, убивая одного за другим его сослуживцев. Жизнь троих капитанов, их родных, да и просто рядовых граждан снова находится под угрозой. Справятся ли они с минами, которые подбрасывает им судьба? Успеют ли спастись и спасти своих близких?-Качество: WEBRip 1080p - ExKinoRay
Формат: MKV
Видео кодек: H.264
Аудио кодек: AC3
Видео: MPEG4 AVC Video, H264, 1920x1080, 25 fps, ~6000 kbps, 0.116 bit/pixel
Аудио: AC3 Dolby Digital, 48.0 kHz, 2/0 (L,R) ch, 192 kbps
Реклама: Нет.-

MI

General
Unique ID : 181696302468724870550761516729085977176 (0x88B16F5A40AC0870A4DC2B155847E258)
Complete name : D:\Tri.Kapitana.2019.WEB-DL.(1080p).ExKinoRay\Tri.Kapitana.E01.2019.WEB-DL.(1080p).ExKinoRay.mkv
Format : Matroska
Format version : Version 4 / Version 2
File size : 1.96 GiB
Duration : 45 min 35 s
Overall bit rate mode : Constant
Overall bit rate : 6 170 kb/s
Encoded date : UTC 2020-03-30 19:13:32
Writing application : mkvmerge v6.9.1 ('Blue Panther') 64bit built on Apr 18 2014 18:23:38
Writing library : libebml v1.3.0 + libmatroska v1.4.1
Video
ID : 1
Format : AVC
Format/Info : Advanced Video Codec
Format profile : High@L4.1
Format settings : 2 Ref Frames
Format settings, CABAC : No
Format settings, ReFrames : 2 frames
Codec ID : V_MPEG4/ISO/AVC
Duration : 45 min 35 s
Bit rate mode : Constant
Bit rate : 6 000 kb/s
Width : 1 920 pixels
Height : 1 080 pixels
Display aspect ratio : 16:9
Frame rate mode : Constant
Frame rate : 25.000 FPS
Standard : PAL
Color space : YUV
Chroma subsampling : 4:2:0
Bit depth : 8 bits
Scan type : Progressive
Bits/(Pixel*Frame) : 0.116
Stream size : 1.86 GiB (95%)
Default : Yes
Forced : No
Color range : Limited
Color primaries : BT.709
Transfer characteristics : BT.709
Matrix coefficients : BT.709
Audio
ID : 2
Format : AC-3
Format/Info : Audio Coding 3
Codec ID : A_AC3
Duration : 45 min 35 s
Bit rate mode : Constant
Bit rate : 192 kb/s
Channel(s) : 2 channels
Channel positions : Front: L R
Sampling rate : 48.0 kHz
Frame rate : 31.250 FPS (1536 SPF)
Bit depth : 16 bits
Compression mode : Lossy
Stream size : 62.6 MiB (3%)
Language : Russian
Service kind : Complete Main
Default : Yes
Forced : No

Скриншоты


Kon912

Post 23-May-2020 21:43

[Quote]

Три капитана- Год выпуска: 2019
Производство: «Киностудия КИТ», IKa film
Жанр: Детектив
Продолжительность: ~ 00:45:00
Субтитры: нет-Режиссёр: Илья Шеховцов-В ролях: Максим Щёголев, Иван Кокорин, Глеб Гервассиев, Николай Козак, Анатолий Кот, Олеся Фаттахова, Андрей Астраханцев, Екатерина Соломатина, Дмитрий Радонов, Кристина Кучеренко, Зепюр Брутян, Анна Бачалова, Денис Зайнуллин, Олег Руденко-Травин-Описание: Три капитана в отставке, три друга – Виктор Серёгин, Джокер и Александр Пехота – когда-то вместе воевали в горячих точках. Их бывший сослуживец, Иван Легостаев, был подрывником от бога. Однажды вместе с группой разведки Легостаев попал на территорию спрятанных в земле артиллерийских снарядов. Его тела тогда не нашли, думали, что он попал в плен. И только через полгода Серёгин случайно встретил Легостаева в горном ауле. Его было трудно узнать – борода, шапка, надвинутая на лоб, – но Серёгин узнал. Тогда он понял, что Легостаев сознательно переметнулся к террористам и, чтобы доказать преданность, привел своих на верную смерть... В результате штурма спецназом дома-убежища Легостаева, погибает его жена. Невольным виновником её смерти оказывается Серёгин.
Проходит 10 лет. Серёгин, Джокер и Пехота оставляют работу в отряде взрывотехников МВД России, но прошлое снова напоминает о себе. Легостаеву удается сбежать с пожизненного заключения. И он начинает мстить Серёгину, убивая одного за другим его сослуживцев. Жизнь троих капитанов, их родных, да и просто рядовых граждан снова находится под угрозой. Справятся ли они с минами, которые подбрасывает им судьба? Успеют ли спастись и спасти своих близких?-Качество: WEBRip 720p - ExKinoRay
Формат: MKV
Видео кодек: H.264
Аудио кодек: AC3
Видео: MPEG4 AVC Video, H264, 1280x538, 25 fps, ~3500 kbps, 0.203 bit/pixel
Аудио: AC3 Dolby Digital, 48.0 kHz, 2/0 (L,R) ch, 192 kbps
Реклама: Нет.-

MI

General
Unique ID : 183184322126467330337241296961015454914 (0x89D00462CCBA632F961E1D9A76991CC2)
Complete name : D:\Tri.Kapitana.2019.WEB-DLRip.(720p).ExKinoRay\Tri.Kapitana.E01.2019.WEB-DLRip.(720p).ExKinoRay.mkv
Format : Matroska
Format version : Version 2
File size : 1.18 GiB
Duration : 45 min 35 s
Overall bit rate : 3 691 kb/s
Encoded date : UTC 2020-03-30 20:39:10
Writing application : mkvmerge v7.8.0 ('River Man') 32bit built on Apr 3 2015 12:11:22
Writing library : libebml v1.3.1 + libmatroska v1.4.2
Video
ID : 1
Format : AVC
Format/Info : Advanced Video Codec
Format profile : High@L4.1
Format settings : CABAC / 9 Ref Frames
Format settings, CABAC : Yes
Format settings, ReFrames : 9 frames
Codec ID : V_MPEG4/ISO/AVC
Duration : 45 min 35 s
Bit rate : 3 500 kb/s
Width : 1 280 pixels
Height : 538 pixels
Display aspect ratio : 2.40:1
Frame rate mode : Constant
Frame rate : 25.000 FPS
Color space : YUV
Chroma subsampling : 4:2:0
Bit depth : 8 bits
Scan type : Progressive
Bits/(Pixel*Frame) : 0.203
Stream size : 1.09 GiB (93%)
Writing library : x264 core 146 r2538 121396c
Encoding settings : cabac=1 / ref=9 / deblock=1:-3:-3 / analyse=0x3:0x113 / me=umh / subme=11 / psy=1 / psy_rd=1.00:0.20 / mixed_ref=1 / me_range=32 / chroma_me=1 / trellis=2 / 8x8dct=1 / cqm=0 / deadzone=21,11 / fast_pskip=1 / chroma_qp_offset=-3 / threads=24 / lookahead_threads=8 / sliced_threads=0 / nr=0 / decimate=0 / interlaced=0 / bluray_compat=0 / constrained_intra=0 / bframes=10 / b_pyramid=2 / b_adapt=2 / b_bias=0 / direct=3 / weightb=1 / open_gop=0 / weightp=2 / keyint=250 / keyint_min=25 / scenecut=40 / intra_refresh=0 / rc_lookahead=60 / rc=2pass / mbtree=1 / bitrate=3500 / ratetol=1.0 / qcomp=0.60 / qpmin=0 / qpmax=69 / qpstep=4 / cplxblur=20.0 / qblur=0.5 / vbv_maxrate=14000 / vbv_bufsize=14000 / nal_hrd=none / filler=0 / ip_ratio=1.40 / aq=3:1.40
Default : Yes
Forced : No
Color range : Limited
Color primaries : BT.709
Transfer characteristics : BT.709
Matrix coefficients : BT.709
Audio
ID : 2
Format : AC-3
Format/Info : Audio Coding 3
Codec ID : A_AC3
Duration : 45 min 35 s
Bit rate mode : Constant
Bit rate : 192 kb/s
Channel(s) : 2 channels
Channel positions : Front: L R
Sampling rate : 48.0 kHz
Frame rate : 31.250 FPS (1536 SPF)
Bit depth : 16 bits
Compression mode : Lossy
Stream size : 62.6 MiB (5%)
Service kind : Complete Main
Default : Yes
Forced : No

Скриншоты


Kon912

Post 23-May-2020 21:43

[Quote]

Три капитана- Год выпуска: 2019
Производство: «Киностудия КИТ», IKa film
Жанр: Детектив
Продолжительность: ~ 00:45:00
Субтитры: нет-Режиссёр: Илья Шеховцов-В ролях: Максим Щёголев, Иван Кокорин, Глеб Гервассиев, Николай Козак, Анатолий Кот, Олеся Фаттахова, Андрей Астраханцев, Екатерина Соломатина, Дмитрий Радонов, Кристина Кучеренко, Зепюр Брутян, Анна Бачалова, Денис Зайнуллин, Олег Руденко-Травин-Описание: Три капитана в отставке, три друга – Виктор Серёгин, Джокер и Александр Пехота – когда-то вместе воевали в горячих точках. Их бывший сослуживец, Иван Легостаев, был подрывником от бога. Однажды вместе с группой разведки Легостаев попал на территорию спрятанных в земле артиллерийских снарядов. Его тела тогда не нашли, думали, что он попал в плен. И только через полгода Серёгин случайно встретил Легостаева в горном ауле. Его было трудно узнать – борода, шапка, надвинутая на лоб, – но Серёгин узнал. Тогда он понял, что Легостаев сознательно переметнулся к террористам и, чтобы доказать преданность, привел своих на верную смерть... В результате штурма спецназом дома-убежища Легостаева, погибает его жена. Невольным виновником её смерти оказывается Серёгин.
Проходит 10 лет. Серёгин, Джокер и Пехота оставляют работу в отряде взрывотехников МВД России, но прошлое снова напоминает о себе. Легостаеву удается сбежать с пожизненного заключения. И он начинает мстить Серёгину, убивая одного за другим его сослуживцев. Жизнь троих капитанов, их родных, да и просто рядовых граждан снова находится под угрозой. Справятся ли они с минами, которые подбрасывает им судьба? Успеют ли спастись и спасти своих близких?-Качество: WEBRip
Формат: AVI
Видео кодек: XviD
Аудио кодек: AC3
Видео: XviD, 720x304 (2,35:1), 25,000 кадров/сек, ~ 1600 Кбит/сек
Аудио: AC3, 48,0 kHz, 2 ch, 192 Кбит/сек
Реклама: Нет--

MI

Общее
Полное имя : E:\TV Series\Три капитана.(2019).WEBRip.Files-x\01.Три капитана.(2019).WEBRip.Files-x.avi
Формат : AVI
Формат/Информация : Audio Video Interleave
Размер файла : 587 Мбайт
Продолжительность : 45 м. 35 с.
Общий поток : 1800 Кбит/сек
Программа кодирования : VirtualDubMod 1.5.10.3 | www.virtualdub-fr.org || (build 2550/release)
Библиотека кодирования : VirtualDubMod build 2550/release
Видео
Идентификатор : 0
Формат : MPEG-4 Visual
Профиль формата : Advanced Simple@L5
Настройки формата : BVOP1 / Custom Matrix
Параметр BVOP формата : 1
Параметр QPel формата : Нет
Параметр GMC формата : Без точки перехода
Параметр матрицы формата : Выборочная
Идентификатор кодека : XVID
Идентификатор кодека/Подсказка : XviD
Продолжительность : 45 м. 35 с.
Битрейт : 1599 Кбит/сек
Ширина : 720 пикселей
Высота : 304 пикселя
Соотношение сторон : 2,35:1
Частота кадров : 25,000 кадров/сек
Цветовое пространство : YUV
Субдискретизация насыщенности : 4:2:0
Битовая глубина : 8 бит
Тип развёртки : Прогрессивная
Метод сжатия : С потерями
Бит/(Пиксели*Кадры) : 0.292
Размер потока : 521 Мбайт (89%)
Библиотека кодирования : XviD 73
Аудио
Идентификатор : 1
Формат : AC-3
Формат/Информация : Audio Coding 3
Коммерческое название : Dolby Digital
Идентификатор кодека : 2000
Продолжительность : 45 м. 35 с.
Вид битрейта : Постоянный
Битрейт : 192 Кбит/сек
Каналы : 2 канала
ChannelLayout : L R
Частота : 48,0 КГц
Частота кадров : 31,250 кадров/сек (1536 SPF)
Метод сжатия : С потерями
Размер потока : 62,6 Мбайт (11%)
Выравнивание : Разделение по промежуткам
Продолжительность промежутка : 40 мс. (1,00 видеокадр)
Время предзагрузки промежутка : 500 мс.
ServiceKind/String : Complete Main
-

Скриншоты

-

Kon912

Post 23-May-2020 21:41

[Quote]

Корни- Год выпуска: 2020
Производство: «АМИК» («КВН Продакшн») по заказу телеканала СТС
Жанр: комедия
Продолжительность: ~00:25:00 серия
Субтитры: нет-Режиссёр:
Марк Горобец-В ролях:
Марк Богатырёв, Елена Валюшкина, Анна Уколова, Наталья Скоморохова, Ренат Мухамбаев, Юлия Сулес, Сергей Чирков, Владимир Сычёв, Тимур Родригез, Александра Кузенкина, Сергей Бачурский, Никита Богатов, Антон Лапенко, Виктор Низовой, Данила Якушев, Ксения Корнева, Сергей Белов-Описание:
Столичному топ-менеджеру Диме Королёву приходится вернуться в родной Залещинск спустя десять лет, чтобы выкупить местный ДК для строительства торгового центра. Но на пути к бизнес-проекту встанет его бывшая девушка Алёна и по совместительству директор ДК, а также приставучие родственники, которые напомнят амбициозному парню о его корнях.-Реклама: Нет.-Качество: WEBRip 1080p - Getty
Формат: MKV
Видео кодек: H.264
Аудио кодек: AC3
Видео: MPEG4 AVC Video, H264, 16:9, 1920x1080, 25 fps, ~4900 kbps, 0.094 bit/pixel
Аудио: AC3 Dolby Digital, 48.0 kHz, 2/0 (L,R) ch, 192 kbps-Sample-

MI

General
Unique ID : 219083755128033736902723103453954881597 (0xA4D1FF163B7876ECA4C41A80F42EB83D)
Complete name : D:\Korni.S01.2020.WEB-DL.(1080p).Getty\Korni.s01e01.2020.WEB-DL.(1080p).Getty.mkv
Format : Matroska
Format version : Version 2
File size : 933 MiB
Duration : 25 min 12 s
Overall bit rate mode : Variable
Overall bit rate : 5 173 kb/s
Encoded date : UTC 2020-03-02 12:48:25
Writing application : mkvmerge v4.0.0 ('The Stars were mine') сборка от Jun 6 2010 16:18:42
Writing library : libebml v1.0.0 + libmatroska v1.0.0
Video
ID : 1
Format : AVC
Format/Info : Advanced Video Codec
Format profile : High@L4.1
Format settings : CABAC / 5 Ref Frames
Format settings, CABAC : Yes
Format settings, ReFrames : 5 frames
Codec ID : V_MPEG4/ISO/AVC
Duration : 25 min 12 s
Bit rate mode : Variable
Bit rate : 4 878 kb/s
Maximum bit rate : 40.0 Mb/s
Width : 1 920 pixels
Height : 1 080 pixels
Display aspect ratio : 16:9
Frame rate mode : Constant
Frame rate : 25.000 FPS
Standard : PAL
Color space : YUV
Chroma subsampling : 4:2:0
Bit depth : 8 bits
Scan type : Progressive
Bits/(Pixel*Frame) : 0.094
Stream size : 880 MiB (94%)
Language : Russian
Default : Yes
Forced : No
Color range : Limited
Color primaries : BT.709
Transfer characteristics : BT.709
Matrix coefficients : BT.709
Audio
ID : 2
Format : AC-3
Format/Info : Audio Coding 3
Codec ID : A_AC3
Duration : 25 min 12 s
Bit rate mode : Constant
Bit rate : 192 kb/s
Channel(s) : 2 channels
Channel positions : Front: L R
Sampling rate : 48.0 kHz
Frame rate : 31.250 FPS (1536 SPF)
Bit depth : 16 bits
Compression mode : Lossy
Stream size : 34.6 MiB (4%)
Language : Russian
Service kind : Complete Main
Default : Yes
Forced : No

Скриншоты


Kon912

Post 23-May-2020 21:40

[Quote]

Корни- Год выпуска: 2020
Производство: «АМИК» («КВН Продакшн») по заказу телеканала СТС
Жанр: комедия
Продолжительность: ~00:25:00 серия
Субтитры: нет-Режиссёр:
Марк Горобец-В ролях:
Марк Богатырёв, Елена Валюшкина, Анна Уколова, Наталья Скоморохова, Ренат Мухамбаев, Юлия Сулес, Сергей Чирков, Владимир Сычёв, Тимур Родригез, Александра Кузенкина, Сергей Бачурский, Никита Богатов, Антон Лапенко, Виктор Низовой, Данила Якушев, Ксения Корнева, Сергей Белов-Описание:
Столичному топ-менеджеру Диме Королёву приходится вернуться в родной Залещинск спустя десять лет, чтобы выкупить местный ДК для строительства торгового центра. Но на пути к бизнес-проекту встанет его бывшая девушка Алёна и по совместительству директор ДК, а также приставучие родственники, которые напомнят амбициозному парню о его корнях.-Реклама: Нет.-Качество: WEBRip 720p - Getty
Формат: MKV
Видео кодек: H.264
Аудио кодек: AC3
Видео: MPEG4 AVC Video, H264, 16:9, 1280x720, 25 fps, ~3000 kbps, 0.129 bit/pixel
Аудио: AC3, 48.0 kHz, 2/0 (L,R) ch, 192 kbps-Sample-

MI

General
Unique ID : 253733388217606187710822525908047037207 (0xBEE345E506B2A9479AD31C5F3BEB0317)
Complete name : D:\Korni.S01.2020.WEB-DL.(720p).Getty\Korni.s01e01.2020.WEB-DL.(720p).Getty.mkv
Format : Matroska
Format version : Version 4 / Version 2
File size : 573 MiB
Duration : 25 min 12 s
Overall bit rate : 3 177 kb/s
Movie name : Korni.s01e01.2020.WEB-DL.(720p).Getty
Encoded date : UTC 2020-03-02 12:51:24
Writing application : mkvmerge v7.8.0 ('River Man') 32bit built on Mar 27 2015 16:18:02
Writing library : libebml v1.3.1 + libmatroska v1.4.2
Video
ID : 1
Format : AVC
Format/Info : Advanced Video Codec
Format profile : High@L4.1
Format settings : CABAC / 5 Ref Frames
Format settings, CABAC : Yes
Format settings, ReFrames : 5 frames
Codec ID : V_MPEG4/ISO/AVC
Duration : 25 min 12 s
Bit rate : 2 983 kb/s
Width : 1 280 pixels
Height : 720 pixels
Display aspect ratio : 16:9
Frame rate mode : Constant
Frame rate : 25.000 FPS
Standard : PAL
Color space : YUV
Chroma subsampling : 4:2:0
Bit depth : 8 bits
Scan type : Progressive
Bits/(Pixel*Frame) : 0.129
Stream size : 538 MiB (94%)
Default : Yes
Forced : No
Color range : Limited
Color primaries : BT.709
Transfer characteristics : BT.709
Matrix coefficients : BT.709
Audio
ID : 2
Format : AC-3
Format/Info : Audio Coding 3
Codec ID : A_AC3
Duration : 25 min 12 s
Bit rate mode : Constant
Bit rate : 192 kb/s
Channel(s) : 2 channels
Channel positions : Front: L R
Sampling rate : 48.0 kHz
Frame rate : 31.250 FPS (1536 SPF)
Bit depth : 16 bits
Compression mode : Lossy
Stream size : 34.6 MiB (6%)
Service kind : Complete Main
Default : Yes
Forced : No

Скриншоты


Kon912

Post 23-May-2020 21:40

[Quote]

Корни- Год выпуска: 2020
Производство: «АМИК» («КВН Продакшн») по заказу телеканала СТС
Жанр: комедия
Продолжительность: ~00:25:00 серия
Субтитры: нет-Режиссёр:
Марк Горобец-В ролях:
Марк Богатырёв, Елена Валюшкина, Анна Уколова, Наталья Скоморохова, Ренат Мухамбаев, Юлия Сулес, Сергей Чирков, Владимир Сычёв, Тимур Родригез, Александра Кузенкина, Сергей Бачурский, Никита Богатов, Антон Лапенко, Виктор Низовой, Данила Якушев, Ксения Корнева, Сергей Белов-Описание:
Столичному топ-менеджеру Диме Королёву приходится вернуться в родной Залещинск спустя десять лет, чтобы выкупить местный ДК для строительства торгового центра. Но на пути к бизнес-проекту встанет его бывшая девушка Алёна и по совместительству директор ДК, а также приставучие родственники, которые напомнят амбициозному парню о его корнях.-Реклама: Нет.-Качество: WEBRip - 25Kuzmich
Формат: AVI
Видео кодек: XviD
Аудио кодек: AC3
Видео: 720x400 (1.80:1), 25 fps, XviD ~1750 kbps avg, 0.242 bit/pixel
Аудио: 48.0 kHz, AC3 Dolby Digital, 2/0 (L,R) ch, ~ 192 kbps-Sample-

MI

General
Complete name : D:\Korni.S01.WEB-DLRip.25Kuzmich\Korni.s01e01.WEB-DLRip.25Kuzmich.avi
Format : AVI
Format/Info : Audio Video Interleave
File size : 351 MiB
Duration : 25 min 12 s
Overall bit rate : 1 944 kb/s
Writing application : VirtualDubMod 1.5.10.3 | www.virtualdub-fr.org || (build 2550/release)
Writing library : VirtualDubMod build 2550/release
Video
ID : 0
Format : MPEG-4 Visual
Format profile : Advanced Simple@L5
Format settings : BVOP1
Format settings, BVOP : 1
Format settings, QPel : No
Format settings, GMC : No warppoints
Format settings, Matrix : Default (MPEG)
Codec ID : XVID
Codec ID/Hint : XviD
Duration : 25 min 12 s
Bit rate : 1 742 kb/s
Width : 720 pixels
Height : 400 pixels
Display aspect ratio : 16:9
Frame rate : 25.000 FPS
Color space : YUV
Chroma subsampling : 4:2:0
Bit depth : 8 bits
Scan type : Progressive
Compression mode : Lossy
Bits/(Pixel*Frame) : 0.242
Stream size : 314 MiB (90%)
Writing library : XviD 73
Audio
ID : 1
Format : AC-3
Format/Info : Audio Coding 3
Codec ID : 2000
Duration : 25 min 12 s
Bit rate mode : Constant
Bit rate : 192 kb/s
Channel(s) : 2 channels
Channel positions : Front: L R
Sampling rate : 48.0 kHz
Frame rate : 31.250 FPS (1536 SPF)
Bit depth : 16 bits
Compression mode : Lossy
Stream size : 34.6 MiB (10%)
Alignment : Split accross interleaves
Interleave, duration : 40 ms (1.00 video frame)
Interleave, preload duratio : 500 ms
Service kind : Complete Main

Скриншоты


Kon912

Post 23-May-2020 18:07

[Quote]

Секта- Год выпуска: 2019
Производство: Good Story Media по заказу телеканала ТНТ
Жанр: драма, триллер
Продолжительность: ~00:45:00 серия
Субтитры: нет-Режиссёр:
Гела Баблуани
В ролях:
Светлана Ходченкова, Анастасия Чистякова, Филипп Янковский, Евгений Коряковский, Гела Баблуани, Андрей Филиппак, Вера Романова, Павел Кузьмин, Григорий Сиятвинда, Марта Тимофеева, Екатерина Волкова-Описание:
Специалисты по выводу людей из культов, депрограммеры, получают заказ на освобождение девушки Ники — экс-модели, звезды рекламных роликов из секты «Первозданных». Методы депрограммеров крайне жесткие — на грани психологического и даже физического насилия. Для ухода за Никой депрограммеры нанимают сиделку Лилю. Но все идет не по плану, когда могущественный лидер секты объявляет настоящую войну депрограммерам и готов на все, чтобы вернуть Нику.-Реклама: Нет.-Качество: WEBRip 1080p - Getty
Формат: MKV
Видео кодек: H.264
Аудио кодек: AC3
Видео: MPEG4 AVC Video, H264, 16:9, 1920x1080, 25 fps, ~5000 kbps, 0.096 bit/pixel
Аудио: AC3 Dolby Digital, 48.0 kHz, 2/0 (L,R) ch, 192 kbps-Sample

MI

General
Unique ID : 177847074851738546322139918154598717895 (0x85CC19C755D14119B7D28A2D358419C7)
Complete name : H:\Sekta.2019.WEB-DL.(1080p).Getty\Sekta.e01.2019.WEB-DL.(1080p).Getty.mkv
Format : Matroska
Format version : Version 4 / Version 2
File size : 1.59 GiB
Duration : 44 min 6 s
Overall bit rate mode : Constant
Overall bit rate : 5 146 kb/s
Movie name : Sekta.e01.2019.WEB-DL.(1080p).Getty
Encoded date : UTC 2019-05-22 21:04:37
Writing application : mkvmerge v7.8.0 ('River Man') 32bit built on Mar 27 2015 16:18:02
Writing library : libebml v1.3.1 + libmatroska v1.4.2
Video
ID : 1
Format : AVC
Format/Info : Advanced Video Codec
Format profile : Baseline@L4
Format settings : 4 Ref Frames
Format settings, CABAC : No
Format settings, ReFrames : 4 frames
Codec ID : V_MPEG4/ISO/AVC
Duration : 44 min 6 s
Bit rate mode : Constant
Bit rate : 5 000 kb/s
Width : 1 920 pixels
Height : 1 080 pixels
Display aspect ratio : 16:9
Frame rate mode : Constant
Frame rate : 25.000 FPS
Standard : PAL
Color space : YUV
Chroma subsampling : 4:2:0
Bit depth : 8 bits
Scan type : Progressive
Bits/(Pixel*Frame) : 0.096
Stream size : 1.53 GiB (96%)
Default : Yes
Forced : No
Color range : Limited
Color primaries : BT.709
Transfer characteristics : BT.709
Matrix coefficients : BT.709
Audio
ID : 2
Format : AC-3
Format/Info : Audio Coding 3
Codec ID : A_AC3
Duration : 44 min 6 s
Bit rate mode : Constant
Bit rate : 192 kb/s
Channel(s) : 2 channels
Channel positions : Front: L R
Sampling rate : 48.0 kHz
Frame rate : 31.250 FPS (1536 SPF)
Bit depth : 16 bits
Compression mode : Lossy
Stream size : 60.6 MiB (4%)
Service kind : Complete Main
Default : Yes
Forced : No

Скриншоты


Kon912

Post 23-May-2020 18:06

[Quote]

Секта- Год выпуска: 2019
Производство: Good Story Media по заказу телеканала ТНТ
Жанр: драма, триллер
Продолжительность: ~00:45:00 серия
Субтитры: нет-Режиссёр:
Гела Баблуани-В ролях: Светлана Ходченкова, Анастасия Чистякова, Филипп Янковский, Евгений Коряковский, Гела Баблуани, Андрей Филиппак, Вера Романова, Павел Кузьмин, Григорий Сиятвинда, Марта Тимофеева, Екатерина Волкова-Описание:
Специалисты по выводу людей из культов, депрограммеры, получают заказ на освобождение девушки Ники — экс-модели, звезды рекламных роликов из секты «Первозданных». Методы депрограммеров крайне жесткие — на грани психологического и даже физического насилия. Для ухода за Никой депрограммеры нанимают сиделку Лилю. Но все идет не по плану, когда могущественный лидер секты объявляет настоящую войну депрограммерам и готов на все, чтобы вернуть Нику.-Реклама: Нет.-Качество: WEBRip 720p - ExKinoRay
Формат: MKV
Видео кодек: H.264
Аудио кодек: AC3
Видео: MPEG4 AVC Video, H264, 16:9 1280x720, 25 fps, ~2600 kbps, 0.113 bit/pixel
Аудио: AC3, 48.0 kHz, 2/0 (L,R) ch, 192 kbps-Sample

MI

General
Unique ID : 192010718893973480152555099140970124844 (0x9073EB584D28301696CEC26CCD06162C)
Complete name : H:\Sekta.(2019).WEB-DL.720p.ExKinoRay\Sekta.e01.(2019).WEB-DL.720p.ExKinoRay.mkv
Format : Matroska
Format version : Version 2
File size : 873 MiB
Duration : 44 min 6 s
Overall bit rate mode : Constant
Overall bit rate : 2 767 kb/s
Encoded date : UTC 2019-05-22 12:44:18
Writing application : mkvmerge v5.8.0 ('No Sleep / Pillow') built on Sep 2 2012 15:37:04
Writing library : libebml v1.2.3 + libmatroska v1.3.0
Video
ID : 1
Format : AVC
Format/Info : Advanced Video Codec
Format profile : Baseline@L4
Format settings : 4 Ref Frames
Format settings, CABAC : No
Format settings, ReFrames : 4 frames
Codec ID : V_MPEG4/ISO/AVC
Duration : 44 min 6 s
Bit rate mode : Constant
Bit rate : 2 600 kb/s
Width : 1 280 pixels
Height : 720 pixels
Display aspect ratio : 16:9
Frame rate mode : Constant
Frame rate : 25.000 FPS
Standard : PAL
Color space : YUV
Chroma subsampling : 4:2:0
Bit depth : 8 bits
Scan type : Progressive
Bits/(Pixel*Frame) : 0.113
Stream size : 795 MiB (91%)
Language : Russian
Default : Yes
Forced : No
Color range : Limited
Color primaries : BT.709
Transfer characteristics : BT.709
Matrix coefficients : BT.709
Audio
ID : 2
Format : AC-3
Format/Info : Audio Coding 3
Codec ID : A_AC3
Duration : 44 min 6 s
Bit rate mode : Constant
Bit rate : 192 kb/s
Channel(s) : 2 channels
Channel positions : Front: L R
Sampling rate : 48.0 kHz
Frame rate : 31.250 FPS (1536 SPF)
Bit depth : 16 bits
Compression mode : Lossy
Stream size : 60.6 MiB (7%)
Language : Russian
Service kind : Complete Main
Default : Yes
Forced : No

Скриншоты


Kon912

Post 23-May-2020 18:05

[Quote]

Секта- Год выпуска: 2019
Производство: Good Story Media по заказу телеканала ТНТ
Жанр: драма, триллер
Продолжительность: ~00:45:00 серия
Субтитры: нет-Режиссёр:
Гела Баблуани-В ролях:
Светлана Ходченкова, Анастасия Чистякова, Филипп Янковский, Евгений Коряковский, Гела Баблуани, Андрей Филиппак, Вера Романова, Павел Кузьмин, Григорий Сиятвинда, Марта Тимофеева, Екатерина Волкова-Описание: Специалисты по выводу людей из культов, депрограммеры, получают заказ на освобождение девушки Ники — экс-модели, звезды рекламных роликов из секты «Первозданных». Методы депрограммеров крайне жесткие — на грани психологического и даже физического насилия. Для ухода за Никой депрограммеры нанимают сиделку Лилю. Но все идет не по плану, когда могущественный лидер секты объявляет настоящую войну депрограммерам и готов на все, чтобы вернуть Нику.-Реклама: Нет.-Качество: WEBRip - 25Kuzmich
Формат: AVI
Видео кодек: XviD
Аудио кодек: AC3
Видео: 720x400 (1.80:1), 25 fps, XviD ~1700 kbps avg, 0.236 bit/pixel
Аудио: 48.0 kHz, AC3 Dolby Digital, 2/0 (L,R) ch, ~ 192 kbps-Sample-

MI

General
Complete name : H:\Sekta.2019.WEB-DLRip.25Kuzmich\Sekta.S01E01.WEB-DLRip.25Kuzmich.avi
Format : AVI
Format/Info : Audio Video Interleave
File size : 599 MiB
Duration : 44 min 6 s
Overall bit rate : 1 901 kb/s
Writing application : VirtualDubMod 1.5.10.3 | www.virtualdub-fr.org || (build 2550/release)
Writing library : VirtualDubMod build 2550/release
Video
ID : 0
Format : MPEG-4 Visual
Format profile : Advanced Simple@L5
Format settings : BVOP1
Format settings, BVOP : 1
Format settings, QPel : No
Format settings, GMC : No warppoints
Format settings, Matrix : Default (MPEG)
Codec ID : XVID
Codec ID/Hint : XviD
Duration : 44 min 6 s
Bit rate : 1 699 kb/s
Width : 720 pixels
Height : 400 pixels
Display aspect ratio : 16:9
Frame rate : 25.000 FPS
Color space : YUV
Chroma subsampling : 4:2:0
Bit depth : 8 bits
Scan type : Progressive
Compression mode : Lossy
Bits/(Pixel*Frame) : 0.236
Stream size : 536 MiB (89%)
Writing library : XviD 73
Audio
ID : 1
Format : AC-3
Format/Info : Audio Coding 3
Codec ID : 2000
Duration : 44 min 6 s
Bit rate mode : Constant
Bit rate : 192 kb/s
Channel(s) : 2 channels
Channel positions : Front: L R
Sampling rate : 48.0 kHz
Frame rate : 31.250 FPS (1536 SPF)
Bit depth : 16 bits
Compression mode : Lossy
Stream size : 60.6 MiB (10%)
Alignment : Split accross interleaves
Interleave, duration : 40 ms (1.00 video frame)
Interleave, preload duratio : 500 ms
Service kind : Complete Main

Скриншоты


Kon912

Post 23-May-2020 15:46

[Quote]

Последний министр- Год выпуска: 2020
Производство: Продюсерская компания «Среда»
Жанр: комедия
Продолжительность: ~00:24:00 серия
Субтитры: нет-Режиссёр:
Роман Волобуев-В ролях:
Ян Цапник, Ольга Сутулова, Нелли Уварова, Сергей Епишев, Анна Шепелева, Софья Лебедева, Алексей Золотовицкий, Дарья Носик, Екатерина Носик, Сергей Стёпин, Эльвира Кекеева, Фёдор Лавров, Никита Абдулов, Елена Ванина, Ольга Дибцева, Фархад Гусейнов, Александр Ильин, Александр Голубков, Константин Мурзенко, Антон Багмет, Денис Бузин, Анна Чиповская, Валерия Дмитриева, Дмитрий Ендальцев, Алиса Хазанова, Вадим Лобанов, Андрей Мерзликин, Нана Муштакова, Борис Невзоров, Юрий Цурило, Полина Федина-Описание:
Когда министром перспективного планирования назначают деятельного неудачника, никто представить не может, к чему это приведёт. Оказывается, новый министр действительно хочет изменить жизнь людей к лучшему и для этого вместе с командой активно продвигает собственные инициативы. Правда, инициативы эти не всегда разумны, а результат — крайне непредсказуем.-Реклама: Нет.-Внимание! В сериях присутствуют две аудиодорожки. Первая дорожка с цензурой, вторая без цензуры (ненормативная лексика).-Качество: WEBRip 1080p - ExKinoRay
Формат: MKV
Видео кодек: H.264
Аудио кодек: AC3
Видео: MPEG4 AVC Video, H264, 2.40:1, 1920x804, 25 fps, ~5900 kbps, 0.152 bit/pixel
Аудио: AC3 Dolby Digital, 48.0 kHz, 2/0 (L,R) ch, 192 kbps - с цензурой
Аудио 2: AC3 Dolby Digital, 48.0 kHz, 2/0 (L,R) ch, 192 kbps - без цензуры-Sample-

MI

General
Unique ID : 217072996173128658027676019400847110235 (0xA34EBD0429A9987CB82BD2535F8FB05B)
Complete name : D:\Posledniy.ministr.S01.2020.WEBRip.(1080p).ExKinoRay\Posledniy.ministr.S01.E01-02.2020.WEBRip.(1080p).ExKinoRay.mkv
Format : Matroska
Format version : Version 4 / Version 2
File size : 2.06 GiB
Duration : 46 min 8 s
Overall bit rate : 6 377 kb/s
Encoded date : UTC 2020-04-03 23:44:35
Writing application : mkvmerge v6.9.1 ('Blue Panther') 64bit built on Apr 18 2014 18:23:38
Writing library : libebml v1.3.0 + libmatroska v1.4.1
Video
ID : 1
Format : AVC
Format/Info : Advanced Video Codec
Format profile : High@L4.1
Format settings : CABAC / 4 Ref Frames
Format settings, CABAC : Yes
Format settings, ReFrames : 4 frames
Codec ID : V_MPEG4/ISO/AVC
Bit rate : 5 866 kb/s
Width : 1 920 pixels
Height : 804 pixels
Display aspect ratio : 2.40:1
Frame rate mode : Variable
Original frame rate : 25.000 FPS
Color space : YUV
Chroma subsampling : 4:2:0
Bit depth : 8 bits
Scan type : Progressive
Default : Yes
Forced : No
Color range : Limited
Color primaries : BT.709
Transfer characteristics : BT.709
Matrix coefficients : BT.709
Audio #1
ID : 2
Format : AC-3
Format/Info : Audio Coding 3
Codec ID : A_AC3
Duration : 46 min 8 s
Bit rate mode : Constant
Bit rate : 192 kb/s
Channel(s) : 2 channels
Channel positions : Front: L R
Sampling rate : 48.0 kHz
Frame rate : 31.250 FPS (1536 SPF)
Bit depth : 16 bits
Compression mode : Lossy
Stream size : 63.4 MiB (3%)
Title : с цензурой
Language : Russian
Service kind : Complete Main
Default : Yes
Forced : Yes
Audio #2
ID : 3
Format : AC-3
Format/Info : Audio Coding 3
Codec ID : A_AC3
Duration : 46 min 8 s
Bit rate mode : Constant
Bit rate : 192 kb/s
Channel(s) : 2 channels
Channel positions : Front: L R
Sampling rate : 48.0 kHz
Frame rate : 31.250 FPS (1536 SPF)
Bit depth : 16 bits
Compression mode : Lossy
Stream size : 63.4 MiB (3%)
Title : Без цензуры
Language : Russian
Service kind : Complete Main
Default : No
Forced : No

Скриншоты


 

The time now is: Today 21:51

All times are GMT + 3 Hours