Today is a free download without charge Download

Search found 500 matches

Author Message

mayor

Post 11-Jan-2020 08:21

[Quote]

-Зелёный фургон (сезон 1, серии 1-16 из 16)- Производство: Россия / Пирамида
Жанр: детектив, криминал, комедия
Режиссер: Сергей Крутин
Актеры: Дмитрий Харатьян, Семён Трескунов, Екатерина Олькина, Александр Наумов, Наталия Вдовина, Наталья Кийко, Валерий Кухарешин, Артур Ваха, Екатерина Дурова, Артур Сопельник и др.
Описание:
Спустя 20 лет, всё в той же Одессе, повзрослевший главный герой Володя Патрикеев продолжает бороться с преступностью. Отсидевший в тюрьме в 1937 году, отвоевавший в штрафбате, а потом в разведроте, он вернулся в гражданскую жизнь и начинает расследовать сложные уголовные дела. На дворе 1946 год, новый враг начальника одесского отделения милиции украл скифское золото и пытается вывезти его в Турцию.

Возраст: 16+ (зрителям, достигшим 16 лет)
Дата российской премьеры: 03 января Первый
Продолжительность: ~00:48:00 серия
Качество видео: SATRip [http://sendfile.su/1538781]
Видео: AVC/H.264, 720х400 (16:9), ~1500 Kbps
Аудио: AC3, 2 ch, 192 Kbps

Доп.Информация:

Общее
Уникальный идентификатор : 225778247553146455184204884143854766154 (0xA9DB4F0BE760CE7DB70BFA68CED2C84A)
Полное имя : G:\Зелёный фургон. Совсем другая история\01 серия_Зелёный фургон. Совсем другая история_rip by_Aleksan55.mkv
Формат : Matroska
Версия формата : Version 2
Размер файла : 593 Мбайт
Продолжительность : 48 м. 58 с.
Общий поток : 1694 Кбит/сек
Дата кодирования : UTC 2020-01-03 10:55:05
Программа кодирования : mkvmerge v7.8.0 ('River Man') 32bit built on Apr 3 2015 12:11:22
Библиотека кодирования : libebml v1.3.1 + libmatroska v1.4.2
Видео
Идентификатор : 1
Формат : AVC
Формат/Информация : Advanced Video Codec
Профиль формата : [url=mailto:High@L4.1]High@L4.1[/url]
Настройки формата : CABAC / 12 Ref Frames
Параметр CABAC формата : Да
Параметр RefFrames формата : 12 кадров
Идентификатор кодека : V_MPEG4/ISO/AVC
Продолжительность : 48 м. 58 с.
Битрейт : 1500 Кбит/сек
Ширина : 720 пикселей
Высота : 400 пикселей
Соотношение сторон : 16:9
Режим частоты кадров : Постоянный
Частота кадров : 25,000 кадров/сек
Цветовое пространство : YUV
Субдискретизация насыщенности : 4:2:0
Битовая глубина : 8 бит
Тип развёртки : Прогрессивная
Бит/(Пиксели*Кадры) : 0.208
Размер потока : 514 Мбайт (87%)
Библиотека кодирования : x264 core 146 r2538 121396c
Настройки программы : cabac=1 / ref=12 / deblock=1:-2:-2 / analyse=0x3:0x133 / me=umh / subme=9 / psy=1 / psy_rd=1.00:0.15 / mixed_ref=0 / me_range=24 / chroma_me=1 / trellis=2 / 8x8dct=1 / cqm=0 / deadzone=21,11 / fast_pskip=0 / chroma_qp_offset=-3 / threads=10 / lookahead_threads=5 / sliced_threads=0 / nr=0 / decimate=0 / interlaced=0 / bluray_compat=0 / constrained_intra=0 / bframes=12 / b_pyramid=2 / b_adapt=2 / b_bias=0 / direct=3 / weightb=1 / open_gop=0 / weightp=2 / keyint=250 / keyint_min=25 / scenecut=40 / intra_refresh=0 / rc_lookahead=40 / rc=2pass / mbtree=1 / bitrate=1500 / ratetol=1.0 / qcomp=0.60 / qpmin=0 / qpmax=60 / qpstep=4 / cplxblur=20.0 / qblur=0.5 / ip_ratio=1.40 / aq=1:1.00
Default : Да
Forced : Нет
Цветовой диапазон : Limited
Основные цвета : BT.601 PAL
Характеристики трансфера : BT.470 System B/G
Коэффициенты матрицы : BT.470 System B/G
Аудио
Идентификатор : 2
Формат : AC-3
Формат/Информация : Audio Coding 3
Коммерческое название : Dolby Digital
Идентификатор кодека : A_AC3
Продолжительность : 48 м. 58 с.
Вид битрейта : Постоянный
Битрейт : 192 Кбит/сек
Каналы : 2 канала
ChannelLayout : L R
Частота : 48,0 КГц
Частота кадров : 31,250 кадров/сек (1536 SPF)
Метод сжатия : С потерями
Размер потока : 67,3 Мбайт (11%)
ServiceKind/String : Complete Main
Default : Да
Forced : Нет
Скриншоты:
       

mayor

Post 11-Jan-2020 08:14

[Quote]

--Старая гвардия. Прощальная вечеринка [S02] -- Год выпуска: 2020
Жанр: Детектив, криминал
Режиссер: Ашот Кещян
В ролях: Катерина Шпица, Вадим Андреев, Анатолий Лобоцкий, Алёна Хмельницкая, Сергей Канаев, Валерия Кристиансен, Андрей Москвичёв, Вера Воронкова, Иван Прилль, Нил Кропалов, Игорь Захаров (II), Николай Лунин, Альберт Бартош--О фильме: Шумная пирушка по случаю встречи бывших однокурсников прерывается страшной находкой: один из гостей случайно обнаруживает на дачном участке тело девушки, много лет пролежавшее в земле. Капитан Вера Ершова и ее подчиненные, бывалый оперативник Бобрыкин и гениальный криминалист Сапронов, берутся за расследование старого дела. Под подозрение подпадают все участники вечеринки, которые, как выясняется, хорошо знали жертву и были последними, кто видел ее живой. У каждого из них имелся мотив и возможность убить девушку. Но пока Вера, Бобрыкин и Сапронов вычисляют преступника, таинственный убийца открывает охоту на самих гостей…--Страна: Россия
Студия: Производство ООО «ХитФильм Продакшн» по заказу ООО «Студия ТелеМастер»
Продолжительность: 4 x ~ 00:45:00
Файл
Кодек: XviD
Качество: WEB-DLRip
Видео: XviD, ~ 1600 Кбит/с, 720х400, 25 кадр/с
Аудио: AC3, 2 ch, 192 Кбит/с
Язык: Русский
Субтитры: Отсутствуют

Скриншоты

       

mayor

Post 08-Jan-2020 17:59

[Quote]

- Казнить нельзя помиловать (серии 1-12 из 12) - Производство: Россия / Триикс Медиа
Жанр: детектив, история
Режиссер: Ким Дружинин
Актеры: Мария Кожевникова, Дмитрий Паламарчук, Кирилл Рубцов, Алексей Шевченков, Дмитрий Астрахан, Игорь Иванов, Сергей Кудрявцев, Надежда Некрасова, Александр Кладько, Николай Иванов и др.
Описание:
Бывшая разведчица Нина Колосова после войны оказывается в Ленинграде, где царят преступность и криминал. Любимого мужа Нины, сотрудника отдела по борьбе с бандитизмом, убивают. Девушка решает мстить. Хладнокровно расстреливая воров и убийц, героиня наводит ужас на город. За расследование совершенных ею преступлений берется майор Борис Грановский.

Возраст: 16+ (зрителям, достигшим 16 лет)
Дата российской премьеры: 6 декабря 2017
Релиз от: Алехаndr
Продолжительность: ~00:48:00 серия
Качество видео: WEB-DL
Видео: AVC/H.264, 1920x1080 (16:9), ~3000 Kbps
Аудио: AC3, 2 ch, 192 Kbps

Доп.Информация:

Общее
Уникальный идентификатор : 207125165677089306399575248596966766143 (0x9BD2DB1B0A92135C5B7EF38ED8DAF63F)
Полное имя : D:\Казнить нельзя помиловать (2016).by.Алехаndr\Серия 01.by.Алехаndr.mkv
Формат : Matroska
Версия формата : Version 4 / Version 2
Размер файла : 1,10 Гбайт
Продолжительность : 48 м. 11 с.
Общий поток : 3255 Кбит/сек
Программа кодирования : Lavf57.71.100
Библиотека кодирования : Lavf57.71.100
ErrorDetectionType : Per level 1
Видео
Идентификатор : 1
Формат : AVC
Формат/Информация : Advanced Video Codec
Профиль формата : High@L4
Настройки формата : CABAC / 2 Ref Frames
Параметр CABAC формата : Да
Параметр RefFrames формата : 2 кадра
Идентификатор кодека : V_MPEG4/ISO/AVC
Продолжительность : 48 м. 11 с.
Битрейт : 2998 Кбит/сек
Ширина : 1920 пикселей
Высота : 1080 пикселей
Соотношение сторон : 16:9
Режим частоты кадров : Постоянный
Частота кадров : 25,000 кадров/сек
Цветовое пространство : YUV
Субдискретизация насыщенности : 4:2:0
Битовая глубина : 8 бит
Тип развёртки : Прогрессивная
Бит/(Пиксели*Кадры) : 0.058
Размер потока : 1,01 Гбайт (92%)
Default : Да
Forced : Нет
Цветовой диапазон : Limited
Основные цвета : BT.709
Характеристики трансфера : BT.709
Коэффициенты матрицы : BT.709
Аудио
Идентификатор : 2
Формат : AC-3
Формат/Информация : Audio Coding 3
Идентификатор кодека : A_AC3
Продолжительность : 48 м. 11 с.
Вид битрейта : Постоянный
Битрейт : 192 Кбит/сек
Каналы : 2 канала
Расположение каналов : Front: L R
Частота : 44,1 КГц
Частота кадров : 28,711 кадров/сек (1536 SPF)
Битовая глубина : 16 бит
Метод сжатия : С потерями
Задержка видео : -40 мс.
Размер потока : 66,2 Мбайт (6%)
Язык : unknown
ServiceKind/String : Complete Main
Default : Да
Forced : Нет
Скриншоты:
       

mayor

Post 08-Jan-2020 17:28

[Quote]

-За пять минут до января (сезон 1, серии 1-4 из 4)- Производство: Россия | "GP Film"
Жанр: комедия, мелодрама, приключения
Режиссер: Ольга Доброва-Куликова
Актеры: Наталья Рудова, Дмитрий Миллер, Евгения Добровольская, Кирилл Плетнёв, Владимир Качан, Алексей Барабаш, Василий Бочкарев, Сергей Горобченко, Дмитрий Хрусталев, Андрей Леонов и др.
Описание:
Всем известно, что под Новый год случаются чудеса. Щедрое на новогодние подарки телевидение заинтересовано в чудесах особенно. Но ничто не предвещало по-настоящему сказочного сюжетного поворота, когда генеральный продюсер, генерального телеканала отобрал для итогового ролика "За пять минут до января" пять, казалось бы, никак не связанных между собой репортажей и пять абсолютно разных героев: модного композитора Савицкого, отважного майора МЧС Макарова, капризную поп-диву Елизавету Барышеву, руководителя детской музыкальной студии Олесю Цветкову и дачника-пенсионера Петровича из деревни Бабаево, оказавшегося, по совместительству, немножко волшебником.

Дата российской премьеры: 7 января 2020
Продолжительность: ~00:50:00 серия
Качество видео: HDTVRip [http://sendfile.su/1539698]
Видео: AVC/H.264, 1024x576 (16:9), ~2000 kbps
Аудио: AC3, 2 ch, 192 Kbps

Доп.Информация:

General
Unique ID : 244265775155224421667771524255713395624 (0xB7C3E0880E2EAA71B043DB44641103A8)
Complete name : D:\За_пять_минут_до_января_S01_2019_HDTVRip_AVC\За_пять_минут_до_января_S01_2019_HDTVRip_AVC_01.mkv
Format : Matroska
Format version : Version 2
File size : 756 MiB
Duration : 48 min 10 s
Overall bit rate : 2 194 kb/s
Encoded date : UTC 2020-01-07 10:02:30
Writing application : mkvmerge v7.8.0 ('River Man') 32bit built on Apr 3 2015 12:11:22
Writing library : libebml v1.3.1 + libmatroska v1.4.2
Video
ID : 1
Format : AVC
Format/Info : Advanced Video Codec
Format profile : [url=mailto:High@L4.1]High@L4.1[/url]
Format settings : CABAC / 9 Ref Frames
Format settings, CABAC : Yes
Format settings, ReFrames : 9 frames
Codec ID : V_MPEG4/ISO/AVC
Duration : 48 min 10 s
Bit rate : 2 000 kb/s
Width : 1 024 pixels
Height : 576 pixels
Display aspect ratio : 16:9
Frame rate mode : Constant
Frame rate : 25.000 FPS
Color space : YUV
Chroma subsampling : 4:2:0
Bit depth : 8 bits
Scan type : Progressive
Bits/(Pixel*Frame) : 0.136
Stream size : 675 MiB (89%)
Writing library : x264 core 146 r2538 121396c
Encoding settings : cabac=1 / ref=9 / deblock=1:-2:-1 / analyse=0x3:0x133 / me=umh / subme=9 / psy=1 / psy_rd=1.00:0.15 / mixed_ref=1 / me_range=32 / chroma_me=1 / trellis=2 / 8x8dct=1 / cqm=0 / deadzone=21,11 / fast_pskip=0 / chroma_qp_offset=-3 / threads=18 / lookahead_threads=3 / sliced_threads=0 / nr=0 / decimate=1 / interlaced=0 / bluray_compat=0 / constrained_intra=0 / bframes=9 / b_pyramid=2 / b_adapt=2 / b_bias=0 / direct=1 / weightb=1 / open_gop=0 / weightp=2 / keyint=250 / keyint_min=25 / scenecut=40 / intra_refresh=0 / rc=2pass / mbtree=0 / bitrate=2000 / ratetol=1.0 / qcomp=0.60 / qpmin=0 / qpmax=69 / qpstep=4 / cplxblur=20.0 / qblur=0.5 / ip_ratio=1.40 / pb_ratio=1.30 / aq=2:1.00
Default : Yes
Forced : No
Color range : Limited
Color primaries : BT.709
Transfer characteristics : BT.709
Matrix coefficients : BT.709
Audio
ID : 2
Format : AC-3
Format/Info : Audio Coding 3
Commercial name : Dolby Digital
Codec ID : A_AC3
Duration : 48 min 10 s
Bit rate mode : Constant
Bit rate : 192 kb/s
Channel(s) : 2 channels
Channel layout : L R
Sampling rate : 48.0 kHz
Frame rate : 31.250 FPS (1536 SPF)
Bit depth : 16 bits
Compression mode : Lossy
Stream size : 66.1 MiB (9%)
Service kind : Complete Main
Default : Yes
Forced : No
Скриншоты:
       

mayor

Post 03-Jan-2020 09:49

[Quote]

- Бар «На грудь» (сезон 2, серии 1-8 из 8) - Производство: Россия / Киностудия МИМ
Жанр: комедия
Режиссер: Ирина Вилкова
Актеры: Денис Пьянов, Татьяна Лазарева, Алексей Гуськов, Яна Троянова, Вера Фомина, Антон Сухарев, Кирилл Полухин, Анна Иванина, Дмитрий Аверин, Ирина Вилкова, Михаил Тройник и др.
Описание:
Продолжение сериала о месте, где выслушают любого.
Во втором сезоне страсти накаляются, а посетителей становится больше. К маникюрше Марине (Анна Иванина) приезжает жених (Михаил Тройник) и мама (Татьяна Лазарева), к бандиту Валере (Кирилл Полухин) возвращается первая любовь (Яна Троянова), Владлен (Антон Сухарев) решает спасти человечество, пенсионер Бугров (Андрей Шарков) узрит Бога, феминистка Поля тоже узрит Бога (Иван Купреенко) и сделается от него беременной, аккордеонист Аркадий (Денис Пьянов) потеряет мать (Татьяна Малыщицкая), но обретет отца (Алексей Гуськов)… и еще много-много кармических узлов завяжется и развяжется на глазах уставшей и очень беременной барменши (которая в этом сезоне поменяла фамилию на Анна Гольдфельд)

Возраст: 18+ (зрителям, достигшим 18 лет. запрещено для детей)
Дата российской премьеры: 10 декабря 2019
Релиз от: Алехаndr
Продолжительность: ~00:10:00 серия
Качество видео: WEBRip
Внимание! Присутствует ненормативная лексика!
Видео: Xvid, 720x400 (16:9), ~1885 Kbps
Аудио: AC3, 2 ch, 192 Kbps

MI

Общее
Полное имя : D:\Bar.na.grud.S02 (2019).by.Алехаndr\Bar.na.grud.S02.E01.by.Алехаndr.avi
Формат : AVI
Формат/Информация : Audio Video Interleave
Размер файла : 127 Мбайт
Продолжительность : 8 м. 31 с.
Общий поток : 2089 Кбит/сек
Программа кодирования : Lavf58.29.100
Видео
Идентификатор : 0
Формат : MPEG-4 Visual
Профиль формата : Advanced Simple@L5
Настройки формата : BVOP2
Параметр BVOP формата : 2
Параметр QPel формата : Нет
Параметр GMC формата : Без точки перехода
Параметр матрицы формата : Default (MPEG)
Идентификатор кодека : XVID
Идентификатор кодека/Подсказка : XviD
Продолжительность : 8 м. 31 с.
Битрейт : 1886 Кбит/сек
Ширина : 720 пикселей
Высота : 400 пикселей
Соотношение сторон : 16:9
Частота кадров : 25,000 кадров/сек
Цветовое пространство : YUV
Субдискретизация насыщенности : 4:2:0
Битовая глубина : 8 бит
Тип развёртки : Прогрессивная
Метод сжатия : С потерями
Бит/(Пиксели*Кадры) : 0.262
Размер потока : 115 Мбайт (90%)
Библиотека кодирования : XviD 67
Аудио
Идентификатор : 1
Формат : AC-3
Формат/Информация : Audio Coding 3
Коммерческое название : Dolby Digital
Идентификатор кодека : 2000
Продолжительность : 8 м. 31 с.
Вид битрейта : Постоянный
Битрейт : 192 Кбит/сек
Каналы : 2 канала
ChannelLayout : L R
Частота : 48,0 КГц
Частота кадров : 31,250 кадров/сек (1536 SPF)
Битовая глубина : 16 бит
Метод сжатия : С потерями
Размер потока : 11,7 Мбайт (9%)
Выравнивание : Соединение по промежуткам
Продолжительность промежутка : 32 мс. (0,80 видеокадр)
ServiceKind/String : Complete Main

Содержание:

Серия 01 - Москва- Санкт-Петербург
Серия 02 - Пренатальная
Серия 03 - Богоявленская
Серия 04 - Бандитский Петербург
Серия 05 - Родноверы
Серия 06 - Поцелуй креветки
Серия 07 - Фертильная
Серия 08 - Свадьба VS Похороны
Скриншоты:
       

mayor

Post 03-Jan-2020 09:48

[Quote]

- Бар «На грудь» (сезон 1, серии 1-8 из 8) «Сериал о наболевшем»- Производство: Россия / Киностудия МИМ по заказу Rutube
Жанр: комедия
Режиссер: Ирина Вилкова
Актеры: Денис Пьянов, Вера Фомина, Антон Сухарев, Кирилл Полухин, Татьяна Малыщицкая, Александр Баширов, Анна Иванина, Дмитрий Аверин, Ирина Вилкова, Анна Жмаева и др.
Описание:
Вновь обремененные насущными проблемами, жители Петербурга приходят в уже родной им бар — «На грудь», утолить свою тоску и обсудить воображаемую безнадежность бытия. Ведь там их всегда выслушают и… нальют. Страдать становится куда приятней, а посетителей со своими душещипательными историями — все больше.

Возраст: 18+ (зрителям, достигшим 18 лет. запрещено для детей)
Продолжительность: ~00:10:00 серия
Качество видео: WEBRip
Внимание! Присутствует ненормативная лексика!
Видео: AVC/H.264, 3840x2160, ~5715 Kbps
Аудио: AC3, 2 ch, 192 Kbps

MI

Общее
Уникальный идентификатор : 261695978161418241004878792721448549185 (0xC4E0CFE39A11B196DC190A157553BB41)
Полное имя : D:\Бар. На грудь (2018).by.Алехаndr\Бар. На грудь. 1 сезон. 1 серия.by.Алехаndr .mkv
Формат : Matroska
Версия формата : Version 4
Размер файла : 325 Мбайт
Продолжительность : 7 м. 40 с.
Общий поток : 5910 Кбит/сек
Название фильма : Бар. На грудь. 1 сезон. 1 серия.by.Алехаndr
Дата кодирования : UTC 2019-12-24 16:03:20
Программа кодирования : mkvmerge v41.0.0 ('Smarra') 32-bit
Библиотека кодирования : libebml v1.3.9 + libmatroska v1.5.2 / Lavf57.71.100
Видео
Идентификатор : 1
Формат : AVC
Формат/Информация : Advanced Video Codec
Профиль формата : [url=mailto:Main@L5.1]Main@L5.1[/url]
Настройки формата : CABAC / 1 Ref Frames
Параметр CABAC формата : Да
Параметр RefFrames формата : 1 кадр
Параметр GOP формата : M=1, N=25
Идентификатор кодека : V_MPEG4/ISO/AVC
Продолжительность : 7 м. 40 с.
Битрейт : 5715 Кбит/сек
Ширина : 3840 пикселей
Высота : 2160 пикселей
Соотношение сторон : 16:9
Режим частоты кадров : Постоянный
Частота кадров : 25,000 кадров/сек
Цветовое пространство : YUV
Субдискретизация насыщенности : 4:2:0
Битовая глубина : 8 бит
Тип развёртки : Прогрессивная
Бит/(Пиксели*Кадры) : 0.028
Размер потока : 314 Мбайт (97%)
Default : Да
Forced : Нет
Аудио
Идентификатор : 2
Формат : AC-3
Формат/Информация : Audio Coding 3
Коммерческое название : Dolby Digital
Идентификатор кодека : A_AC3
Продолжительность : 7 м. 40 с.
Вид битрейта : Постоянный
Битрейт : 192 Кбит/сек
Каналы : 2 канала
ChannelLayout : L R
Частота : 48,0 КГц
Частота кадров : 31,250 кадров/сек (1536 SPF)
Метод сжатия : С потерями
Размер потока : 10,5 Мбайт (3%)
ServiceKind/String : Complete Main
Default : Да
Forced : Нет

Содержание серий:

Серия 01 - Патриархат
Серия 02 - Матриархат
Серия 03 - Градозащитная
Серия 04 - Кошачья
Серия 05 - Экскремистская
Серия 06 - День рождения
Серия 07 - Бюрократическая
Серия 08 - Новый год
Скриншоты:
       

mayor

Post 03-Jan-2020 09:46

[Quote]

- Разведчики (сезон 1-2, серии 1-12 из 12) - Производство: Россия / "Синебридж"
Жанр: военный
Режиссер: Александр Замятин
Актеры: Борис Щербаков, Максим Заусалин, Александр Суворов, Михаил Тарабукин, Никита Слопин, Евгения Лоза, Вадим Андреев, Владимир Стержаков, Татьяна Остап, Игорь Гудеев и др.
Описание:
Разведчики Фильм 1: Последний бой: В самом конце войны в разведывательное управление Красной Армии поступают сведения о немецких сверхсекретных разработках новейших летательных аппаратов вертикального взлета - дисколетов.. . Разведчики Фильм 2: Война после войны:Оставшихся в живых героев фильма "Разведчики: Последний бой" судьба вновь сводит вместе уже через два года после войны. Капитан Максимов прибывает для дальнейшего прохождения службы в воинскую часть в небольшой приморский городок. Жизнь здесь уже основательно вошла в мирное русло. Но Максимов сразу же по приезду оказывается вовлеченным в водоворот опасных событий.. .

Возраст: 16+ (зрителям, достигшим 16 лет)
Продолжительность: ~00:44:00 серия
Качество видео: DVDRip
Видео: Xvid, 720x400 (16:9), ~2171 kbps
Аудио: AC3, 2 ch, 192 kbps

MI

General
Complete name : D:\Мои фильмы\Razvedchiki_S1-2_1-12iz12_2008_XviD_DVDRip\Razvedchiki_S1_Poslednij_boj\Razvedchiki_S1_Poslednij_boj_1.avi
Format : AVI
Format/Info : Audio Video Interleave
File size : 745 MiB
Duration : 43 min 54 s
Overall bit rate : 2 373 kb/s
Writing application : VirtualDubMod 1.5.10.2 (build 2540/release)
Writing library : VirtualDub2 build 41867/release
Video
ID : 0
Format : MPEG-4 Visual
Format profile : Advanced Simple@L5
Format settings : BVOP2
Format settings, BVOP : 2
Format settings, QPel : No
Format settings, GMC : No warppoints
Format settings, Matrix : Default (H.263)
Codec ID : XVID
Codec ID/Hint : XviD
Duration : 43 min 54 s
Bit rate : 2 171 kb/s
Width : 720 pixels
Height : 400 pixels
Display aspect ratio : 16:9
Frame rate : 25.000 FPS
Color space : YUV
Chroma subsampling : 4:2:0
Bit depth : 8 bits
Scan type : Progressive
Compression mode : Lossy
Bits/(Pixel*Frame) : 0.302
Stream size : 682 MiB (91%)
Writing library : XviD 67
Audio
ID : 1
Format : AC-3
Format/Info : Audio Coding 3
Commercial name : Dolby Digital
Codec ID : 2000
Duration : 43 min 54 s
Bit rate mode : Constant
Bit rate : 192 kb/s
Channel(s) : 2 channels
Channel layout : L R
Sampling rate : 48.0 kHz
Frame rate : 31.250 FPS (1536 SPF)
Bit depth : 16 bits
Compression mode : Lossy
Stream size : 60.3 MiB (8%)
Alignment : Aligned on interleaves
Interleave, duration : 40 ms (1.00 video frame)
Interleave, preload duration : 512 ms
Service kind : Complete Main
Скриншоты:
       

mayor

Post 03-Jan-2020 09:45

[Quote]

-Тайны следствия. Прошлый век (сезон 1, серии 1-4 из 4) - Производство: Россия / Прогресс-Плюс
Жанр: детектив
Режиссер: Жанна Коханова
Актеры: Анна Ковальчук, Вячеслав Захаров, Игорь Николаев, Александр Новиков, Андрей Шарков, Игорь Григорьев, Олег Алмазов,Алла Довлатова, Александр Чевычелов, Александр Шпилько и др.
Описание:
XIX век. Конец царствования Александра III. Эпоха романтики, благородства, а также… таинственных и изощренных преступлений. Светская дама, супруга статского советника и замминистра юстиции Мария Сергеевна Перевалова внезапно оказывается в центре криминальной истории. Казалось бы, незначительное происшествие – разбитое окно во время званого ужина в ее особняке – приводит к цепи трагических и скандальных событий, загадочным убийствам и исчезновениям.

Дата российской премьеры: 30 декабря 2019 Россия 1
Продолжительность: ~ 00:50:00 серия
Качество видео: SATRip http://sendfile.su/1537962
Видео: AVC/H.264, 720х400 ,~1500 Kbps
Аудио: AAC, 2 ch, 192 Kbps

MI

Общее
Уникальный идентификатор : 231758082382888316403775759768061751590 (0xAE5AFBAA92D89BFC9E20A9B296483126)
Полное имя : H:\Тайны следствия. Прошлый век\01 серия_Тайны следствия. Прошлый век_rip by_Aleksan55.mkv
Формат : Matroska
Версия формата : Version 2
Размер файла : 615 Мбайт
Продолжительность : 50 м. 47 с.
Общий поток : 1694 Кбит/сек
Дата кодирования : UTC 2019-12-30 10:50:45
Программа кодирования : mkvmerge v7.8.0 ('River Man') 32bit built on Apr 3 2015 12:11:22
Библиотека кодирования : libebml v1.3.1 + libmatroska v1.4.2
Видео
Идентификатор : 1
Формат : AVC
Формат/Информация : Advanced Video Codec
Профиль формата : [url=mailto:High@L4.1]High@L4.1[/url]
Настройки формата : CABAC / 12 Ref Frames
Параметр CABAC формата : Да
Параметр RefFrames формата : 12 кадров
Идентификатор кодека : V_MPEG4/ISO/AVC
Продолжительность : 50 м. 47 с.
Номинальный битрейт : 1500 Кбит/сек
Ширина : 720 пикселей
Высота : 400 пикселей
Соотношение сторон : 16:9
Режим частоты кадров : Постоянный
Частота кадров : 25,000 кадров/сек
Цветовое пространство : YUV
Субдискретизация насыщенности : 4:2:0
Битовая глубина : 8 бит
Тип развёртки : Прогрессивная
Бит/(Пиксели*Кадры) : 0.208
Библиотека кодирования : x264 core 146 r2538 121396c
Настройки программы : cabac=1 / ref=12 / deblock=1:-2:-2 / analyse=0x3:0x133 / me=umh / subme=9 / psy=1 / psy_rd=1.00:0.15 / mixed_ref=0 / me_range=24 / chroma_me=1 / trellis=2 / 8x8dct=1 / cqm=0 / deadzone=21,11 / fast_pskip=0 / chroma_qp_offset=-3 / threads=10 / lookahead_threads=5 / sliced_threads=0 / nr=0 / decimate=0 / interlaced=0 / bluray_compat=0 / constrained_intra=0 / bframes=12 / b_pyramid=2 / b_adapt=2 / b_bias=0 / direct=3 / weightb=1 / open_gop=0 / weightp=2 / keyint=250 / keyint_min=25 / scenecut=40 / intra_refresh=0 / rc_lookahead=40 / rc=2pass / mbtree=1 / bitrate=1500 / ratetol=1.0 / qcomp=0.60 / qpmin=0 / qpmax=69 / qpstep=4 / cplxblur=20.0 / qblur=0.5 / ip_ratio=1.40 / aq=1:1.00
Default : Да
Forced : Нет
Цветовой диапазон : Limited
Основные цвета : BT.709
Характеристики трансфера : BT.709
Коэффициенты матрицы : BT.709
Аудио
Идентификатор : 2
Формат : AAC LC
Формат/Информация : Advanced Audio Codec Low Complexity
Идентификатор кодека : A_AAC-2
Продолжительность : 50 м. 47 с.
Каналы : 2 канала
ChannelLayout : L R
Частота : 48,0 КГц
Частота кадров : 46,875 кадров/сек (1024 SPF)
Метод сжатия : С потерями
Задержка видео : 9 мс.
Default : Да
Forced : Нет
Скриншоты:
       

mayor

Post 03-Jan-2020 09:43

[Quote]

- Тень стрекозы (сезон 1, серии 1-4 из 4) - Производство: Россия / "NRG Film"
Жанр: детектив, мелодрама
Режиссер: Наталия Микрюкова
Актеры: Карина Разумовская, Илья Соколовский, Антон Батырев, Юрий Анпилогов, Максим Радугин, Григорий Кирдяшкин, Наталья Беляева, Михаил Богдасаров, Анастасия Привалова и др.
Описание:
В родном городке московской журналистки Ланы происходит загадочное убийство. Погибла ее давняя приятельница Светлана — эксцентричная особа, вечно подражавшая более успешной подруге. Таинственные послания, оставленные покойной, заставляют Лану начать собственное расследование: похоже, к смерти подруги причастен любимый мужчина Ланы — исчезнувший пять лет назад спецназовец Валера, носивший кличку «Стрекоза». Желание оправдать Валеру и развеять собственные подозрения доводит Лану до беды — кто-то, остающийся в тени, ясно пытается дать ей знать — она последует за Светой, если не уберется из города.

Возраст: 16+ (зрителям, достигшим 16 лет)
Продолжительность: ~00:46:00 серия
Качество видео: WEB-DLRip
Видео: AVC/H.264, 1920x1080 (16:9), ~5000 Kbps
Аудио: AC3, 2 ch, 192 Kbps

MI

Общее
Уникальный идентификатор : 264405375424337172654945250994405452916 (0xC6EA9F7CD73878DFD66B6FD397172C74)
Полное имя : D:\Тень стрекозы (2015)\Тень стрекозы. Серия 1.mkv
Формат : Matroska
Версия формата : Version 4
Размер файла : 1,67 Гбайт
Продолжительность : 46 м. 5 с.
Общий поток : 5190 Кбит/сек
Программа кодирования : Lavf57.71.100
Библиотека кодирования : Lavf57.71.100
ErrorDetectionType : Per level 1
Видео
Идентификатор : 1
Формат : AVC
Формат/Информация : Advanced Video Codec
Профиль формата : High@L4
Настройки формата : CABAC / 3 Ref Frames
Параметр CABAC формата : Да
Параметр RefFrames формата : 3 кадра
Идентификатор кодека : V_MPEG4/ISO/AVC
Продолжительность : 46 м. 5 с.
Битрейт : 5000 Кбит/сек
Ширина : 1920 пикселей
Высота : 1080 пикселей
Соотношение сторон : 16:9
Режим частоты кадров : Постоянный
Частота кадров : 25,000 кадров/сек
Цветовое пространство : YUV
Субдискретизация насыщенности : 4:2:0
Битовая глубина : 8 бит
Тип развёртки : Прогрессивная
Бит/(Пиксели*Кадры) : 0.096
Размер потока : 1,58 Гбайт (94%)
Библиотека кодирования : x264 core 142 r2479 dd79a61
Настройки программы : cabac=1 / ref=3 / deblock=1:0:0 / analyse=0x3:0x133 / me=hex / subme=6 / psy=1 / psy_rd=1.00:0.00 / mixed_ref=0 / me_range=16 / chroma_me=1 / trellis=1 / 8x8dct=1 / cqm=0 / deadzone=21,11 / fast_pskip=0 / chroma_qp_offset=-2 / threads=6 / lookahead_threads=1 / sliced_threads=0 / nr=0 / decimate=1 / interlaced=0 / bluray_compat=0 / constrained_intra=0 / bframes=3 / b_pyramid=1 / b_adapt=2 / b_bias=0 / direct=1 / weightb=1 / open_gop=0 / weightp=2 / keyint=96 / keyint_min=49 / scenecut=0 / intra_refresh=0 / rc_lookahead=40 / rc=2pass / mbtree=1 / bitrate=5000 / ratetol=1.0 / qcomp=0.60 / qpmin=0 / qpmax=69 / qpstep=4 / cplxblur=20.0 / qblur=0.5 / ip_ratio=1.40 / aq=1:1.00
Default : Да
Forced : Нет
Цветовой диапазон : Limited
Основные цвета : BT.709
Характеристики трансфера : BT.709
Коэффициенты матрицы : BT.709
Аудио
Идентификатор : 2
Формат : AC-3
Формат/Информация : Audio Coding 3
Коммерческое название : Dolby Digital
Идентификатор кодека : A_AC3
Продолжительность : 46 м. 5 с.
Вид битрейта : Постоянный
Битрейт : 192 Кбит/сек
Каналы : 2 канала
ChannelLayout : L R
Частота : 48,0 КГц
Частота кадров : 31,250 кадров/сек (1536 SPF)
Битовая глубина : 32 бит
Метод сжатия : С потерями
Задержка видео : -80 мс.
Размер потока : 63,3 Мбайт (4%)
ServiceKind/String : Complete Main
Default : Да
Forced : Нет
Скриншоты:
       

mayor

Post 03-Jan-2020 09:42

[Quote]

-Эпидемия (сезон 1, серии 1-8 из 8)- Производство: Россия | «ТНТ-PREMIER»
Жанр: драма, фантастика, триллер
Режиссер: Павел Костомаров
Актеры: Кирилл Кяро, Виктория Исакова, Александр Робак, Марьяна Спивак, Юрий Кузнецов, Савелий Кудряшов, Аля Никулина, Наталья Земцова, Екатерина Сапрыкина, Вера Гурьева и др.
Описание:
Неизвестный вирус превращает Москву в город мёртвых. Электричества нет, деньги потеряли свою ценность, те, кто ещё не заражён, отчаянно сражаются за еду и бензин. Главный герой Сергей, его любимая и её сын-аутист живут за городом, где пока ещё безопасно. Но он не может бросить в беде бывшую жену с их сыном, хоть она и ненавидит его. Сергей едет в Москву и чудом вывозит из умирающей столицы женщину и ребёнка. В пути к ним присоединяются его отец и довольно наглые соседи с младенцем. Люди, которые в другой ситуации никогда не оказались бы под одной крышей, вынуждены забыть прежние обиды и отправиться в полное смертельных опасностей путешествие на крайний Север...

Дата российской премьеры: 14 ноября 2019
Продолжительность: ~00:50:00 серия
Качество видео: WEB-DLRip [http://sendfile.su/1528208]
Видео: AVC/H.264, 1024x428, ~2000 Kbps
Аудио 1: AC3, 2 ch, 192 Kbps - без цензуры
Аудио 2: AC3, 2 ch, 192 Kbps - с цензурой

MI

General
Unique ID : 235021674552719412492478185728754693424 (0xB0CF872EF28CC296B49D9814EFC5B530)
Complete name : U:\Эпидемия_S01_2019_WEB-DLRip_AVC\Эпидемия_S01_2019_WEB-DLRip_AVC_01.mkv
Format : Matroska
Format version : Version 4
File size : 951 MiB
Duration : 55 min 44 s
Overall bit rate : 2 386 kb/s
Encoded date : UTC 2019-11-20 14:54:47
Writing application : mkvmerge v6.9.1 ('Blue Panther') 64bit built on Apr 18 2014 18:23:38
Writing library : libebml v1.3.0 + libmatroska v1.4.1
Video
ID : 1
Format : AVC
Format/Info : Advanced Video Codec
Format profile : [url=mailto:High@L4.1]High@L4.1[/url]
Format settings : CABAC / 10 Ref Frames
Format settings, CABAC : Yes
Format settings, ReFrames : 10 frames
Codec ID : V_MPEG4/ISO/AVC
Duration : 55 min 44 s
Bit rate : 2 000 kb/s
Width : 1 024 pixels
Height : 428 pixels
Display aspect ratio : 2.40:1
Frame rate mode : Constant
Frame rate : 25.000 FPS
Color space : YUV
Chroma subsampling : 4:2:0
Bit depth : 8 bits
Scan type : Progressive
Bits/(Pixel*Frame) : 0.183
Stream size : 779 MiB (82%)
Writing library : x264 core 146 r2538 121396c
Encoding settings : cabac=1 / ref=10 / deblock=1:-3:-3 / analyse=0x3:0x113 / me=umh / subme=11 / psy=1 / psy_rd=1.00:0.20 / mixed_ref=1 / me_range=32 / chroma_me=1 / trellis=2 / 8x8dct=1 / cqm=0 / deadzone=21,11 / fast_pskip=1 / chroma_qp_offset=-3 / threads=24 / lookahead_threads=6 / sliced_threads=0 / nr=0 / decimate=0 / interlaced=0 / bluray_compat=0 / constrained_intra=0 / bframes=12 / b_pyramid=2 / b_adapt=2 / b_bias=0 / direct=3 / weightb=1 / open_gop=0 / weightp=2 / keyint=250 / keyint_min=25 / scenecut=40 / intra_refresh=0 / rc_lookahead=60 / rc=2pass / mbtree=1 / bitrate=2000 / ratetol=1.0 / qcomp=0.60 / qpmin=0 / qpmax=69 / qpstep=4 / cplxblur=20.0 / qblur=0.5 / vbv_maxrate=14000 / vbv_bufsize=14000 / nal_hrd=none / filler=0 / ip_ratio=1.40 / aq=3:1.40
Default : Yes
Forced : No
Color range : Limited
Color primaries : BT.709
Transfer characteristics : BT.709
Matrix coefficients : BT.709
Audio #1
ID : 2
Format : AC-3
Format/Info : Audio Coding 3
Commercial name : Dolby Digital
Codec ID : A_AC3
Duration : 55 min 44 s
Bit rate mode : Constant
Bit rate : 192 kb/s
Channel(s) : 2 channels
Channel layout : L R
Sampling rate : 48.0 kHz
Frame rate : 31.250 FPS (1536 SPF)
Bit depth : 16 bits
Compression mode : Lossy
Stream size : 76.5 MiB (8%)
Title : Без цензуры
Language : Russian
Service kind : Complete Main
Default : Yes
Forced : No
Audio #2
ID : 3
Format : AC-3
Format/Info : Audio Coding 3
Commercial name : Dolby Digital
Codec ID : A_AC3
Duration : 55 min 44 s
Bit rate mode : Constant
Bit rate : 192 kb/s
Channel(s) : 2 channels
Channel layout : L R
Sampling rate : 48.0 kHz
Frame rate : 31.250 FPS (1536 SPF)
Bit depth : 16 bits
Compression mode : Lossy
Stream size : 76.5 MiB (8%)
Title : С цензурой
Language : Russian
Service kind : Complete Main
Default : No
Forced : No
Скриншоты:
       

mayor

Post 03-Jan-2020 09:39

[Quote]

- Шуберт (серии 1-10 из 10) - Производство: Россия / ВайТ Медиа
Жанр: детектив, триллер
Режиссер: Евгений Бедарев
Актеры: Алексей Воробьёв, Александр Галибин, Александра Богданова, Любовь Козий, Павел Крайнов, Алёна Коломина, Станислав Шмелёв, Константин Самоуков, Александр Сухинин, Алексей Гришин и др.
Описание:
Александр Бертенев обладает феноменальным даром — он «слухач», «акустик», способный улавливать звуки, которые не слышны обычному человеку. По записи телефонного разговора он с точностью определяет где, когда и во сколько состоялась беседа. Бертенев некоторое время работал в антитеррористической группе, но из-за роковой ошибки был вынужден покинуть органы...

Возраст: 16+ (зрителям, достигшим 16 лет)
Дата российской премьеры: 26 марта 2018 (НТВ)
Продолжительность: ~ 00:50:00 серия
Качество видео: HDTVRip
Видео: Xvid, 720x304, ~970 Kbps
Аудио: AC3, 2 ch, 192 kbps

Доп.Информация:

Общее
Полное имя : D:\Мои фильмы\Shubert_1-10iz10_2018_XviD_HDTVRip\Shubert_01.avi
Формат : AVI
Формат/Информация : Audio Video Interleave
Размер файла : 446 Мбайт
Продолжительность : 53 м. 11 с.
Общий поток : 1171 Кбит/сек
Программа кодирования : VirtualDubMod 1.5.10.3 www.virtualdub-fr.org || (build 2550/release)
Библиотека кодирования : VirtualDub build 40716/release
Видео
Идентификатор : 0
Формат : MPEG-4 Visual
Профиль формата : Advanced Simple@L5
Параметр BVOP формата : 2
Параметр QPel формата : Нет
Параметр GMC формата : Без точки перехода
Параметр матрицы формата : Default (H.263)
Идентификатор кодека : XVID
Идентификатор кодека/Подсказка : XviD
Продолжительность : 53 м. 11 с.
Битрейт : 970 Кбит/сек
Ширина : 720 пикселей
Высота : 304 пикселя
Соотношение сторон : 2,35:1
Частота кадров : 25,000 кадров/сек
Цветовое пространство : YUV
Субдискретизация насыщенности : 4:2:0
Битовая глубина : 8 бит
Тип развёртки : Прогрессивная
Метод сжатия : С потерями
Бит/(Пиксели*Кадры) : 0.177
Размер потока : 369 Мбайт (83%)
Библиотека кодирования : XviD 67
Аудио
Идентификатор : 1
Формат : AC-3
Формат/Информация : Audio Coding 3
Параметр Endianness формата : Big
Идентификатор кодека : 2000
Продолжительность : 53 м. 11 с.
Вид битрейта : Постоянный
Битрейт : 192 Кбит/сек
Каналы : 2 канала
Расположение каналов : Front: L R
Частота : 48,0 КГц
Частота кадров : 31,250 кадров/сек (1536 SPF)
Битовая глубина : 16 бит
Метод сжатия : С потерями
Размер потока : 73,1 Мбайт (16%)
Выравнивание : Разделение по промежуткам
Продолжительность промежутка : 40 мс. (1,00 видеокадр)
Время предзагрузки промежутка : 512 мс.
ServiceKind/String : Complete Main
Скриншоты:
       

mayor

Post 03-Jan-2020 09:38

[Quote]

- Пуля (сезон 1, серии 1-10 из 10) - Производство: Россия / IKa film, Амедиа Продакшн
Жанр: детектив, криминал
Режиссер: Алексей Быстрицкий
Актеры: Никита Панфилов, Иева Андреевайте, Борис Галкин, Максим Щёголев, Игорь Хрипунов, Александр Яцко, Анатолий Кот, Михаил Горевой, Олег Кассин, Игорь Маслов и др.
Описание:
Главный герой — командир отряда специального назначения ГРУ, майор Кирилл Романов (Никита Панфилов), получает таинственное сообщение от виновника смерти его матери. В письме сообщается, что автор не причастен к её кончине. Кирилл в замешательстве, он решает прервать военный контракт и вернуться в Москву, чтобы встретиться с преступником лично и узнать подробности трагедии, которая произошла в Сибири, на месте, где собиралась базироваться нефтяная компания.

Возраст: 16+ (зрителям, достигшим 16 лет)
Дата российской премьеры: 17 декабря 2018 (НТВ)
Продолжительность: ~00:48:00 серия
Качество видео: WEBRip
Видео: Xvid, 720x304 (2.35:1), ~1151 Kbps
Аудио: AC3, 2 ch, 192 kbps

Доп.Информация:

Общее
Полное имя : D:\Мои фильмы\Pulja_S1_1-10iz10_2018_XviD_WEBRip\Pulja_S1_01.avi
Формат : AVI
Формат/Информация : Audio Video Interleave
Размер файла : 445 Мбайт
Продолжительность : 46 м. 2 с.
Общий поток : 1353 Кбит/сек
Программа кодирования : VirtualDubMod 1.5.10.3 www.virtualdub-fr.org || (build 2550/release)
Библиотека кодирования : VirtualDub2 build 41867/release
Видео
Идентификатор : 0
Формат : MPEG-4 Visual
Профиль формата : Advanced Simple@L5
Настройки формата : BVOP2
Параметр BVOP формата : 2
Параметр QPel формата : Нет
Параметр GMC формата : Без точки перехода
Параметр матрицы формата : Default (H.263)
Идентификатор кодека : XVID
Идентификатор кодека/Подсказка : XviD
Продолжительность : 46 м. 2 с.
Битрейт : 1151 Кбит/сек
Ширина : 720 пикселей
Высота : 304 пикселя
Соотношение сторон : 2,35:1
Частота кадров : 25,000 кадров/сек
Цветовое пространство : YUV
Субдискретизация насыщенности : 4:2:0
Битовая глубина : 8 бит
Тип развёртки : Прогрессивная
Метод сжатия : С потерями
Бит/(Пиксели*Кадры) : 0.210
Размер потока : 379 Мбайт (85%)
Библиотека кодирования : XviD 67
Аудио
Идентификатор : 1
Формат : AC-3
Формат/Информация : Audio Coding 3
Коммерческое название : Dolby Digital
Идентификатор кодека : 2000
Продолжительность : 46 м. 2 с.
Вид битрейта : Постоянный
Битрейт : 192 Кбит/сек
Каналы : 2 канала
Channel layout : L R
Частота : 48,0 КГц
Частота кадров : 31,250 кадров/сек (1536 SPF)
Битовая глубина : 16 бит
Метод сжатия : С потерями
Размер потока : 63,2 Мбайт (14%)
Выравнивание : Разделение по промежуткам
Продолжительность промежутка : 40 мс. (1,00 видеокадр)
Время предзагрузки промежутка : 500 мс.
ServiceKind/String : Complete Main
_Скриншоты:
       

Орлов Владимир

Post 31-Dec-2019 13:05

[Quote]

-- Екатерина --Екатерина / 1-3 сезоны: 1-38 серии из 38 [2014-2019, Драма, мелодрама, история, биография, WEB-DLRip]--
Год выхода: 2014-2019
Жанр: Драма, мелодрама, история, биография
Режиссер: Александр Баранов (II), Рамиль Сабитов, Дмитрий Иосифов-- В ролях: Марина Александрова (I), Владимир Меньшов, Константин Лавроненко, Александр Лазарев мл., Юлия Ауг, Александр Яценко, Риналь Мухаметов, Иван Добронравов, Николай Козак, Светлана Корчагина-- О фильме: 1745. Царствующая императрица Елизавета Петровна бесплодна. Единственный наследник — ее слабоумный племянник Петр III. Елизавета не может допустить, чтобы Петр взошел на престол, поэтому решает женить цесаревича, дождаться рождения сына, а потом забрать мальчика и самой воспитать его настоящим русским императором. В Петербург съезжаются невесты. Среди них прелестная, Фике — юная принцесса София Фредерика из обедневшей ветви прусских королей. Девушка, мечтая о сказке, отправилась в далекую загадочную Россию за большой любовью и счастьем. Однако здесь же суждено столкнуться с заговорами придворных и шпионов, безжалостными дворцовыми интригами, жестоким расчетом императрицы, и безразличием будущего супруга. Ей, а потом и ее детям, грозит смертельная опасность. Чтобы отстоять свою мечту о любви Екатерине придется избавиться от власти людей, которые пытаются уничтожить ее. Жребий брошен. Екатерина начинает борьбу за трон. Но будет ли она счастлива?-- -- Страна: Россия
Студия: Кинокомпания "Космос", «Амедиа» при участии «Production Value», Россия 1
Продолжительность: 38 x ~ 00:48:00
Перевод: Не требуется--Файл
Кодек: XviD
Качество: WEB-DLRip
Видео: 1700 Кбит/с, 720x400
Звук: AC3, 2 ch, 192 Кбит/с
Язык: Русский
Субтитры: Нет

Скриншоты

           

mayor

Post 29-Dec-2019 15:19

[Quote]

- Тайны следствия (сезон 19, серии 1-24 из 24) - Производство: Россия / Студия Прогресс Плюс, Домашний Экран
Жанр: драма, криминал, детектив
Режиссер: Егор Баринов
Актеры: Анна Ковальчук, Вячеслав Захаров, Сергей Барышев, Александр Новиков, Эмилия Спивак, Юлия Яковлева, Алла Довлатова,Игорь Григорьев, Мирослав Малич, Андрей Шарков и др.
Описание:
Строгая и обаятельная Мария Сергеевна Швецова продолжает работать в Следственном комитете. После расставания с хирургом Солнцевым она снова свободна и теперь полностью погружена в работу. А вот в жизни Курочкина и Кораблева большие перемены - их повышают в должности.. .

Возраст: 12+ (зрителям, достигшим 12 лет)
Дата российской премьеры: 9 декабря 2019 (Россия-1)
Продолжительность: ~00:45:00 серия
Качество видео: HDTVRip
Видео: Xvid, 720x400 (16:9), ~1322 kbps
Аудио: AC3, 2 ch, 192 kbps

MI

General
Complete name : F:\Мои сериалы\Tajny_sledstvija_S19_1-24iz24_2019_XviD_HDTVRip\01.Нежный возраст.(1 сер.).avi
Format : AVI
Format/Info : Audio Video Interleave
File size : 556 MiB
Duration : 50 min 57 s
Overall bit rate : 1 524 kb/s
Writing library : VirtualDub build 40716/release
Video
ID : 0
Format : MPEG-4 Visual
Format profile : Advanced Simple@L5
Format settings : BVOP2
Format settings, BVOP : 2
Format settings, QPel : No
Format settings, GMC : No warppoints
Format settings, Matrix : Default (H.263)
Codec ID : XVID
Codec ID/Hint : XviD
Duration : 50 min 57 s
Bit rate : 1 322 kb/s
Width : 720 pixels
Height : 400 pixels
Display aspect ratio : 16:9
Frame rate : 25.000 FPS
Color space : YUV
Chroma subsampling : 4:2:0
Bit depth : 8 bits
Scan type : Progressive
Compression mode : Lossy
Bits/(Pixel*Frame) : 0.184
Stream size : 482 MiB (87%)
Writing library : XviD 68
Audio
ID : 1
Format : AC-3
Format/Info : Audio Coding 3
Commercial name : Dolby Digital
Codec ID : 2000
Duration : 50 min 57 s
Bit rate mode : Constant
Bit rate : 192 kb/s
Channel(s) : 2 channels
Channel layout : L R
Sampling rate : 48.0 kHz
Frame rate : 31.250 FPS (1536 SPF)
Bit depth : 16 bits
Compression mode : Lossy
Stream size : 70.0 MiB (13%)
Alignment : Aligned on interleaves
Interleave, duration : 40 ms (1.00 video frame)
Interleave, preload duration : 512 ms
Service kind : Complete Main
Скриншоты:
       

mayor

Post 29-Dec-2019 15:05

[Quote]

Оригинальное название: Нюхач
Год выпуска: 2013-2019
Жанр: Детектив, драма, криминал
Выпущено: Украина, Pronto Film, Film.UA
Режиссер: Артем Литвиненко--В ролях: Кирилл Кяро, Иван Оганесян, Николай Чиндяйкин, Агне Грудите, Мария Аниканова, Нина Гогаева, Павел Кузьмин, Сергей Юшкевич, Игорь Ботвин, Александр Фисенко, Денис Мартынов (II), Алексей Зорин, Станислав Москвин, Вадим Лялько, Владимир Коваль (II), Татьяна Комарова, Елена Сикорская, Александр Зиневич, Сергей Лесков, Олег Ким (IV), Виктор Щур, Артём Червоношеенко, Виталий Копилец, Игорь Дяченко, Александр Мартыщенко--О фильме: Каждое преступление имеет свой запах. В новом сезоне захватывающего сериала Нюхач и Виктор Лебедев продолжают служить правосудию. Дар Нюхача и опыт Лебедева делают их тандем сильным и очень эффективным. Но им приходится сталкиваться не только с рядовыми преступниками: за каждым шагом Нюхача и Виктора следит таинственная организация, и им приходится распутывать целую сеть из тайн, загадок и преступлений. Сумеет ли их дружба выдержать все испытания? И смогут ли они победить таинственного врага?-- --Качество: WEB-DLRip
Видео: XviD, ~ 1500 Кбит/с, 720x400
Аудио: АС3, 2 ch, 192 Кбит/с
Продолжительность: 32 х ~ 00:59:00
Язык: Русский--

Скриншоты

     
 

The time now is: Today 01:25

All times are GMT + 3 Hours