Today is a free download without charge Download

Search found 488 matches

Author Message

Clavik

Post 12-Oct-2019 13:46

[Quote]

Приключения Мишек Гамми / Adventures of the Gummi Bears (1985-1991) SATRip (Все серии) - Производство: Disney
Жанр: Рисованная анимация, Детский, Сказка, Приключения
Режиссер: Дэвид Блок, Арт Вителло, Алан Заслов
Описание:
Красочный и добрый мультсериал о приключениях Мишек Гамми — сказочных медведях, тайно живущих рядом с людьми, и о которых ходят легенды по всей земле, ведь они не раз спасали королевство и подданных короля от нападений злых гоблинов под руководством хитрого графа Игторна и другой нечистой силы. Этих медведей полюбят все дети. Сказки про них нам расскажет Дисней. Ловкие, смелые, добрые, милые — Преданней вы не встречали друзей. Мишки Гамми нас рассмешат Забавными прыжками

Возраст: 0+ (для любой зрительской аудитории)
Рейтинг MPAA: G (нет возрастных ограничений)
Дата мировой премьеры: 14.09.1985
Релиз от: Disney Jazz
Продолжительность: 11 - 22 мин серия
Качество видео: SATRip
Перевод: Дублированный
Субтитры: Отсутствуют
Видео: DivX 5, разный у разных серий (640x480 512x384 576x432), (544x416 1287 Kbps, 512x384 1410 Kbps, 576x432 1400Kbps, 640x480 1372Kbps)
Аудио: MP3, 2 ch, 128Kbps

MediaInfo:

General
Complete name : /home/vv/Видео/01.Как это начиналось.avi
Format : AVI
Format/Info : Audio Video Interleave
File size : 237 MiB
Duration : 21 min 20 s
Overall bit rate : 1 552 kb/s
Director : Alex-Ice: [url=mailto:alex_ice@e-mail.ru]alex_ice@e-mail.ru[/url]
Writing application : Nandub v1.0rc2
Writing library : Nandub build 1852/release
Video
ID : 0
Format : MPEG-4 Visual
Format settings : BVOP1 / GMC2
Format settings, BVOP : 1
Format settings, QPel : No
Format settings, GMC : 2 warppoints
Format settings, Matrix : Default (H.263)
Muxing mode : Packed bitstream
Codec ID : DX50
Codec ID/Hint : DivX 5
Duration : 21 min 20 s
Bit rate : 1 411 kb/s
Nominal bit rate : 6 200 kb/s
Width : 512 pixels
Height : 384 pixels
Display aspect ratio : 4:3
Frame rate : 25.000 FPS
Color space : YUV
Chroma subsampling : 4:2:0
Bit depth : 8 bits
Scan type : Progressive
Compression mode : Lossy
Bits/(Pixel*Frame) : 0.287
Stream size : 215 MiB (91%)
Writing library : DivX 5.0.4 (UTC 2003-04-17)
Audio
ID : 1
Format : MPEG Audio
Format version : Version 1
Format profile : Layer 3
Codec ID : 55
Codec ID/Hint : MP3
Duration : 21 min 20 s
Bit rate mode : Constant
Bit rate : 128 kb/s
Channel(s) : 2 channels
Sampling rate : 48.0 kHz
Compression mode : Lossy
Stream size : 19.5 MiB (8%)
Alignment : Aligned on interleaves
Interleave, duration : 24 ms (0.60 video frame)
Interleave, preload duration : 480 ms
Скриншоты:
       

Дополнительные скриншоты:

     
       

Clavik

Post 03-Oct-2019 00:09

[Quote]

Отмена / Undone (2019) WEB-DL [H.264/720p-LQ] (сезон 1, серии 1-8 из 8) NewStation - Производство: США, Amazon Studios, Minnow Mountain, Submarine, Tornante Company
Жанр: Мультфильм, фэнтези, драма
Режиссер: Хиско Хулсинг
Описание:
Сюжет расскажет о девочке, которая после автомобильной аварии получила возможность перемещаться во времени и пространстве. Она пытается использовать свои способности, чтобы спасти давно умершего отца.

Релиз от: NewStation
Продолжительность: ~00:22:00 серия
Качество видео: WEB-DL
Перевод: Многоголосый любительский (NewStation)
Субтитры: русские, английские, арабские, датские, немецкие, испанские, финские, французские, ивритские, индонезийские, итальянские, корейские, японские, норвежские, голландские, польские, португальские, шведские, тамильские, тайские, турецкие, китайские
Видео: AVC/H.264, 1280x720, ~2461 kbps
Аудио #1: AC3, 6 ch, 640 kbps, - Русский (NewStation)
Аудио #2: AC3, 6 ch, 640 kbps, - Английский

Список серий:

01 The Crash
02 The Hospital
03 Handheld Blackjack
04 Moving The Keys
05 Alone In This (You Have Me)
06 Prayers And Visions
07 The Wedding
08 The Halloween Night

MediaInfo:

Общее
Уникальный идентификатор : 309130553703888034426444919069264564730 (0xE8906106D236B8F204D9EEB532F7D1FA)
Полное имя : F:\NewStation\Undone.S01.WEB-DL.720p.NewStation\Undone.S01E01.WEB-DL.720p.NewStation.mkv
Формат : Matroska
Версия формата : Version 4 / Version 2
Размер файла : 608 Мбайт
Продолжительность : 22 м. 39 с.
Общий поток : 3749 Кбит/сек
Дата кодирования : UTC 2019-09-13 21:15:07
Программа кодирования : mkvmerge v28.1.0 ('Morning Child') 64-bit
Библиотека кодирования : libebml v1.3.6 + libmatroska v1.4.9
Видео
Идентификатор : 1
Формат : AVC
Формат/Информация : Advanced Video Codec
Профиль формата : [url=mailto:High@L3.1]High@L3.1[/url]
Настройки формата : CABAC / 4 Ref Frames
Параметр CABAC формата : Да
Параметр RefFrames формата : 4 кадра
Идентификатор кодека : V_MPEG4/ISO/AVC
Продолжительность : 22 м. 39 с.
Вид битрейта : Постоянный
Битрейт : 2461 Кбит/сек
Номинальный битрейт : 6000 Кбит/сек
Ширина : 1280 пикселей
Высота : 720 пикселей
Соотношение сторон : 16:9
Режим частоты кадров : Постоянный
Частота кадров : 23,976 (24000/1001) кадра/сек
Цветовое пространство : YUV
Субдискретизация насыщенности : 4:2:0
Битовая глубина : 8 бит
Тип развёртки : Прогрессивная
Бит/(Пиксели*Кадры) : 0.111
Размер потока : 399 Мбайт (66%)
Default : Да
Forced : Нет
Цветовой диапазон : Limited
Основные цвета : BT.709
Характеристики трансфера : BT.709
Коэффициенты матрицы : BT.709
Аудио #1
Идентификатор : 2
Формат : AC-3
Формат/Информация : Audio Coding 3
Идентификатор кодека : A_AC3
Продолжительность : 22 м. 39 с.
Вид битрейта : Постоянный
Битрейт : 640 Кбит/сек
Каналы : 6 каналов
Расположение каналов : Front: L C R, Side: L R, LFE
Частота : 48,0 КГц
Частота кадров : 31,250 кадров/сек (1536 SPF)
Битовая глубина : 16 бит
Метод сжатия : С потерями
Размер потока : 104 Мбайт (17%)
Заголовок : NewStation
Язык : Russian
ServiceKind/String : Complete Main
Default : Да
Forced : Нет
Аудио #2
Идентификатор : 3
Формат : AC-3
Формат/Информация : Audio Coding 3
Идентификатор кодека : A_AC3
Продолжительность : 22 м. 39 с.
Вид битрейта : Постоянный
Битрейт : 640 Кбит/сек
Каналы : 6 каналов
Расположение каналов : Front: L C R, Side: L R, LFE
Частота : 48,0 КГц
Частота кадров : 31,250 кадров/сек (1536 SPF)
Битовая глубина : 16 бит
Метод сжатия : С потерями
Размер потока : 104 Мбайт (17%)
Заголовок : Original
Язык : English
ServiceKind/String : Complete Main
Default : Нет
Forced : Нет
Текст #1
Идентификатор : 4
Формат : UTF-8
Идентификатор кодека : S_TEXT/UTF8
Идентификатор кодека/Информация : UTF-8 Plain Text
Продолжительность : 20 м. 10 с.
Битрейт : 91 бит/сек
ElementCount : 377
Размер потока : 13,4 Кбайт (0%)
Язык : English
Default : Нет
Forced : Нет
Текст #2
Идентификатор : 5
Формат : UTF-8
Идентификатор кодека : S_TEXT/UTF8
Идентификатор кодека/Информация : UTF-8 Plain Text
Продолжительность : 21 м. 3 с.
Битрейт : 95 бит/сек
ElementCount : 414
Размер потока : 14,7 Кбайт (0%)
Заголовок : SDH
Язык : English
Default : Нет
Forced : Нет
Текст #3
Идентификатор : 6
Формат : UTF-8
Идентификатор кодека : S_TEXT/UTF8
Идентификатор кодека/Информация : UTF-8 Plain Text
Продолжительность : 21 м. 8 с.
Битрейт : 134 бит/сек
ElementCount : 407
Размер потока : 20,8 Кбайт (0%)
Язык : Arabic
Default : Нет
Forced : Нет
Текст #4
Идентификатор : 7
Формат : UTF-8
Идентификатор кодека : S_TEXT/UTF8
Идентификатор кодека/Информация : UTF-8 Plain Text
Продолжительность : 20 м. 10 с.
Битрейт : 85 бит/сек
ElementCount : 406
Размер потока : 12,6 Кбайт (0%)
Язык : Danish
Default : Нет
Forced : Нет
Текст #5
Идентификатор : 8
Формат : UTF-8
Идентификатор кодека : S_TEXT/UTF8
Идентификатор кодека/Информация : UTF-8 Plain Text
Продолжительность : 20 м. 10 с.
Битрейт : 80 бит/сек
ElementCount : 281
Размер потока : 12,0 Кбайт (0%)
Язык : German
Default : Нет
Forced : Нет
Текст #6
Идентификатор : 9
Формат : UTF-8
Идентификатор кодека : S_TEXT/UTF8
Идентификатор кодека/Информация : UTF-8 Plain Text
Продолжительность : 21 м. 8 с.
Битрейт : 80 бит/сек
ElementCount : 406
Размер потока : 12,5 Кбайт (0%)
Заголовок : Latinoamérica
Язык : Spanish
Default : Нет
Forced : Нет
Текст #7
Идентификатор : 10
Формат : UTF-8
Идентификатор кодека : S_TEXT/UTF8
Идентификатор кодека/Информация : UTF-8 Plain Text
Продолжительность : 20 м. 10 с.
Битрейт : 85 бит/сек
ElementCount : 405
Размер потока : 12,6 Кбайт (0%)
Заголовок : España
Язык : Spanish
Default : Нет
Forced : Нет
Текст #8
Идентификатор : 11
Формат : UTF-8
Идентификатор кодека : S_TEXT/UTF8
Идентификатор кодека/Информация : UTF-8 Plain Text
Продолжительность : 21 м. 8 с.
Битрейт : 77 бит/сек
ElementCount : 408
Размер потока : 12,1 Кбайт (0%)
Язык : Finnish
Default : Нет
Forced : Нет
Текст #9
Идентификатор : 12
Формат : UTF-8
Идентификатор кодека : S_TEXT/UTF8
Идентификатор кодека/Информация : UTF-8 Plain Text
Продолжительность : 20 м. 10 с.
Битрейт : 78 бит/сек
ElementCount : 405
Размер потока : 11,6 Кбайт (0%)
Язык : French
Default : Нет
Forced : Нет
Текст #10
Идентификатор : 13
Формат : UTF-8
Идентификатор кодека : S_TEXT/UTF8
Идентификатор кодека/Информация : UTF-8 Plain Text
Продолжительность : 21 м. 8 с.
Битрейт : 125 бит/сек
ElementCount : 407
Размер потока : 19,4 Кбайт (0%)
Язык : Hebrew
Default : Нет
Forced : Нет
Текст #11
Идентификатор : 14
Формат : UTF-8
Идентификатор кодека : S_TEXT/UTF8
Идентификатор кодека/Информация : UTF-8 Plain Text
Продолжительность : 21 м. 8 с.
Битрейт : 215 бит/сек
ElementCount : 407
Размер потока : 33,3 Кбайт (0%)
Язык : Hindi
Default : Нет
Forced : Нет
Текст #12
Идентификатор : 15
Формат : UTF-8
Идентификатор кодека : S_TEXT/UTF8
Идентификатор кодека/Информация : UTF-8 Plain Text
Продолжительность : 21 м. 8 с.
Битрейт : 66 бит/сек
ElementCount : 408
Размер потока : 10,4 Кбайт (0%)
Язык : Indonesian
Default : Нет
Forced : Нет
Текст #13
Идентификатор : 16
Формат : UTF-8
Идентификатор кодека : S_TEXT/UTF8
Идентификатор кодека/Информация : UTF-8 Plain Text
Продолжительность : 20 м. 10 с.
Битрейт : 86 бит/сек
ElementCount : 406
Размер потока : 12,8 Кбайт (0%)
Язык : Italian
Default : Нет
Forced : Нет
Текст #14
Идентификатор : 17
Формат : UTF-8
Идентификатор кодека : S_TEXT/UTF8
Идентификатор кодека/Информация : UTF-8 Plain Text
Продолжительность : 21 м. 8 с.
Битрейт : 58 бит/сек
ElementCount : 376
Размер потока : 9,11 Кбайт (0%)
Язык : Japanese
Default : Нет
Forced : Нет
Текст #15
Идентификатор : 18
Формат : UTF-8
Идентификатор кодека : S_TEXT/UTF8
Идентификатор кодека/Информация : UTF-8 Plain Text
Продолжительность : 21 м. 8 с.
Битрейт : 85 бит/сек
ElementCount : 406
Размер потока : 13,2 Кбайт (0%)
Язык : Korean
Default : Нет
Forced : Нет
Текст #16
Идентификатор : 19
Формат : UTF-8
Идентификатор кодека : S_TEXT/UTF8
Идентификатор кодека/Информация : UTF-8 Plain Text
Продолжительность : 20 м. 10 с.
Битрейт : 79 бит/сек
ElementCount : 405
Размер потока : 11,7 Кбайт (0%)
Язык : Norwegian Bokmal
Default : Нет
Forced : Нет
Текст #17
Идентификатор : 20
Формат : UTF-8
Идентификатор кодека : S_TEXT/UTF8
Идентификатор кодека/Информация : UTF-8 Plain Text
Продолжительность : 21 м. 8 с.
Битрейт : 71 бит/сек
ElementCount : 390
Размер потока : 11,1 Кбайт (0%)
Язык : Dutch
Default : Нет
Forced : Нет
Текст #18
Идентификатор : 21
Формат : UTF-8
Идентификатор кодека : S_TEXT/UTF8
Идентификатор кодека/Информация : UTF-8 Plain Text
Продолжительность : 21 м. 8 с.
Битрейт : 68 бит/сек
ElementCount : 397
Размер потока : 10,6 Кбайт (0%)
Язык : Polish
Default : Нет
Forced : Нет
Текст #19
Идентификатор : 22
Формат : UTF-8
Идентификатор кодека : S_TEXT/UTF8
Идентификатор кодека/Информация : UTF-8 Plain Text
Продолжительность : 20 м. 10 с.
Битрейт : 85 бит/сек
ElementCount : 406
Размер потока : 12,7 Кбайт (0%)
Язык : Portuguese
Default : Нет
Forced : Нет
Текст #20
Идентификатор : 23
Формат : UTF-8
Идентификатор кодека : S_TEXT/UTF8
Идентификатор кодека/Информация : UTF-8 Plain Text
Продолжительность : 21 м. 8 с.
Битрейт : 136 бит/сек
ElementCount : 404
Размер потока : 21,2 Кбайт (0%)
Язык : Russian
Default : Нет
Forced : Нет
Текст #21
Идентификатор : 24
Формат : UTF-8
Идентификатор кодека : S_TEXT/UTF8
Идентификатор кодека/Информация : UTF-8 Plain Text
Продолжительность : 21 м. 8 с.
Битрейт : 80 бит/сек
ElementCount : 407
Размер потока : 12,5 Кбайт (0%)
Язык : Swedish
Default : Нет
Forced : Нет
Текст #22
Идентификатор : 25
Формат : UTF-8
Идентификатор кодека : S_TEXT/UTF8
Идентификатор кодека/Информация : UTF-8 Plain Text
Продолжительность : 21 м. 8 с.
Битрейт : 255 бит/сек
ElementCount : 407
Размер потока : 39,5 Кбайт (0%)
Язык : Tamil
Default : Нет
Forced : Нет
Текст #23
Идентификатор : 26
Формат : UTF-8
Идентификатор кодека : S_TEXT/UTF8
Идентификатор кодека/Информация : UTF-8 Plain Text
Продолжительность : 21 м. 8 с.
Битрейт : 215 бит/сек
ElementCount : 407
Размер потока : 33,4 Кбайт (0%)
Язык : Telugu
Default : Нет
Forced : Нет
Текст #24
Идентификатор : 27
Формат : UTF-8
Идентификатор кодека : S_TEXT/UTF8
Идентификатор кодека/Информация : UTF-8 Plain Text
Продолжительность : 21 м. 8 с.
Битрейт : 207 бит/сек
ElementCount : 407
Размер потока : 32,1 Кбайт (0%)
Язык : Thai
Default : Нет
Forced : Нет
Текст #25
Идентификатор : 28
Формат : UTF-8
Идентификатор кодека : S_TEXT/UTF8
Идентификатор кодека/Информация : UTF-8 Plain Text
Продолжительность : 21 м. 8 с.
Битрейт : 74 бит/сек
ElementCount : 406
Размер потока : 11,5 Кбайт (0%)
Язык : Turkish
Default : Нет
Forced : Нет
Текст #26
Идентификатор : 29
Формат : UTF-8
Идентификатор кодека : S_TEXT/UTF8
Идентификатор кодека/Информация : UTF-8 Plain Text
Продолжительность : 21 м. 8 с.
Битрейт : 82 бит/сек
ElementCount : 407
Размер потока : 12,8 Кбайт (0%)
Заголовок : 中文(简体)
Язык : Chinese
Default : Нет
Forced : Нет
Текст #27
Идентификатор : 30
Формат : UTF-8
Идентификатор кодека : S_TEXT/UTF8
Идентификатор кодека/Информация : UTF-8 Plain Text
Продолжительность : 21 м. 8 с.
Битрейт : 72 бит/сек
ElementCount : 407
Размер потока : 11,2 Кбайт (0%)
Заголовок : 中文(繁體)
Язык : Chinese
Default : Нет
Forced : Нет
Меню
00:00:00.000 : en:Amazon Original
00:00:05.000 : en:Title Sequence
00:00:17.000 : en:Alma is so bored with living
00:01:44.000 : en:Celebrating an engagement
00:03:40.000 : en:Alma never wants to settle down
00:06:20.000 : en:The frustrations of her job
00:08:22.000 : en:Alma helps her mom look through photos
00:10:16.000 : en:Getting on the same page
00:11:28.000 : en:Supporting Becca on her special night
00:13:43.000 : en:Alma is afraid to move forward
00:18:52.000 : en:Broken people break other people
00:21:28.000 : en:End Credits
Скриншоты:
       

Clavik

Post 02-Oct-2019 23:16

[Quote]

Отмена / Undone (2019) WEB-DL [H.264/1080p-LQ] (сезон 1, серии 1-8 из 8) NewStation - Производство: США, Amazon Studios, Minnow Mountain, Submarine, Tornante Company
Жанр: Мультфильм, фэнтези, драма
Режиссер: Хиско Хулсинг
Описание:
Сюжет расскажет о девочке, которая после автомобильной аварии получила возможность перемещаться во времени и пространстве. Она пытается использовать свои способности, чтобы спасти давно умершего отца.

Релиз от: NewStation
Продолжительность: ~00:22:00 серия
Качество видео: WEB-DL
Перевод: Многоголосый любительский (NewStation)
Субтитры: русские, английские, арабские, датские, немецкие, испанские, финские, французские, ивритские, индонезийские, итальянские, корейские, японские, норвежские, голландские, польские, португальские, шведские, тамильские, тайские, турецкие, китайские
Видео: AVC/H.264, 1920x1080, ~7295 kbps
Аудио #1: AC3, 6 ch, 640 kbps, - Русский (NewStation)
Аудио #2: AC3, 6 ch, 640 kbps, - Английский

Список серий:

01 The Crash
02 The Hospital
03 Handheld Blackjack
04 Moving The Keys
05 Alone In This (You Have Me)
06 Prayers And Visions
07 The Wedding
08 The Halloween Night

MediaInfo:

Общее
Уникальный идентификатор : 263030262894886847453911552523519332350 (0xC5E1C9349AC068AADE6D5F3A73CF0FFE)
Полное имя : F:\NewStation\Undone.S01.WEB-DL.1080p.NewStation\Undone.S01E01.WEB-DL.1080p.NewStation.mkv
Формат : Matroska
Версия формата : Version 4 / Version 2
Размер файла : 1,36 Гбайт
Продолжительность : 22 м. 39 с.
Общий поток : 8582 Кбит/сек
Дата кодирования : UTC 2019-09-13 21:12:27
Программа кодирования : mkvmerge v28.1.0 ('Morning Child') 64-bit
Библиотека кодирования : libebml v1.3.6 + libmatroska v1.4.9
Видео
Идентификатор : 1
Формат : AVC
Формат/Информация : Advanced Video Codec
Профиль формата : High@L4
Настройки формата : CABAC / 4 Ref Frames
Параметр CABAC формата : Да
Параметр RefFrames формата : 4 кадра
Идентификатор кодека : V_MPEG4/ISO/AVC
Продолжительность : 22 м. 39 с.
Вид битрейта : Постоянный
Битрейт : 7295 Кбит/сек
Номинальный битрейт : 10000 Кбит/сек
Ширина : 1920 пикселей
Высота : 1080 пикселей
Соотношение сторон : 16:9
Режим частоты кадров : Постоянный
Частота кадров : 23,976 (24000/1001) кадра/сек
Цветовое пространство : YUV
Субдискретизация насыщенности : 4:2:0
Битовая глубина : 8 бит
Тип развёртки : Прогрессивная
Бит/(Пиксели*Кадры) : 0.147
Размер потока : 1,15 Гбайт (85%)
Default : Да
Forced : Нет
Цветовой диапазон : Limited
Основные цвета : BT.709
Характеристики трансфера : BT.709
Коэффициенты матрицы : BT.709
Аудио #1
Идентификатор : 2
Формат : AC-3
Формат/Информация : Audio Coding 3
Идентификатор кодека : A_AC3
Продолжительность : 22 м. 39 с.
Вид битрейта : Постоянный
Битрейт : 640 Кбит/сек
Каналы : 6 каналов
Расположение каналов : Front: L C R, Side: L R, LFE
Частота : 48,0 КГц
Частота кадров : 31,250 кадров/сек (1536 SPF)
Битовая глубина : 16 бит
Метод сжатия : С потерями
Размер потока : 104 Мбайт (7%)
Заголовок : NewStation
Язык : Russian
ServiceKind/String : Complete Main
Default : Да
Forced : Нет
Аудио #2
Идентификатор : 3
Формат : AC-3
Формат/Информация : Audio Coding 3
Идентификатор кодека : A_AC3
Продолжительность : 22 м. 39 с.
Вид битрейта : Постоянный
Битрейт : 640 Кбит/сек
Каналы : 6 каналов
Расположение каналов : Front: L C R, Side: L R, LFE
Частота : 48,0 КГц
Частота кадров : 31,250 кадров/сек (1536 SPF)
Битовая глубина : 16 бит
Метод сжатия : С потерями
Размер потока : 104 Мбайт (7%)
Заголовок : Original
Язык : English
ServiceKind/String : Complete Main
Default : Нет
Forced : Нет
Текст #1
Идентификатор : 4
Формат : UTF-8
Идентификатор кодека : S_TEXT/UTF8
Идентификатор кодека/Информация : UTF-8 Plain Text
Продолжительность : 20 м. 10 с.
Битрейт : 91 бит/сек
ElementCount : 377
Размер потока : 13,4 Кбайт (0%)
Язык : English
Default : Нет
Forced : Нет
Текст #2
Идентификатор : 5
Формат : UTF-8
Идентификатор кодека : S_TEXT/UTF8
Идентификатор кодека/Информация : UTF-8 Plain Text
Продолжительность : 21 м. 3 с.
Битрейт : 95 бит/сек
ElementCount : 414
Размер потока : 14,7 Кбайт (0%)
Заголовок : SDH
Язык : English
Default : Нет
Forced : Нет
Текст #3
Идентификатор : 6
Формат : UTF-8
Идентификатор кодека : S_TEXT/UTF8
Идентификатор кодека/Информация : UTF-8 Plain Text
Продолжительность : 21 м. 8 с.
Битрейт : 134 бит/сек
ElementCount : 407
Размер потока : 20,8 Кбайт (0%)
Язык : Arabic
Default : Нет
Forced : Нет
Текст #4
Идентификатор : 7
Формат : UTF-8
Идентификатор кодека : S_TEXT/UTF8
Идентификатор кодека/Информация : UTF-8 Plain Text
Продолжительность : 20 м. 10 с.
Битрейт : 85 бит/сек
ElementCount : 406
Размер потока : 12,6 Кбайт (0%)
Язык : Danish
Default : Нет
Forced : Нет
Текст #5
Идентификатор : 8
Формат : UTF-8
Идентификатор кодека : S_TEXT/UTF8
Идентификатор кодека/Информация : UTF-8 Plain Text
Продолжительность : 20 м. 10 с.
Битрейт : 80 бит/сек
ElementCount : 281
Размер потока : 12,0 Кбайт (0%)
Язык : German
Default : Нет
Forced : Нет
Текст #6
Идентификатор : 9
Формат : UTF-8
Идентификатор кодека : S_TEXT/UTF8
Идентификатор кодека/Информация : UTF-8 Plain Text
Продолжительность : 21 м. 8 с.
Битрейт : 80 бит/сек
ElementCount : 406
Размер потока : 12,5 Кбайт (0%)
Заголовок : Latinoamérica
Язык : Spanish
Default : Нет
Forced : Нет
Текст #7
Идентификатор : 10
Формат : UTF-8
Идентификатор кодека : S_TEXT/UTF8
Идентификатор кодека/Информация : UTF-8 Plain Text
Продолжительность : 20 м. 10 с.
Битрейт : 85 бит/сек
ElementCount : 405
Размер потока : 12,6 Кбайт (0%)
Заголовок : España
Язык : Spanish
Default : Нет
Forced : Нет
Текст #8
Идентификатор : 11
Формат : UTF-8
Идентификатор кодека : S_TEXT/UTF8
Идентификатор кодека/Информация : UTF-8 Plain Text
Продолжительность : 21 м. 8 с.
Битрейт : 77 бит/сек
ElementCount : 408
Размер потока : 12,1 Кбайт (0%)
Язык : Finnish
Default : Нет
Forced : Нет
Текст #9
Идентификатор : 12
Формат : UTF-8
Идентификатор кодека : S_TEXT/UTF8
Идентификатор кодека/Информация : UTF-8 Plain Text
Продолжительность : 20 м. 10 с.
Битрейт : 78 бит/сек
ElementCount : 405
Размер потока : 11,6 Кбайт (0%)
Язык : French
Default : Нет
Forced : Нет
Текст #10
Идентификатор : 13
Формат : UTF-8
Идентификатор кодека : S_TEXT/UTF8
Идентификатор кодека/Информация : UTF-8 Plain Text
Продолжительность : 21 м. 8 с.
Битрейт : 125 бит/сек
ElementCount : 407
Размер потока : 19,4 Кбайт (0%)
Язык : Hebrew
Default : Нет
Forced : Нет
Текст #11
Идентификатор : 14
Формат : UTF-8
Идентификатор кодека : S_TEXT/UTF8
Идентификатор кодека/Информация : UTF-8 Plain Text
Продолжительность : 21 м. 8 с.
Битрейт : 215 бит/сек
ElementCount : 407
Размер потока : 33,3 Кбайт (0%)
Язык : Hindi
Default : Нет
Forced : Нет
Текст #12
Идентификатор : 15
Формат : UTF-8
Идентификатор кодека : S_TEXT/UTF8
Идентификатор кодека/Информация : UTF-8 Plain Text
Продолжительность : 21 м. 8 с.
Битрейт : 66 бит/сек
ElementCount : 408
Размер потока : 10,4 Кбайт (0%)
Язык : Indonesian
Default : Нет
Forced : Нет
Текст #13
Идентификатор : 16
Формат : UTF-8
Идентификатор кодека : S_TEXT/UTF8
Идентификатор кодека/Информация : UTF-8 Plain Text
Продолжительность : 20 м. 10 с.
Битрейт : 86 бит/сек
ElementCount : 406
Размер потока : 12,8 Кбайт (0%)
Язык : Italian
Default : Нет
Forced : Нет
Текст #14
Идентификатор : 17
Формат : UTF-8
Идентификатор кодека : S_TEXT/UTF8
Идентификатор кодека/Информация : UTF-8 Plain Text
Продолжительность : 21 м. 8 с.
Битрейт : 58 бит/сек
ElementCount : 376
Размер потока : 9,11 Кбайт (0%)
Язык : Japanese
Default : Нет
Forced : Нет
Текст #15
Идентификатор : 18
Формат : UTF-8
Идентификатор кодека : S_TEXT/UTF8
Идентификатор кодека/Информация : UTF-8 Plain Text
Продолжительность : 21 м. 8 с.
Битрейт : 85 бит/сек
ElementCount : 406
Размер потока : 13,2 Кбайт (0%)
Язык : Korean
Default : Нет
Forced : Нет
Текст #16
Идентификатор : 19
Формат : UTF-8
Идентификатор кодека : S_TEXT/UTF8
Идентификатор кодека/Информация : UTF-8 Plain Text
Продолжительность : 20 м. 10 с.
Битрейт : 79 бит/сек
ElementCount : 405
Размер потока : 11,7 Кбайт (0%)
Язык : Norwegian Bokmal
Default : Нет
Forced : Нет
Текст #17
Идентификатор : 20
Формат : UTF-8
Идентификатор кодека : S_TEXT/UTF8
Идентификатор кодека/Информация : UTF-8 Plain Text
Продолжительность : 21 м. 8 с.
Битрейт : 71 бит/сек
ElementCount : 390
Размер потока : 11,1 Кбайт (0%)
Язык : Dutch
Default : Нет
Forced : Нет
Текст #18
Идентификатор : 21
Формат : UTF-8
Идентификатор кодека : S_TEXT/UTF8
Идентификатор кодека/Информация : UTF-8 Plain Text
Продолжительность : 21 м. 8 с.
Битрейт : 68 бит/сек
ElementCount : 397
Размер потока : 10,6 Кбайт (0%)
Язык : Polish
Default : Нет
Forced : Нет
Текст #19
Идентификатор : 22
Формат : UTF-8
Идентификатор кодека : S_TEXT/UTF8
Идентификатор кодека/Информация : UTF-8 Plain Text
Продолжительность : 20 м. 10 с.
Битрейт : 85 бит/сек
ElementCount : 406
Размер потока : 12,7 Кбайт (0%)
Язык : Portuguese
Default : Нет
Forced : Нет
Текст #20
Идентификатор : 23
Формат : UTF-8
Идентификатор кодека : S_TEXT/UTF8
Идентификатор кодека/Информация : UTF-8 Plain Text
Продолжительность : 21 м. 8 с.
Битрейт : 136 бит/сек
ElementCount : 404
Размер потока : 21,2 Кбайт (0%)
Язык : Russian
Default : Нет
Forced : Нет
Текст #21
Идентификатор : 24
Формат : UTF-8
Идентификатор кодека : S_TEXT/UTF8
Идентификатор кодека/Информация : UTF-8 Plain Text
Продолжительность : 21 м. 8 с.
Битрейт : 80 бит/сек
ElementCount : 407
Размер потока : 12,5 Кбайт (0%)
Язык : Swedish
Default : Нет
Forced : Нет
Текст #22
Идентификатор : 25
Формат : UTF-8
Идентификатор кодека : S_TEXT/UTF8
Идентификатор кодека/Информация : UTF-8 Plain Text
Продолжительность : 21 м. 8 с.
Битрейт : 255 бит/сек
ElementCount : 407
Размер потока : 39,5 Кбайт (0%)
Язык : Tamil
Default : Нет
Forced : Нет
Текст #23
Идентификатор : 26
Формат : UTF-8
Идентификатор кодека : S_TEXT/UTF8
Идентификатор кодека/Информация : UTF-8 Plain Text
Продолжительность : 21 м. 8 с.
Битрейт : 215 бит/сек
ElementCount : 407
Размер потока : 33,4 Кбайт (0%)
Язык : Telugu
Default : Нет
Forced : Нет
Текст #24
Идентификатор : 27
Формат : UTF-8
Идентификатор кодека : S_TEXT/UTF8
Идентификатор кодека/Информация : UTF-8 Plain Text
Продолжительность : 21 м. 8 с.
Битрейт : 207 бит/сек
ElementCount : 407
Размер потока : 32,1 Кбайт (0%)
Язык : Thai
Default : Нет
Forced : Нет
Текст #25
Идентификатор : 28
Формат : UTF-8
Идентификатор кодека : S_TEXT/UTF8
Идентификатор кодека/Информация : UTF-8 Plain Text
Продолжительность : 21 м. 8 с.
Битрейт : 74 бит/сек
ElementCount : 406
Размер потока : 11,5 Кбайт (0%)
Язык : Turkish
Default : Нет
Forced : Нет
Текст #26
Идентификатор : 29
Формат : UTF-8
Идентификатор кодека : S_TEXT/UTF8
Идентификатор кодека/Информация : UTF-8 Plain Text
Продолжительность : 21 м. 8 с.
Битрейт : 82 бит/сек
ElementCount : 407
Размер потока : 12,8 Кбайт (0%)
Заголовок : 中文(简体)
Язык : Chinese
Default : Нет
Forced : Нет
Текст #27
Идентификатор : 30
Формат : UTF-8
Идентификатор кодека : S_TEXT/UTF8
Идентификатор кодека/Информация : UTF-8 Plain Text
Продолжительность : 21 м. 8 с.
Битрейт : 72 бит/сек
ElementCount : 407
Размер потока : 11,2 Кбайт (0%)
Заголовок : 中文(繁體)
Язык : Chinese
Default : Нет
Forced : Нет
Меню
00:00:00.000 : en:Amazon Original
00:00:05.000 : en:Title Sequence
00:00:17.000 : en:Alma is so bored with living
00:01:44.000 : en:Celebrating an engagement
00:03:40.000 : en:Alma never wants to settle down
00:06:20.000 : en:The frustrations of her job
00:08:22.000 : en:Alma helps her mom look through photos
00:10:16.000 : en:Getting on the same page
00:11:28.000 : en:Supporting Becca on her special night
00:13:43.000 : en:Alma is afraid to move forward
00:18:52.000 : en:Broken people break other people
00:21:28.000 : en:End Credits
Скриншоты:
       

Clavik

Post 28-Sep-2019 21:01

[Quote]

Космический рубеж / Final Space (2019) WEB-DL [H.264/720p] (Сезон 2, Серии 1-13 из 13) NewStation - Производство: США, Conaco, ShadowMachine
Жанр: Фантастика, боевик, драма, комедия, приключения
Описание:
Астронавт по имени Гэри и его уничтожающий планеты приятель, называемый себя Мункейк, приступают к путешествиям по космосу, чтобы разгадать тайну того, где вселенная заканчивается и действительно ли она существует.

Релиз от: NewStation
Продолжительность: ~00:24:00 серия
Качество видео: WEB-DL
Перевод: Двуголосый закадровый, любительский (NewStation)
Субтитры: Русские, английские
Видео: AVC/H.264, 1280x720, ~4064 Kbps
Аудио 1: 48 kHz, AC-3, 6ch, 640 kbps - Русский (NewStation)
Аудио 2: 48 kHz, AC-3, 6ch, 640 kbps - Английский

Список серий:

01 The Toro Regatta
02 The Happy Place
03 The Grand Surrender
04 The Other Side
05 The Notorious Mrs. Goodspeed
06 Arachnitects
07 The First Times They Met
08 The Remembered
09 The Closer You Get
10 The Lost Spy
11 The Set Up
12 Descent Into Darkness
13 The Sixth Key

MediaInfo:

Общее
Уникальный идентификатор : 211215034335998471741836746117440989138 (0x9EE68932EBDBFD2384662400F415E7D2)
Полное имя : F:\NewStation\Final.Space.S02.WEB-DL.720p.NewStation\Final.Space.S02E01.WEB-DL.720p.NewStation.mkv
Формат : Matroska
Версия формата : Version 4 / Version 2
Размер файла : 824 Мбайт
Продолжительность : 21 м. 32 с.
Общий поток : 5346 Кбит/сек
Дата кодирования : UTC 2019-07-04 18:23:13
Программа кодирования : mkvmerge v28.1.0 ('Morning Child') 64-bit
Библиотека кодирования : libebml v1.3.6 + libmatroska v1.4.9
Видео
Идентификатор : 1
Формат : AVC
Формат/Информация : Advanced Video Codec
Профиль формата : [url=mailto:High@L3.1]High@L3.1[/url]
Настройки формата : CABAC / 4 Ref Frames
Параметр CABAC формата : Да
Параметр RefFrames формата : 4 кадра
Идентификатор кодека : V_MPEG4/ISO/AVC
Продолжительность : 21 м. 32 с.
Вид битрейта : Постоянный
Битрейт : 4064 Кбит/сек
Номинальный битрейт : 6000 Кбит/сек
Ширина : 1280 пикселей
Высота : 720 пикселей
Соотношение сторон : 16:9
Режим частоты кадров : Постоянный
Частота кадров : 23,976 (24000/1001) кадра/сек
Цветовое пространство : YUV
Субдискретизация насыщенности : 4:2:0
Битовая глубина : 8 бит
Тип развёртки : Прогрессивная
Бит/(Пиксели*Кадры) : 0.184
Размер потока : 626 Мбайт (76%)
Default : Да
Forced : Нет
Цветовой диапазон : Limited
Основные цвета : BT.709
Характеристики трансфера : BT.709
Коэффициенты матрицы : BT.709
Аудио #1
Идентификатор : 2
Формат : AC-3
Формат/Информация : Audio Coding 3
Идентификатор кодека : A_AC3
Продолжительность : 21 м. 32 с.
Вид битрейта : Постоянный
Битрейт : 640 Кбит/сек
Каналы : 6 каналов
Расположение каналов : Front: L C R, Side: L R, LFE
Частота : 48,0 КГц
Частота кадров : 31,250 кадров/сек (1536 SPF)
Битовая глубина : 16 бит
Метод сжатия : С потерями
Размер потока : 98,6 Мбайт (12%)
Заголовок : NewStation
Язык : Russian
ServiceKind/String : Complete Main
Default : Да
Forced : Нет
Аудио #2
Идентификатор : 3
Формат : AC-3
Формат/Информация : Audio Coding 3
Идентификатор кодека : A_AC3
Продолжительность : 21 м. 32 с.
Вид битрейта : Постоянный
Битрейт : 640 Кбит/сек
Каналы : 6 каналов
Расположение каналов : Front: L C R, Side: L R, LFE
Частота : 48,0 КГц
Частота кадров : 31,250 кадров/сек (1536 SPF)
Битовая глубина : 16 бит
Метод сжатия : С потерями
Размер потока : 98,6 Мбайт (12%)
Заголовок : Original
Язык : English
ServiceKind/String : Complete Main
Default : Нет
Forced : Нет
Текст #1
Идентификатор : 4
Формат : UTF-8
Идентификатор кодека : S_TEXT/UTF8
Идентификатор кодека/Информация : UTF-8 Plain Text
Продолжительность : 21 м. 25 с.
Битрейт : 128 бит/сек
ElementCount : 361
Размер потока : 20,2 Кбайт (0%)
Заголовок : Женя Спицын
Язык : Russian
Default : Нет
Forced : Нет
Текст #2
Идентификатор : 5
Формат : UTF-8
Идентификатор кодека : S_TEXT/UTF8
Идентификатор кодека/Информация : UTF-8 Plain Text
Продолжительность : 21 м. 25 с.
Битрейт : 92 бит/сек
ElementCount : 547
Размер потока : 14,5 Кбайт (0%)
Заголовок : Original
Язык : English
Default : Нет
Forced : Нет
Скриншоты:
       

Clavik

Post 20-Sep-2019 17:28

[Quote]

Любовь, смерть и роботы / Love, Death & Robots (2019) WEBRip - Производство: США / Blur Studio, Netflix
Жанр: мультфильм, ужасы, фантастика, фэнтези, комедия, боевик, криминал,
для взрослых
Режиссер: Тим Миллер
Актеры: Нолан Норт, Мэттью Кинг, Джош Бренер, Генри Даутуэйт, Грэхэм Хэмилто, Эмили О’Брайэн, Хелен Сэдлер, Илэйн Тан.
Описание:
Проект Любовь, смерть и роботы - это отдельный вид искусства. Сериал представляет собой великолепную смесь историй, представленных в совершенно различных жанрах. Здесь вас ожидает столкновение с классическими элементами научной фантастики, необычным юмором, удивительным фэнтезийным миром и по-настоящему пробирающим до мурашек ужасом. Каждый из персонажей в проекте покажется вам странным, как минимум. Здесь происходит настоящий вынос мозга, к которому никак не привыкнуть и не подготовиться. Если вы готовы смотреть историю, где в центре внимания оказываются молочные продукты, неожиданно ожившие после загадочных обстоятельств, безумные роботы, стремящиеся захватить мир и солдаты, способные обращаться в животных, то добро пожаловать к экранам! Перед вами потрясающая история, которая обязательно придётся по душе всем поклонникам безумств и абсурда!

TV Parental Guidelines (US): TV-MA (для взрослых, не рекомендуется лицам до 17 лет)
Дата мировой премьеры: 15.03.2019
Релиз от: EniaHD
Продолжительность: 18 серий по ~00:15:00
Качество видео: WEBRip
Перевод: Дублированный (BTI Studios & Пифагор)
Субтитры: Русские, английские, испанские, польские, французские, турецкие, португальские, немецкие, датские, итальянские, испанские, шведские, финские, норвежские, голландские
Видео: AVC/H.264, 1920x1080, ~7150 kbps
Аудио#1: AC3, 5.1 ch, 384 kbps | Русский
Аудио#2: AC3, 5.1 ch, 384 kbps | Английский

Mediainfo:

Полное имя                               : Love.Death.and.Robots.S01.1080p.WEB-DL.DUB.EniaHD\Love.Death.and.Robots.S01E01.Sonnies.Edge.1080p.WEB-DL.DUB.EniaHD.mkv
Формат : Matroska
Версия формата : Version 4
Размер файла : 930 Мбайт
Продолжительность : 17 м. 14 с.
Режим общего битрейта : Переменный
Общий поток : 7537 Кбит/сек
Дата кодирования : UTC 2019-03-15 08:58:08
Программа кодирования : mkvmerge v32.0.0 ('Astral Progressions') 32-bit
Библиотека кодирования : libebml v1.3.7 + libmatroska v1.5.0
Обложка : Yes
Attachments : cover.jpg
Видео
Идентификатор : 1
Формат : AVC
Формат/Информация : Advanced Video Codec
Профиль формата : Main@L4
Настройки формата : CABAC / 3 Ref Frames
Параметр CABAC формата : Да
Параметр RefFrames формата : 3 кадра
Идентификатор кодека : V_MPEG4/ISO/AVC
Продолжительность : 17 м. 14 с.
Вид битрейта : Переменный
Битрейт : 6698 Кбит/сек
Номинальный битрейт : 7150 Кбит/сек
Максимальный битрейт : 10,7 Мбит/сек
Ширина : 1920 пикселей
Высота : 1080 пикселей
Соотношение сторон : 16:9
Режим частоты кадров : Постоянный
Частота кадров : 24,000 кадра/сек
Цветовое пространство : YUV
Субдискретизация насыщенности : 4:2:0
Битовая глубина : 8 бит
Тип развёртки : Прогрессивная
Бит/(Пиксели*Кадры) : 0.135
Размер потока : 826 Мбайт (89%)
Заголовок : Release by Zgurvas for EniaHD
Библиотека кодирования : x264 core 148 r2715 7e75228
Настройки программы : cabac=1 / ref=3 / deblock=1:0:0 / analyse=0x1:0x111 / me=umh / subme=10 / psy=1 / psy_rd=1.00:0.00 / mixed_ref=1 / me_range=24 / chroma_me=1 / trellis=2 / 8x8dct=0 / cqm=0 / deadzone=21,11 / fast_pskip=1 / chroma_qp_offset=-2 / threads=8 / lookahead_threads=1 / sliced_threads=0 / nr=0 / decimate=1 / interlaced=0 / bluray_compat=0 / stitchable=1 / constrained_intra=0 / bframes=2 / b_pyramid=0 / b_adapt=2 / b_bias=0 / direct=3 / weightb=1 / open_gop=0 / weightp=2 / keyint=48 / keyint_min=25 / scenecut=0 / intra_refresh=0 / rc_lookahead=48 / rc=2pass / mbtree=1 / bitrate=7150 / ratetol=1.0 / qcomp=0.50 / qpmin=6 / qpmax=51 / qpstep=4 / cplxblur=20.0 / qblur=0.5 / vbv_maxrate=10725 / vbv_bufsize=14300 / nal_hrd=vbr / filler=0 / ip_ratio=1.40 / aq=1:1.00
Язык : English
Default : Да
Forced : Нет
Аудио #1
Идентификатор : 2
Формат : AC-3
Формат/Информация : Audio Coding 3
Коммерческое название : Dolby Digital
Идентификатор кодека : A_AC3
Продолжительность : 17 м. 14 с.
Вид битрейта : Постоянный
Битрейт : 384 Кбит/сек
Каналы : 6 каналов
Channel layout : L R C LFE Ls Rs
Частота : 48,0 КГц
Частота кадров : 31,250 кадров/сек (1536 SPF)
Битовая глубина : 16 бит
Метод сжатия : С потерями
Размер потока : 47,4 Мбайт (5%)
Заголовок : AC3 5.1 @ 384 kbps - DUB, BTI Studios + Pythagor
Язык : Russian
ServiceKind/String : Complete Main
Default : Да
Forced : Нет
Аудио #2
Идентификатор : 3
Формат : E-AC-3 JOC
Формат/Информация : Enhanced AC-3 with Joint Object Coding
Коммерческое название : Dolby Digital Plus with Dolby Atmos
Идентификатор кодека : A_EAC3
Продолжительность : 17 м. 14 с.
Вид битрейта : Постоянный
Битрейт : 448 Кбит/сек
Каналы : 6 каналов
Channel layout : L R C LFE Ls Rs
Частота : 48,0 КГц
Частота кадров : 31,250 кадров/сек (1536 SPF)
Метод сжатия : С потерями
Размер потока : 55,2 Мбайт (6%)
Заголовок : E-AC3 + Atmos 5.1 @ 448 kbps - Original
Язык : English
ServiceKind/String : Complete Main
Default : Нет
Forced : Нет
Complexity index : 16
Number of dynamic objects : 15
Bed channel count : 1 канал
Bed channel configuration : LFE
Текст #1
Идентификатор : 4
Формат : UTF-8
Идентификатор кодека : S_TEXT/UTF8
Идентификатор кодека/Информация : UTF-8 Plain Text
Продолжительность : 5 м. 53 с.
Битрейт : 1 бит/сек
ElementCount : 3
Размер потока : 83,0 байт (0%)
Заголовок : Forced
Язык : Russian
Default : Да
Forced : Да
Текст #2
Идентификатор : 5
Формат : UTF-8
Идентификатор кодека : S_TEXT/UTF8
Идентификатор кодека/Информация : UTF-8 Plain Text
Продолжительность : 15 м. 24 с.
Битрейт : 67 бит/сек
ElementCount : 159
Размер потока : 7,64 Кбайт (0%)
Заголовок : Full
Язык : Russian
Default : Нет
Forced : Нет
Текст #3
Идентификатор : 6
Формат : UTF-8
Идентификатор кодека : S_TEXT/UTF8
Идентификатор кодека/Информация : UTF-8 Plain Text
Продолжительность : 14 м. 1 с.
Битрейт : 41 бит/сек
ElementCount : 165
Размер потока : 4,29 Кбайт (0%)
Заголовок : Full
Язык : English
Default : Нет
Forced : Нет
Текст #4
Идентификатор : 7
Формат : UTF-8
Идентификатор кодека : S_TEXT/UTF8
Идентификатор кодека/Информация : UTF-8 Plain Text
Продолжительность : 14 м. 52 с.
Битрейт : 50 бит/сек
ElementCount : 206
Размер потока : 5,52 Кбайт (0%)
Заголовок : Full SDH
Язык : English
Default : Нет
Forced : Нет
Текст #5
Идентификатор : 8
Формат : UTF-8
Идентификатор кодека : S_TEXT/UTF8
Идентификатор кодека/Информация : UTF-8 Plain Text
Продолжительность : 15 м. 18 с.
Битрейт : 63 бит/сек
ElementCount : 159
Размер потока : 7,13 Кбайт (0%)
Язык : Arabic
Default : Нет
Forced : Нет
Текст #6
Идентификатор : 9
Формат : UTF-8
Идентификатор кодека : S_TEXT/UTF8
Идентификатор кодека/Информация : UTF-8 Plain Text
Продолжительность : 15 м. 24 с.
Битрейт : 39 бит/сек
ElementCount : 160
Размер потока : 4,46 Кбайт (0%)
Язык : Danish
Default : Нет
Forced : Нет
Текст #7
Идентификатор : 10
Формат : UTF-8
Идентификатор кодека : S_TEXT/UTF8
Идентификатор кодека/Информация : UTF-8 Plain Text
Продолжительность : 15 м. 24 с.
Битрейт : 38 бит/сек
ElementCount : 163
Размер потока : 4,35 Кбайт (0%)
Язык : German
Default : Нет
Forced : Нет
Текст #8
Идентификатор : 11
Формат : UTF-8
Идентификатор кодека : S_TEXT/UTF8
Идентификатор кодека/Информация : UTF-8 Plain Text
Продолжительность : 15 м. 18 с.
Битрейт : 68 бит/сек
ElementCount : 158
Размер потока : 7,64 Кбайт (0%)
Язык : Greek
Default : Нет
Forced : Нет
Текст #9
Идентификатор : 12
Формат : UTF-8
Идентификатор кодека : S_TEXT/UTF8
Идентификатор кодека/Информация : UTF-8 Plain Text
Продолжительность : 15 м. 24 с.
Битрейт : 37 бит/сек
ElementCount : 162
Размер потока : 4,27 Кбайт (0%)
Язык : Spanish
Default : Нет
Forced : Нет
Текст #10
Идентификатор : 13
Формат : UTF-8
Идентификатор кодека : S_TEXT/UTF8
Идентификатор кодека/Информация : UTF-8 Plain Text
Продолжительность : 15 м. 24 с.
Битрейт : 37 бит/сек
ElementCount : 175
Размер потока : 4,24 Кбайт (0%)
Заголовок : European
Язык : Spanish
Default : Нет
Forced : Нет
Текст #11
Идентификатор : 14
Формат : UTF-8
Идентификатор кодека : S_TEXT/UTF8
Идентификатор кодека/Информация : UTF-8 Plain Text
Продолжительность : 15 м. 24 с.
Битрейт : 37 бит/сек
ElementCount : 156
Размер потока : 4,23 Кбайт (0%)
Язык : Finnish
Default : Нет
Forced : Нет
Текст #12
Идентификатор : 15
Формат : UTF-8
Идентификатор кодека : S_TEXT/UTF8
Идентификатор кодека/Информация : UTF-8 Plain Text
Продолжительность : 15 м. 24 с.
Битрейт : 41 бит/сек
ElementCount : 158
Размер потока : 4,72 Кбайт (0%)
Язык : French
Default : Нет
Forced : Нет
Текст #13
Идентификатор : 16
Формат : UTF-8
Идентификатор кодека : S_TEXT/UTF8
Идентификатор кодека/Информация : UTF-8 Plain Text
Продолжительность : 15 м. 24 с.
Битрейт : 60 бит/сек
ElementCount : 159
Размер потока : 6,87 Кбайт (0%)
Язык : Hebrew
Default : Нет
Forced : Нет
Текст #14
Идентификатор : 17
Формат : UTF-8
Идентификатор кодека : S_TEXT/UTF8
Идентификатор кодека/Информация : UTF-8 Plain Text
Продолжительность : 15 м. 24 с.
Битрейт : 37 бит/сек
ElementCount : 158
Размер потока : 4,19 Кбайт (0%)
Язык : Hungarian
Default : Нет
Forced : Нет
Текст #15
Идентификатор : 18
Формат : UTF-8
Идентификатор кодека : S_TEXT/UTF8
Идентификатор кодека/Информация : UTF-8 Plain Text
Продолжительность : 15 м. 24 с.
Битрейт : 37 бит/сек
ElementCount : 160
Размер потока : 4,22 Кбайт (0%)
Язык : Indonesian
Default : Нет
Forced : Нет
Текст #16
Идентификатор : 19
Формат : UTF-8
Идентификатор кодека : S_TEXT/UTF8
Идентификатор кодека/Информация : UTF-8 Plain Text
Продолжительность : 15 м. 24 с.
Битрейт : 39 бит/сек
ElementCount : 158
Размер потока : 4,48 Кбайт (0%)
Язык : Italian
Default : Нет
Forced : Нет
Текст #17
Идентификатор : 20
Формат : UTF-8
Идентификатор кодека : S_TEXT/UTF8
Идентификатор кодека/Информация : UTF-8 Plain Text
Продолжительность : 15 м. 25 с.
Битрейт : 37 бит/сек
ElementCount : 171
Размер потока : 4,27 Кбайт (0%)
Язык : Japanese
Default : Нет
Forced : Нет
Текст #18
Идентификатор : 21
Формат : UTF-8
Идентификатор кодека : S_TEXT/UTF8
Идентификатор кодека/Информация : UTF-8 Plain Text
Продолжительность : 15 м. 24 с.
Битрейт : 47 бит/сек
ElementCount : 160
Размер потока : 5,31 Кбайт (0%)
Язык : Korean
Default : Нет
Forced : Нет
Текст #19
Идентификатор : 22
Формат : UTF-8
Идентификатор кодека : S_TEXT/UTF8
Идентификатор кодека/Информация : UTF-8 Plain Text
Продолжительность : 15 м. 24 с.
Битрейт : 33 бит/сек
ElementCount : 157
Размер потока : 3,74 Кбайт (0%)
Язык : Norwegian Bokmal
Default : Нет
Forced : Нет
Текст #20
Идентификатор : 23
Формат : UTF-8
Идентификатор кодека : S_TEXT/UTF8
Идентификатор кодека/Информация : UTF-8 Plain Text
Продолжительность : 15 м. 24 с.
Битрейт : 34 бит/сек
ElementCount : 153
Размер потока : 3,91 Кбайт (0%)
Язык : Dutch
Default : Нет
Forced : Нет
Текст #21
Идентификатор : 24
Формат : UTF-8
Идентификатор кодека : S_TEXT/UTF8
Идентификатор кодека/Информация : UTF-8 Plain Text
Продолжительность : 15 м. 24 с.
Битрейт : 37 бит/сек
ElementCount : 156
Размер потока : 4,21 Кбайт (0%)
Язык : Polish
Default : Нет
Forced : Нет
Текст #22
Идентификатор : 25
Формат : UTF-8
Идентификатор кодека : S_TEXT/UTF8
Идентификатор кодека/Информация : UTF-8 Plain Text
Продолжительность : 15 м. 24 с.
Битрейт : 37 бит/сек
ElementCount : 157
Размер потока : 4,28 Кбайт (0%)
Язык : Portuguese
Default : Нет
Forced : Нет
Текст #23
Идентификатор : 26
Формат : UTF-8
Идентификатор кодека : S_TEXT/UTF8
Идентификатор кодека/Информация : UTF-8 Plain Text
Продолжительность : 15 м. 24 с.
Битрейт : 39 бит/сек
ElementCount : 162
Размер потока : 4,45 Кбайт (0%)
Заголовок : Brazilian
Язык : Portuguese
Default : Нет
Forced : Нет
Текст #24
Идентификатор : 27
Формат : UTF-8
Идентификатор кодека : S_TEXT/UTF8
Идентификатор кодека/Информация : UTF-8 Plain Text
Продолжительность : 15 м. 24 с.
Битрейт : 42 бит/сек
ElementCount : 158
Размер потока : 4,75 Кбайт (0%)
Язык : Romanian
Default : Нет
Forced : Нет
Текст #25
Идентификатор : 28
Формат : UTF-8
Идентификатор кодека : S_TEXT/UTF8
Идентификатор кодека/Информация : UTF-8 Plain Text
Продолжительность : 15 м. 24 с.
Битрейт : 36 бит/сек
ElementCount : 146
Размер потока : 4,08 Кбайт (0%)
Язык : Swedish
Default : Нет
Forced : Нет
Текст #26
Идентификатор : 29
Формат : UTF-8
Идентификатор кодека : S_TEXT/UTF8
Идентификатор кодека/Информация : UTF-8 Plain Text
Продолжительность : 15 м. 24 с.
Битрейт : 97 бит/сек
ElementCount : 160
Размер потока : 11,0 Кбайт (0%)
Язык : Thai
Default : Нет
Forced : Нет
Текст #27
Идентификатор : 30
Формат : UTF-8
Идентификатор кодека : S_TEXT/UTF8
Идентификатор кодека/Информация : UTF-8 Plain Text
Продолжительность : 15 м. 24 с.
Битрейт : 38 бит/сек
ElementCount : 155
Размер потока : 4,37 Кбайт (0%)
Язык : Turkish
Default : Нет
Forced : Нет
Текст #28
Идентификатор : 31
Формат : UTF-8
Идентификатор кодека : S_TEXT/UTF8
Идентификатор кодека/Информация : UTF-8 Plain Text
Продолжительность : 15 м. 24 с.
Битрейт : 42 бит/сек
ElementCount : 160
Размер потока : 4,77 Кбайт (0%)
Заголовок : Simplified
Язык : Chinese
Default : Нет
Forced : Нет
Текст #29
Идентификатор : 32
Формат : UTF-8
Идентификатор кодека : S_TEXT/UTF8
Идентификатор кодека/Информация : UTF-8 Plain Text
Продолжительность : 15 м. 24 с.
Битрейт : 39 бит/сек
ElementCount : 159
Размер потока : 4,45 Кбайт (0%)
Заголовок : Traditional
Язык : Chinese
Default : Нет
Forced : Нет

Список серий

01. Sonnie's Edge
02. Three Robots
03. The Witness
04. Suits
05. Sucker of Souls
06. When The Yogurt Took Over
07. Beyond the Aquila Rift
08. Good Hunting
09. The Dump
10. Shape-Shifters
11. Helping Hand
12. Fish Night
13. Lucky 13
14. Zima Blue
15. Blind Spot
16. Ice Age
17. Alternate Histories
18. Secret War
Скриншоты:
       

Дополнительные скриншоты:

         

Орлов Владимир

Post 15-Sep-2019 00:02

[Quote]

--Тёмный кристалл: Эпоха сопротивления / The Dark Crystal: Age of Resis-- Информация о сериале
Название: Тёмный кристалл: Эпоха сопротивления
Оригинальное название: The Dark Crystal: Age of Resistance
Год выхода: 2019
Жанр: Фэнтези, приключения
Страна: Великобритания, США
Перевод: Дублированный | Пифагор по заказу Netflix
Продолжительность: 10 x ~ 50 мин
Режиссер: Луи Летерье--В ролях: Аквафина, Катрина Балф, Хелена Бонем Картер, Дэйв Чэпман, Чарли Кондо, Тарон Эгертон, Натали Эммануэль, Аня Тейлор-Джой и др.--О сериале: Гелфлинги Райан, Бриа и Дит выясняют, что зловещие скексисы повредили волшебный кристалл, подпитывающий жизнь в мире. Именно благодаря им начинается восстание, способное уничтожить жестоких захватчиков.-- --Файл
Качество: WEBRip 720p
Видео: AVC, 1280x720 (16:9), 23.976 fps, ~ 3000 kbps
Аудио №1: Русский AC3 5.1, 48 kHz, 640 kbps
Аудио №2: Английский AC3 5.1, 48 kHz, 640 kbps
Субтитры: Русские (Full), английские (SDH) + Multi
--

Скриншоты

     

Орлов Владимир

Post 14-Sep-2019 23:56

[Quote]

--Тёмный кристалл: Эпоха сопротивления / The Dark Crystal: Age of Resis-- Информация о сериале
Название: Тёмный кристалл: Эпоха сопротивления
Оригинальное название: The Dark Crystal: Age of Resistance
Год выхода: 2019
Жанр: Фэнтези, приключения
Страна: Великобритания, США
Перевод: Дублированный | Пифагор по заказу Netflix
Продолжительность: 10x ~ 50 мин
Режиссер: Луи Летерье--В ролях: Аквафина, Катрина Балф, Хелена Бонем Картер, Дэйв Чэпман, Чарли Кондо, Тарон Эгертон, Натали Эммануэль, Аня Тейлор-Джой и др.--О сериале: Гелфлинги Райан, Бриа и Дит выясняют, что зловещие скексисы повредили волшебный кристалл, подпитывающий жизнь в мире. Именно благодаря им начинается восстание, способное уничтожить жестоких захватчиков.-- --Файл
Качество: WEBRip 1080p | The.Dark.Crystal.Age.Of.Resistance.S01E01.iNTERNAL.1080p.WEB.X264-AMRAP
Видео: MPEG-4 AVC, 1920x1080, ~5620 kbps, 23,976 fps
Звук#1: русский, E-AC3, 5.1 ch, 48 kHz, 640 kbps
Звук#2: английский, E-AC3, 5.1 ch, 48 kHz, 768 kbps
Субтитры: русские (форс., полные), английские (SDH)
--

Тех.данные видеофайла

Общее
Уникальный идентификатор : 226688040725374507460033318131445552534 (0xAA8A8750267CF81682F0A39AE9F45596)
Полное имя : G:Torrent2TheDarkCrystalAgeofResistanceS01TheDarkCrystalAgeofResistanceS01x01.mkv
Формат : Matroska
Версия формата : Version 4 / Version 2
Размер файла : 2,95 Гбайт
Продолжительность : 1 ч. 1 м.
Режим общего битрейта : Переменный
Общий поток : 6917 Кбит/сек
Дата кодирования : UTC 2019-08-30 09:38:01
Программа кодирования : mkvmerge v9.5.0 ('Quiet Fire') 64bit
Библиотека кодирования : libebml v1.3.4 + libmatroska v1.4.5
Видео
Идентификатор : 1
Формат : AVC
Формат/Информация : Advanced Video Codec
Профиль формата : Main@L4
Настройки формата : CABAC / 3 Ref Frames
Параметр CABAC формата : Да
Параметр RefFrames формата : 3 кадра
Идентификатор кодека : V_MPEG4/ISO/AVC
Продолжительность : 1 ч. 1 м.
Вид битрейта : Переменный
Битрейт : 5620 Кбит/сек
Максимальный битрейт : 8430 Кбит/сек
Ширина : 1920 пикселей
Высота : 1080 пикселей
Соотношение сторон : 16:9
Режим частоты кадров : Постоянный
Частота кадров : 23,976 (24000/1001) кадра/сек
Цветовое пространство : YUV
Субдискретизация насыщенности : 4:2:0
Битовая глубина : 8 бит
Тип развёртки : Прогрессивная
Бит/(Пиксели*Кадры) : 0.113
Размер потока : 2,35 Гбайт (80%)
Библиотека кодирования : x264 core 148 r2715 7e75228
Настройки программы : cabac=1 / ref=3 / deblock=1:0:0 / analyse=0x1:0x111 / me=umh / subme=10 / psy=1 / psy_rd=1.00:0.00 / mixed_ref=1 / me_range=24 / chroma_me=1 / trellis=2 / 8x8dct=0 / cqm=0 / deadzone=21,11 / fast_pskip=1 / chroma_qp_offset=-2 / threads=8 / lookahead_threads=1 / sliced_threads=0 / nr=0 / decimate=1 / interlaced=0 / bluray_compat=0 / stitchable=1 / constrained_intra=0 / bframes=2 / b_pyramid=0 / b_adapt=2 / b_bias=0 / direct=3 / weightb=1 / open_gop=0 / weightp=2 / keyint=250 / keyint_min=23 / scenecut=0 / intra_refresh=0 / rc_lookahead=48 / rc=2pass / mbtree=1 / bitrate=5620 / ratetol=1.0 / qcomp=0.50 / qpmin=6 / qpmax=51 / qpstep=4 / cplxblur=20.0 / qblur=0.5 / vbv_maxrate=8430 / vbv_bufsize=11240 / nal_hrd=vbr / filler=0 / ip_ratio=1.40 / aq=1:1.00
Язык : English
Default : Да
Forced : Нет
Аудио #1
Идентификатор : 2
Формат : E-AC-3
Формат/Информация : Enhanced Audio Coding 3
Параметр Endianness формата : Big
Идентификатор кодека : A_EAC3
Продолжительность : 1 ч. 1 м.
Вид битрейта : Постоянный
Битрейт : 640 Кбит/сек
Каналы : 6 каналов
Расположение каналов : Front: L C R, Side: L R, LFE
Частота : 48,0 КГц
Частота кадров : 187,500 кадров/сек (256 SPF)
Метод сжатия : С потерями
Размер потока : 280 Мбайт (9%)
Заголовок : rus
Язык : Russian
Default : Да
Forced : Нет
Аудио #2
Идентификатор : 3
Формат : E-AC-3
Формат/Информация : Enhanced Audio Coding 3
Профиль формата : E-AC-3+Atmos / E-AC-3
Параметр Endianness формата : Big
Идентификатор кодека : A_EAC3
Продолжительность : 1 ч. 1 м.
Вид битрейта : Постоянный
Битрейт : 768 Кбит/сек
Каналы : 15 objects / 6 каналов
Расположение каналов : 15 objects / Front: L C R, Side: L R, LFE
Частота : 48,0 КГц
Частота кадров : 187,500 кадров/сек (256 SPF)
Метод сжатия : С потерями
Размер потока : 336 Мбайт (11%)
Заголовок : eng
Язык : English
Default : Нет
Forced : Нет
Текст #1
Идентификатор : 4
Формат : UTF-8
Идентификатор кодека : S_TEXT/UTF8
Идентификатор кодека/Информация : UTF-8 Plain Text
Продолжительность : 2 м. 53 с.
Битрейт : 3 бит/сек
ElementCount : 2
Размер потока : 68,0 байт (0%)
Заголовок : rusForced
Язык : Russian
Default : Да
Forced : Да
Текст #2
Идентификатор : 5
Формат : UTF-8
Идентификатор кодека : S_TEXT/UTF8
Идентификатор кодека/Информация : UTF-8 Plain Text
Продолжительность : 59 м. 42 с.
Битрейт : 74 бит/сек
ElementCount : 746
Размер потока : 32,5 Кбайт (0%)
Заголовок : rusFull
Язык : Russian
Default : Нет
Forced : Нет
Текст #3
Идентификатор : 6
Формат : UTF-8
Идентификатор кодека : S_TEXT/UTF8
Идентификатор кодека/Информация : UTF-8 Plain Text
Продолжительность : 58 м. 27 с.
Битрейт : 68 бит/сек
ElementCount : 1049
Размер потока : 29,2 Кбайт (0%)
Заголовок : engSDH
Язык : English
Default : Нет
Forced : Нет

Скриншоты

                   

Clavik

Post 14-Sep-2019 21:53

[Quote]

Южный Парк / South Park (1997-2019) WEB-DL - Производство: США
Жанр: Комедия, Для взрослых
Режиссер: Трей Паркер, Мэтт Стоун
Описание:
Южный Парк / South Park — американский мультсериал, созданный Мэттом Стоуном и Треем Паркером. Иногда название переводится также как «Саут-Парк» или «Саус-Парк». Выпускается кабельным телеканалом Comedy Central с 1997 года. Основу сюжета составляют приключения четырёх мальчиков и их друзей, живущих в маленьком городке Саут-Парк, штат Колорадо. Сериал высмеивает недостатки американской культуры и текущие мировые события, а также подвергает критике множество глубоких убеждений и табу посредством пародии и чёрного юмора. «Южный Парк» выходит поздно вечером и позиционируется как мультфильм для взрослых.

Возраст: 18+ (зрителям, достигшим 18 лет. запрещено для детей)
Рейтинг MPAA: R (лицам до 17 лет обязательно присутствие взрослого)
Релиз от: Didimkin87
Продолжительность: ~00:22:00 серия
Качество видео: WEB-DL
Перевод: Многоголосый профессиональный (Присутствует ненормативная лексика)
Озвучка / Автор перевода: MTV Russia (1-13 сезоны) | VO-production (14-16 сезоны) | Paramount Comedy (17-22)
Субтитры: отсутствуют
Видео: AVC/H.264, от 1280x718 до 1916х1076, ~4000 kbps
Аудио: AAC, 1 ch, 128 Kbps - Русский

Список серий:

Сезон 1
1-01 Картман и анальный зонд.mkv
1-02 Набор веса 4000.mkv
1-03 Вулкан.mkv
1-04 Большой Эл-гомосек и его гомояхта.mkv
1-05 Слон занимается любовью со свиньёй.mkv
1-06 Смерть.mkv
1-07 Коньюнктивит.mkv
1-08 Дэмиен.mkv
1-09 Кошмарный Марвин.mkv
1-10 Мистер Хэнки, Рождественская Какашка.mkv
1-11 Ринопластическая клиника Тома.mkv
1-12 Меха-Стрейзанд.mkv
1-13 Мамаша Картмана - грязная шлюха.mkv
Сезон 2
2-01 Не без моего ануса.mkv
2-02 Мамаша Картмана по-прежнему грязная шлюха.mkv
2-03 Куролюб.mkv
2-04 Пиписька Айка.mkv
2-05 Женщина с приросшим эмбрионом.mkv
2-06 Мексиканская зырящая лягушка с южной Шри-Ланки.mkv
2-07 Город на краю Вечности.mkv
2-08 Лето- отстой.mkv
2-09 Солёные шоколадные яйца Шефа.mkv
2-10 Ветрянка.mkv
2-11 Роджеру Эберту следует отказаться от жирной пищи.mkv
2-12 Домики для игр.mkv
2-13 Коровьи дни.mkv
2-14 Шефская помощь.mkv
2-15 Страшная рыбка.mkv
2-16 Счастливого рождества, Чарли Мэнсон!.mkv
2-17 Гномы.mkvv
2-18 Доисторический ледяной человек.mkv
Сезон 3
3-01 Джунгли-Шмунгли.mkv
3-02 Самопроизвольное возгорание.mkv
3-03 Суккуб.mkv
3-04 Твик против Крэйга.mkv
3-05 Яковозавры.mkv
3-06 Панда - Сексуальное Домогательство.mkv
3-07 Кошачья оргия.mkv
3-08 Два голых парня в горячей ванне.mkv
3-09 Иубилей.mkv
3-10 Чинмокомон.mkv
3-11 Кошмарный Марвин в космосе.mkv
3-12 Отличная загадка группы Korn о пиратском призраке.mkv
3-13 Увлекательная фонетика с обезьянкой.mkv
3-14 Алый знак веселья.mkv
3-15 Классические рождественские песни от мистера Хэнки.mkv
3-16 Господь,ты там, это я, Иисус.mkv
3-17 Всемирный флейтовый концерт.mkv
Сезон 4
4-01 Тупое преступление Картмана 2000.mkv
4-02 Зуб за зуб зубной феи 2000.mkv
4-03 Пятерняшки 2000.mkv
4-04 Тимми 2000.mkv 693,685,702
4-05 Пип.mkv
4-06 Картман вступает в NAMBLA.mkv
4-07 Тампоны из волос чароки.mkv
4-08 Шеф теряет терпение.mkv
4-09 Кое-что, что можно сделать пальцем.mkv
4-10 Попадают ли умственно отсталые в ад.mkv
4-11 Возможно.mkv
4-12 Четвёртый класс.mkv
4-13 Школьный портфель.mkv
4-14 Хелен Келлер! Мюзикл.mkv
4-15 Лагерь для толстяков.mkv
4-16 История о мерзком приставании.mkv
4-17 Очень дерьмовое Рождество.mkv
Сезон 5
5-01 Большая общественная проблема.mkv
5-02 Бой калек.mkv
5-03 Суперлучшие друзья.mkv
5-04 Скотт Тенорман должен умереть.mkv
5-05 Терренс и Филлип- обратная сторона успеха .mkv
5-06 Картманлэнд.mkv
5-07 Правильное использование презерватива.mkv
5-08 Полотенчик.mkv
5-09 У Осамы Бин Ладена вонючие штаны.mkv
5-10 Как питаться с помощью задницы.mkv
5-11 Сущность.mkv
5-12 Приходят соседи.mkv
5-13 Кенни умирает.mkv
5-14 Собственный эпизод Баттерса.mkv
Сезон 6
6-01 Забастовка уродов.mkv
6-02 Джаред и его СПИД.mkv
6-03 Асспен.mkv
6-04 Ждём новый фильм Терренса и Филлипа.mkv
6-05 Спасём телятину.mkv
6-06 Профессор Хаос.mkv
6-07 Это уже было у Симпсонов.mkv
6-08 Пылкая католическая любовь.mkv
6-09 Даёшь шляпу.mkv
6-10 А сиськи всё испортили.mkv
6-11 Похищение детей - это не смешно.mkv
6-12 Лестница в небо.mkv
6-13 Возвращение братства кольца в две башни.mkv
6-14 Концлагерь терпимости.mkv
6-15 Самый большой говнюк во вселенной.mkv
6-16 Я и моё будущее .mkv
6-17 Убить Санта Клауса.mkv
Сезон 7
7-01 Я люблю кантри.mkv
7-02 Сумасшедшие калеки.mkv
7-03 Туалетная бумага.mkv
7-04 Шоу закрыто.mkv
7-05 Толстая задница и тупая бошка.mkv
7-06 Маленькие борцы с преступностью.mkv
7-07 Алчность краснокожего.mkv
7-08 Голубой Саут-Парк.mkv
7-09 Тяжёлый христианский рок.mkv
7-10 Седой рассвет.mkv
7-11 Каса-Бонита.mkv
7-12 Всё о мормонах.mkv
7-13 Завязывай.mkv
7-14 Изюминки.mkv
7-15 Рождество в Канаде.mkv
Сезон 8
8-01 Славные времена с оружием.mkv
8-02 ШИКАРН-О.mkv
8-03 Up the Down Steroid .mkv
8-04 Страсти жидовы.mkv
8-05 Вас только что в л,и в_ж.mkv
8-06 Goobacks.mkv
8-07 Джефферсоны.mkv
8-08 Клизма и .mkv
8-09 Кое-что о том, как пришёл Wall-Mart.mkv
8-10 Детский сад.mkv
8-11 В погоне за рейтингами.mkv
8-12 Видеонабор тупой испорченной шлюхи.mkv
8-13 Удивительный дар Картмана.mkv
8-14 Рождество у лесных зверей.mkv
Сезон 9
9-01 Новая модная вагина мистера Гаррисона.mkv
9-02 Сдохни, хиппи, сдохни.mkv
9-03 Винг.mkv
9-04 Лучшие друзья навсегда.mkv
9-05 Всё ради поражения.mkv
9-06 Смерть Эрика Картмана.mkv
9-07 День эрекции.mkv
9-08 За два дня до послезавтра.mkv
9-09 Марджорин.mkv
9-10 Следи за яйцом!.mkv
9-11 Рыжие дети.mkv
9-12 Застрявший в чулане.mkv
9-13 Освободите Виллзиака.mkv
9-14 Кровавая Мэри.mkv
Сезон 10
10-01 Возвращение Шефа.mkv
10-02 Угроза самодовольства!.mkv
10-03 Мультипликационные войны. Часть 1.mkv
10-04 Мультипликационные войны. Часть 2.mkv
10-05 Миллион маленьких волокон.mkv
10-06 Челмедведосвин.mkv
10-07 Цццт.mkv
10-08 Занимайтесь любовью, а не Warcraftoм.mkv
10-09 Загадка о говне в писуаре.mkv
10-10 Учительница соблазняет мальчика.mkv
10-11 Ад на земле 2006.mkv
10-12 Вперед, Бог, вперед.mkv
10-13 Вперед, Бог, вперед XII.mkv
10-14 Кубок Стэнли.mkv
Сезон 11
11-01 Извинения перед Джесси Джексон.mkv
11-02 Картман сосёт.mkv
11-03 Вшивые приключения.mkv
11-04 Мандомба.mkv
11-05 Чудесная пасхальная история.mkv
11-06 D-Yikes!.mkv
11-07 Ночь живых бомжей.mkv
11-08 Синдром Туррета.mkv
11-09 Больше дерьма.mkv
11-10 Воображляндия.mkv
11-11 Воображляндия. Эпизод II .mkv
11-12 Воображляндия, эпизод III .mkv
11-13 Guitar Queer-o.mkv
11-14 Список.mkv
Сезон 12
12-01 Проблема с гландами.mkv
12-02 Новая внешность Бритни.mkv
12-03 Внушительные Буфера.mkv
12-04 Канада бастует.mkv
12-05 Фу, член!.mkv
12-06 Конец соединения.mkv
12-07 Улётное время.mkv
12-08 Китайская проблема.mkv
12-09 Шоу о раке груди.mkv
12-10 Пандемия.mkv
12-11 Пандемия 2 - Потрясение.mkv
12-12 О прошлой ночи.mkv
12-13 Мюзикл начальной школы.mkv
12-14 Ненаказуемый.mkv
Сезон 13
13-01 Кольцо.mkv
13-02 Енот.mkv
13-03 Маргаритавилль.mkv
13-04 Ешь, молись, выпукивай.mkv
13-05 Рыбные палочки.mkv
13-06 Сосновое дерби.mkv
13-07 Жирная Борода.mkv
13-08 Мёртвые знаменитости.mkv
13-09 Проститутка Баттерса.mkv
13-10 W.T.F.mkv
13-11 Китовые шлюхи.mkv
13-12 Слово на букву _П_.mkv
13-13 Танцы с гномами (Смерфами).mkv
13-14 Пи-Пи (Моча).mkv
Сезон 14
14-01 Сексуальное исцеление.mkv
14-02 История Скротти Макбугерболлза.mkv
14-03 Лечебные жареные цыплята.mkv
14-04 Увас 0 друзей.mkv
14-05 200.mkv
14-06 201.mkv
14-07 Покалеченное (хромое) лето.mkv
14-08 Бедный и глупый.mkv
14-09 Это Джерси!.mkv
14-10 Новчало.mkv
14-11 Енот2 - Непредусмотрительность.mkv
14-12 Восхождение Мистериона.mkv
14-13 Енот против Енота и команды.mkv
14-14 Крем - Фреш.mkv
Сезон 15
15-01 Человекайпадоножка.mkv
15-02 Смехобот.mkv
15-03 Королевский пуддинг.mkv
15-04 T.M.I.mkv
15-05 Спортивная ассоциация наркозависимых детей.mkv
15-06 Сити- Суши .mkv
15-07 Стареешь .mkv
15-08 Ассбургеры.mkv
15-09 Последний из Мексикан .mkv
15-10 На крючке .mkv
15-11 Бродвейские разборки .mkv
15-12 1% .mkv
15-13 День благодарения на историческом канале .mkv
15-14 Бедный ребёнок.mkv
Сезон 16
16-01 Перевёрнутая наездница.mkv
16-02 Деньги в обмен на золото.mkv
16-03 ФейсХиллинг .mkv
16-04 Жидокабра.mkv
16-05 Баттерсбол.mkv
16-06 Лучше бы я никогда не ездил на канатную дорогу.mkv
16-07 Картман находит любовь .mkv
16-08 Сарказмобол .mkv
16-09 Поднимая планку .mkv
16-10 Внебезопасность.mkv
16-11 Голос предков.mkv
16-12 A Nightmare On Face Time.mkv
16-13 A Scause for Applause .mkv
16-14 Обама победил .mkv
Сезон 17
17-01 Да хранит тебя правительство .mkv
17-02 Познавательная снафф-порнуха .mkv
17-03 Война миров Зиммерман .mkv
17-04 Дети Готы 3_Рассвет позеров .mkv
17-05 Приручая киску .mkv
17-06 Рыжая корова .mk
17-07 Чёрная пятница .mkv
17-08 Песнь зада и пламени .mkv
17-09 Сиськи и драконы .mkv
17-10 Хоббит .mkv
Сезон 18
18-01 Себе пофинансируй .mkv
18-02 Безглютеновая Эбола .mkv
18-03 Циска .mkv
18-04 Таксинвалид .mkv
18-05 Волшебный Куст .mkv
18-06 Условно-бесплатное - не бесплатно .mkv
18-07 Наказанный Виртуальной реальностью .mkv
18-08 Петушиная магия .mkv
18-09 # REHASH.mkv
18-10 # Счастливых Голограмм.mkv
Сезон 19
19-01 Ослепительная и отважная.mkv
19-02 Что стало с моей страной.mkv
19-03 Городская часть города.mkv
19-04 Ты не Йелпишь.mkv
19-05 Безопасное пространство .mkv
19-06 Твик+Крейг.mkv
19-07 Шаловливые ниндзя.mkv
19-08 Спонсорский контент.mkv
19-09 Правда и реклама.mkv
19-10 Последнее правосудие П.К. Директора.mkv
Сезон 20
20-01 Ягодки - вспоминашки .mkv
20-02 Охота на шалав.mkv
20-03 Проклятый.mkv
20-04 Сосиски наголо.mkv
20-05 Клизма и датчане .mkv
20-06 Форт-Коллинс.mkv
20-07 О, божечки.mkv
20-08 Только для членов.mkv
20-09 Не смешно.mkv
20-10 Покончим с последовательностью .mkv
Сезон 21
21-01 Реновации по-белому.mkv
21-02 Убери.mkv
21-03 Праздничный выпуск.mkv
21-04 Приквел франшизы.mkv
21-05 Хуммели и героин.mkv
21-06 Ведьмучьи дети.mkv
21-07 Двойная упёртость.mkv
21-08 Тихоходки.mkv
21-09 Запредельная политкорректность.mkv
21-10 Тухлый помидор.mkv
Сезон 22
22-01 Мертвые дети.mkv
22-02 Мальчик и священник.mkv
22-03 Проблема с какашкой.mkv
22-04 Фермы Надёжности.mkv
22-05 Покатушки.mkv
22-06 Настало время сурьёзности.mkv
22-07 А как же сурьёзность, господа.mkv
22-08 Коробка Будды.mkv
22-09 Невыполненный.mkv
22-10 Велопарад .mkv
Скриншоты:
       

Clavik

Post 01-Sep-2019 23:34

[Quote]

Тёмный кристалл: Эпоха сопротивления / The Dark Crystal: Age of Resistance (2019) WEB-DLRip - Производство: Великобритания, США / Jim Henson Company, The, NetFlix
Жанр: Фэнтези, Приключения
Режиссер: Луи Летерье
Актеры: Аквафина, Катрина Балф, Хелена Бонем Картер, Уоррик Броунлоу-Пайк, Дэйв Чэпман, Чарли Кондо, Харрис Дикинсон, Элис Диннеан, Натали Дормер, Тэрон Эджертон и др.
Описание:
Гелфлинги Райан, Бриа и Дит выясняют, что зловещие скексисы повредили волшебный кристалл, подпитывающий жизнь в мире. Именно благодаря им начинается восстание, способное уничтожить жестоких захватчиков.
Действие сериала разворачивается за несколько лет до событий фильма 1982 года «Тёмный кристалл».

Продолжительность: ~ 01:00:00 серия
Качество видео: WEB-DLRip
Перевод: Дублированный (Пифагор)
Субтитры: русские, английские
Реклама: отсутствует
Видео: AVC/H.264, 1280x576, ~4230 kbps
Аудио 1: AC3, 6 ch, 640 kbps - русский
Аудио 2: AC3, 6 ch, 640 kbps - английский

MediaInfo:

General
Unique ID : 237303084369359213353334041915291501677 (0xB286E95F28595C738B119140600E846D)
Complete name : 01. Конец. Начало. Всё равно.mkv
Format : Matroska
Format version : Version 4
File size : 2.37 GiB
Duration : 1 h 1 min
Overall bit rate : 5 541 kb/s
Movie name : End. Begin. All the Same
Encoded date : UTC 2019-09-01 09:46:11
Writing application : mkvmerge v8.3.0 ('Over the Horizon') 32bit
Writing library : libebml v1.3.1 + libmatroska v1.4.2
Video
ID : 1
Format : AVC
Format/Info : Advanced Video Codec
Format profile : [url=mailto:High@L3.1]High@L3.1[/url]
Format settings : CABAC / 2 Ref Frames
Format settings, CABAC : Yes
Format settings, Reference : 2 frames
Format settings, GOP : M=3, N=46
Codec ID : V_MPEG4/ISO/AVC
Duration : 1 h 1 min
Bit rate mode : Constant
Bit rate : 4 230 kb/s
Width : 1 280 pixels
Height : 576 pixels
Display aspect ratio : 2.222
Frame rate mode : Constant
Frame rate : 23.976 (23976/1000) FPS
Original frame rate : 23.000 FPS
Color space : YUV
Chroma subsampling : 4:2:0
Bit depth : 8 bits
Scan type : Progressive
Bits/(Pixel*Frame) : 0.239
Stream size : 1.82 GiB (77%)
Default : Yes
Forced : No
Audio #1
ID : 2
Format : AC-3
Format/Info : Audio Coding 3
Commercial name : Dolby Digital
Codec ID : A_AC3
Duration : 1 h 1 min
Bit rate mode : Constant
Bit rate : 640 kb/s
Channel(s) : 6 channels
Channel layout : L R C LFE Ls Rs
Sampling rate : 48.0 kHz
Frame rate : 31.250 FPS (1536 SPF)
Bit depth : 16 bits
Compression mode : Lossy
Stream size : 280 MiB (12%)
Title : Dub
Language : Russian
Service kind : Complete Main
Default : Yes
Forced : No
Audio #2
ID : 3
Format : AC-3
Format/Info : Audio Coding 3
Commercial name : Dolby Digital
Codec ID : A_AC3
Duration : 1 h 1 min
Bit rate mode : Constant
Bit rate : 640 kb/s
Channel(s) : 6 channels
Channel layout : L R C LFE Ls Rs
Sampling rate : 48.0 kHz
Frame rate : 31.250 FPS (1536 SPF)
Bit depth : 16 bits
Compression mode : Lossy
Stream size : 280 MiB (12%)
Language : English
Service kind : Complete Main
Default : No
Forced : No
Text #1
ID : 4
Format : UTF-8
Codec ID : S_TEXT/UTF8
Codec ID/Info : UTF-8 Plain Text
Duration : 59 min 42 s
Bit rate : 74 b/s
Count of elements : 746
Stream size : 32.5 KiB (0%)
Language : Russian
Default : No
Forced : No
Text #2
ID : 5
Format : UTF-8
Codec ID : S_TEXT/UTF8
Codec ID/Info : UTF-8 Plain Text
Duration : 58 min 27 s
Bit rate : 68 b/s
Count of elements : 1049
Stream size : 29.2 KiB (0%)
Language : English
Default : No
Forced : No
Скриншоты:
       

Clavik

Post 24-Aug-2019 10:37

[Quote]

Гигантский сборник - 600 мультфильмов / Giant 600 Cartoon Collection- Страна: США, СССР
Жанр: мультфильм, приключения, комедия
Продолжительность: ~60:00:00 (05:55:48 + 04:53:39 + 06:27:00 + 06:15:44 + 05:01:27 + 05:50:06 + 06:38:36 + 04:33:19 + 06:19:00 + 05:43:01 + 05:35:39 + 04:29:36)
Год выпуска сборника: 2008
Перевод: отсутствует
Русские субтитры: нет
Режиссеры: Дейв Флейсчер, Сеймоур Кнейтел, Джозеф Барбера, Уиллиам Ханна, Чарлес Джей. Коррелл, Фриман Ф. Госден, Фил Бутх, Дик Дарлей, Роберт МкКимсон, Паул Терри / Dave Fleischer, Seymour Kneitel, Joseph Barbera, William Hanna, Charles J. Correll, Freeman F. Gosden, Phil Booth, Dick Darley, Robert McKimson, Paul Terry
Описание: Более чем 60 Часов Развлечения! Огромная компиляция ранних короткометражных мультфильмов! Крупнейшая коллекция классических мультфильмов, которая когда-либо собиралась в одном пакете.
Качество: DVD9
Формат: DVD-video
Видео: NTSC 4:3 (720x480), 29.97fps, MPEG2 ~2700kbps
Аудио: Английский 48.0 KHz, AC3, 2 ch, 192 kbps
Субтитры: отсутствуют

Полные списки мультфильмов по дискам:

Полные списки мультфильмов по дискам:

Диск 1

DISC 1
Includes Popeye and Betty Boop
Popeye (30):
Aladdin and his Wonderful Lamp
Ancient Fistory
Assault and Flattery
Big Bad Sindbad
Bride and Gloom
Cookin' With Gags
Crystal Brawl
Customers Wanted
A Date to Skate
Floor Flusher
Fright To The Finish
Gopher Spinach
Greek Mirthology
A Haul In One
I Don't Scare
Insect to Injury
Let's Sing w/ Popeye
Me Musical Nephews
Nearlyweds
Out To Punch
Parlez Vous Woo
Patriotic Popeye
Popeye For President
Popeye Meets Ali Baba's Forty Thieves
Popeye's 20th Anniversary
Private Eye Popeye
Shuteye Popeye
Spooky Swabs
Spree Lunch
Taxi-Turvy
Betty Boop (22):
Betty Boop and Little Jimmy
Betty Boop and the Little King
Betty Boop with Henry, The Funniest Living American
Betty Boop's Crazy Inventions
Betty Boop's Ker-Choo
Betty Boop's Rise to Fame
Betty in Blunderland
The Candid Candidate
Ding Dong Doggie
Grampy's Indoor Outing
Hot Air Salesman
Is My Palm Read?
Judge For A Day
A Language All My Own
Little Nobody
A Little Soap and Water
Making Friends
My Friend the Monkey
On With The New
Pudgy Picks a Fight
Pudgy Takes a Bow-Wow
So Does An Automobile

Диск 2

DISC 2
Includes Tom & Jerry, Mr Piper, The Three Stooges, Casper, Herman, Gabby,
Little Audrey, Little LuLu, Felix the Cat and Mr. Bang, Katrinka & The
Skipper
Tom & Jerry (5):
Barnyard Bunk
Jolly Fish
Pencil Mania
A Spanish Twist
The Tuba Tooter
Mr Piper (7):
Ali Baba
Brave Molly
Hasty and the Princess
The Kindhearted Girl
The Magic Horn
The Proud Princess
The Three Sisters
The Three Stooges (14):
Bee My Honey
Behind the 8 Ball Express
Dizzy Doodlers
Flat Heads
Flycycle Built for Two
Get That Snack Shack Off the Track
Goldriggers of '49
Hairbrained Barbers
Litter Bear
The Littlest Martian
The Noisy Silent Movie
Tin Horn Dude
Tree Nuts
Turnabout is Bearplay
Casper (3):
Boo Moon
The Friendly Ghost
There's Good Boos Tonight
Herman (3):
Cheese Burglar
The Henpecked Rooster
Naughty But Mice
Gabby (4):
All's Well
Gabby Goes Fishing
Fire Cheese
King for a Day
Little Audrey (3):
Goofy Goofy Gander
The Lost Dream
Tarts and Flowers
Little LuLu (2):
Bargain Counter Attack
Cad and Caddy
Felix the Cat (2):
April Maze
The Goose that Laid the Golden Egg
Mr. Bang, Katrinka, The Skipper (3)
Toonerville Picnic
Toonerville Trolley
Trolley Ahoy

Диск 3

Other (53):
All's Fair At The Fair
Along Came A Duck
Ants In The Plants
Boy Meets Dog
A Car-Tune Portrait
Circus Capers
The Cob Web Hotel
Comin' Round The Mountain
Crazytown
Cupid Gets His Man
The Enchanted Square
The Fresh Vegetable Mystery
The Golden State
Goofy Goat Antics
Hawaiian Birds
Hector's Hectic Life
In The Museum
It's a Greeks Life
Jingles
Les Escargots
Little Brown Jug
Little Hawk
The Little Stranger
Marriage Wows
Music Academy
A Mutt In The Rut
Nursery Scandal
Once Upon A Time
Palm Court Orchestra
Pantry Panic
Parrotville Old Folks
Parrotville Post Office
Peeping Penguins
Picnic Panic
Play Safe
Professor YaYa's Memoirs
Quack-A-Doodle-Doo
The Queen of Hearts
Red Riding Hood
Scotty Finds a Home
Snow Foolin'
The Snow Man
Spinning Mice
The Story of Time
Sultan Pepper
The Sunshine Makers
The Talking Magpies
Time For Love
Vacuum Cleaner
Westward Whoa
Winter Draws On
Wolf! Wolf!
You Can't Shoe a Horsefly

Диск 4

DISC 4
Includes Betty Boop, The Three Stooges, Various Christmas Cartoons and
more!
Betty Boop (19):
Baby Be Good
Betty Boop and Grampy
Happy You and Merry Me
House Cleaning Blues
The Impractical Joker
More Pep
Musical Mountaineers
No! No! A Thousand Times No!!
Not Now
Poor Cinderella
The Scared Crows
A Song a Day
Stop That Noise
Swat the Fly
Taking the Blame
Training Pigeons
We Did It
Whoops! I'm a Cowboy
You're Not Built That Way
The Three Stooges (22):
Baby Sitters
The Bigger They Are, The Harder They Hit
Call of the Wile
Dentist the Menace
Dinopoodi
Droll Weevil
Gagster Dragster
Goofy Gondoliers
Kangaroo Catchers
Lastest Gun in the West
Let's Shoot the Player Piano Player
Mummies Boys
No News is Good News
Safari So Good
Stooges in the Woods
Tee for Three
There Auto Be a Law
Thimk or Thwim
Three Jacks & a Beanstalk
To Kill a Clockingbird
Who's Lion
Woodsman Bear That Tree
Christmas Cartoons (8):
The Candlemaker
Christmas Comes But Once a Year
Christmas Night
A Christmas Tree
The Christmas Visitor
Hector's Hectic Life
Jack Frost
Rudolph, the Red Nosed Reindeer
Other (5):
The Big Bad Wolf
Mary's Little Lamb
Old Mother Hubbard
Simple Simon
The Three Bears
Tom Thumb

Диск 5

DISC 5
Includes Tom & Jerry, Felix the Cat, Popeye, Casper, Gabby, Little LuLu,
Little Audrey & More!
Tom & Jerry (5):
A Fireman's Life
In the Bag
Pots and Pans
Rocketeers
A Swiss Trick
Felix the Cat (8):
Bold King Cole
Felix All Puzzled
Felix Doubles for Darwin
Felix Finds Out
Felix Gets the Can
Felix in Hollywood
Felix Monkeys with Magic
Neptune Nonsense
Popeye (6):
I Never Changes My Altitude
I'm in the Army Now
Little Swee'Pea
Me Feelins is Hurt
The Paneless Window Washer
Quiet! Pleeze
Casper (2):
A Haunting We Will Go
Spooking About Africa
Gabby (3):
It's a Hap-Hap-Happy Day
Swing Cleaning
Two for the Zoo
Little Lulu (4):
A Bout with a Trout
Chick and Double Chick
The Dog Show Off
A Scout with the Gout
Oswald Rabbit (3):
Great Guns
The Mechanical Cow
The Plumber
Little Audrey (2):
The Seapreme Court
Song of the Birds
Molly Moo-Cow (1):
Molly Moo-Cow and the Butterflies
Alice (3):
Alice Rattled by Rats
Alice's Tin Pony
Alice the Toreador
Other (7):
The Cat's Canary
Frisky Frolics
Frozen Frolics
Humpty Dumpty
Magic Mummy
Merry Kittens
The Toyland Caper

Диск 6

DISC 6
Includes Hunky & Spunky, Pied Piper & more!
Hunky & Spunky (6):
Always Kickin'
The Barnyard Brat
Hunky and Spunky
A Kick in Time
Snubbed by a Snob
Vitamin Hay
Pied Piper (4):
Ahmed the Merchant
The Three Brothers
The Tin Soldier
The Wild Swans
Other (42):
The Big Drip
The Big Flame Up
Bimbo's Auto
Bunny Mooning
Chicken a la King
Christopher Columbus
A Coach for Cinderella
Dancing on the Moon
David & Goliath
Dick Whittington's Cat
An Elephant Never Forgets
The Emerald Isle
The Enchanted Horse
Farm Foolery
Gobs of Fun
Granite Hotel
Helter Swelter
Little Red School Mouse
The Lone Star State
The Mild West
Much Ado About Mutton
Old MacDonald Had a Farm
Our Funny Finny Friends
Paul Bunyan
Pest Pupil
Pleased to Eat You
Robin Hood
Robin Hood Rides Again
Scrappily Married
A Self Made Mongrel
The Ski's the Limit
Sing or Swim
Small Fry
Somewhere in Dreamland
The Stork Market
Suddenly It's Spring
The Tears of an Onion
Tom Sawyer
Toys Will Be Toys
Treasure Island
The Trojan Horse
Yankee Doodle Donkey

Диск 7

DISC 7
Includes Calvin and the Colonel, Clutch Cargo, Felix, Aesop's Fables and
more!
Calvin And The Colonel (4):
The TV Job
The Polka Dot Bandit
Sister Sue's Sweetheart
Thanksgiving Dinner
Clutch Cargo (15):
The Arctic Bird Giant, Episodes 6-10
The Dinky Incas Episodes, 136-140
Kangaroo Express Episodes, 141-145
Aesop's Fables (10):
Animal Fair
Cinderella Blues
A Close Call
King of Bugs
Making 'Em Move
Opening Night
Snapping the Whip
A Toytown Tale
Watered Stock
Where Friendship Ceases
Felix (11):
Felix Gets Broadcasted
Felix Dines and Pines
Felix Turns the Tide
Non-Stop Flight
Polly-Tics
Felix in Arabiantics
Felix in Forty Winks
Felix in Outdoor Indoor
Felix in Skulls and Sculls
Felix Woos Whoopee
Futuritzy
Space Angel (5):
Ghost and Crystal Mace Episodes 236 - 240
Blackie the Lamb (2):
Sheep Shape
No Mutton for Nuttin'
Snap, Crackle & Pop (1):
Breakfast Pals
Cinderella (1):
A Ride for Cinderella
Little Gray Neck (1):
Little Gray Neck

Диск 8

DISC 8
Includes Fraidy Cat, Gumby, Hoppity Hooper, Wizard of Oz and Popeye
Fraidy Cat (9):
Choo Choo Fraidy
Cupd the Cat
Feline Fortune
Love is a Many Feathered Thing
Magic Numbers
Meaner Than a Junkyard Cat
Over the Wall Having a Ball
The Not-So-Nice Mice
The Cat for Hire
Gumby (14):
Gumbasia
Robot Rumpus
Gumby Concerto
Stuck on Books
Too Loo
Tricky Train
Toying Around
Baker's Tour
Gumby Crosses the Delaware
Gumby Racer
Sad King Ott's Daughter
The Black Knight
The Blockheads
The Glob
Hoppity Hooper (24):
Ring-A-Ding Spring Episodes 1-4
Rock 'n' Roll Star Episodes 5-8
Diamond Mine Episodes 9-12
Costra Nostra Episodes 13-16
Giant of Hootin' Holler Episodes 17-20
Detective Agency Episodes 21-24
The Wizard of Oz (1):
The Wizard of Oz
Moonbird (1):
Moonbird
Popeye (1):
Popeye Meets Sindbad the Sailor

Диск 9

DISC 9
Includes Farmer Alfalfa, Alice, Wacky & Packy, Herman the Mouse and many
more!
Ray Harryhausen (5):
The Story of Hansel and Gretel
The Story of King Midas
The Story of Little Red Riding Hood
Mother Goose Stories
The Story of Rapunzel
Farmer Alfalfa (12):
Farmer Alfalfa's Wayward Pup
In Dutch
In the Bag
She's in Again
Small Town Sheriff
Smart Salesman
Static
Through Thick and Thin
Two of a Trade
Why Argue
The Wind Jammer
Wooden Money
Alice (6):
Alice the Whaler
Alice in the Jungle
Alice the Jail Bird
Alice's Egg Plant
Alice's Orphan
Alice Solves the Puzzle
Wacky & Packy (9):
All in a Day's Work
The Bad News Cruise
In the Zoo
Let's Make a Bundle
Magic Mayhem
No Place Like Home
The Party Crashers
The New York Sweets
Wacky's Fractured Romance
Nicky Nome (2):
Peg-Leg Pedro
The Princess and the Pauper
Comicolor (4):
Happy Days
Balloon Land
Little Boy Blue
Brementown Musicians
Herman the Mouse (2):
Campus Capers
Sudden Fried Chicken
Van Beuren Studios (4):
Hunting Season
A Waif's Welcome
Molly Moo Cow and Rip Van Winkle
A Little Bird Told Me
Christmas Cartoons (6):
O' Come All Ye Faithful
Jingle Bells
Merry Christmas
Santa Claus' Story
Christmas Fairy Tale
The Little Match Girl

Диск 10

DISC 10
Includes Colonel Bleep, Christmas Cartoons & more!
Colonel Bleep (25):
Colonel Bleep's Arrival on Earth
The Fire Bomb
The Killer Whale
The Lunar Luger
Scratch & His Feathered Friends
The Pirate Plot
The Bat and the Bottle
The Wicked Web
The Evil Eye
Fire Water
Tunnel in Space
The Treacherous Trio
Knight of Death
The Hypnotic Helmets
Danger Below
Dangerous Holiday
The Ingenious Invention
The Invisible Gorilla
Manhunt on the Moon
Shadows of Suspicion
Squeak and the Terrible Termite
The Test of Friendship
The Prehistoric Present
The Treacherous Pirate
War in Robotland
George Pal Puppetoons (5):
Mr. Strauss Takes a Walk
A Date with Duke
The Ship of the Ether
Tubby the Tuba
Tulips Shall Grow
Mel-O-Toons (10):
Aladdin
Daniel Boone
The King's Trumpet
The Magic Clock
Miguel, the Mighty Matador
Noah's Ark
Panchito
Peppy Possum
The Seasons
Sinbad
Christmas Cartoons (9):
Little Christmas Burro
Santa's Pocket Watch
Howdy Doody's Christmas
Santa in Animal Land
The Night Before Christmas
The Little Lamb
A Christmas Dream
The Elf and Mr. Little
A Present for Santa Claus
Meany, Miny, and Moe (1):
House of Magic

Диск 11

DISC 11
Includes Calvin and the Colonel, Clutch Cargo, Felix the Cat, Tom & Jerry
and more!
Calvin and the Colonel (4):
Sycamore Lodge
Wheeling and Dealing
Nephew Newton's Fortune
The Costume Ball
Clutch Cargo (35):
The Friendly Head-Hunters Episodes 1-5
Desert Queen Episodes 11-15
The Pearl Pirates Episodes 16-20
Vanishing Gold Episodes 21-25
The Race Car Mystery Episodes 26-30
Swamp Swindlers Episodes 131-135
The Shipwreckers Episodes 146-150
Terrytoon (3):
Billy Mouse's Akwakade
The Black Duck
Sharpshooter
Felix the Cat (1):
Felix in Fairyland
Other (7):
Joe Glow the Firefly
Teacher's Pest
Ups and Down Derby
Joint Wipers
Adventures of Junior Raindrop
Destination Earth
To Spring

Диск 12

DISC 12
Includes The Three Stooges, Hoppity Hooper and more!
The Three Stooges (19):
Big Wind Bag
A Bull for Andamo
Chicken Delivery Boys
Clarence of Arabia
Fowl Weather Friend
Little Cheese Chaser
Little Old Bombmaker
Movie Scars
Ready, Jet Set, Go
Souperman
That Was the Wreck That Was
Three Astronutz
Thru Rain, Sleet and Snow
Wash My Line
Bearfoot Bandit
Curly's Bear
Watts My Lion
Hair of the Bear
Furry Fugitive
Hoppity Hooper (16):
Ghost Episodes 29-32
Masked Martin Episodes 33-36
Jumping Frog Contest Episodes 37-40
The Traffic Zone Episodes 41-44
Max Fleischer (6):
Greedy Humpty Dumpty
Hold It
In My Merry Oldsmobile
Kids in a Shoe
Little Lambkins
Musical Memories
Screen Songs (5):
Base Brawl
Funshine State
The Spring Song
Win, Place, and Showboat
When GI Johnny Comes Marching Home
Noveltoon (3):
Mite Makes Right
Leprechaun's Gold
Hep Cat Symphony
Other (1):
Going Places

DVDInfo

DVDInfo

Disc 01

Disc 01
Title: Giant.600.Cartoon.Collection.Disc.01
Size: 7.43 Gb ( 7 793 154,00 KBytes ) - DVD-9
Enabled regions: 1, 2, 3, 4, 5, 6, 7, 8
VTS_01 :
Play Length: 00:00:00
Video: NTSC 4:3 (720x480) VBR
VTS_02 :
Play Length: 05:55:48+{03:38:42}+{02:17:06}
Video: NTSC 4:3 (720x480) VBR
Audio:
Not specified, AC3, 2/0 (L,R) ch, 192 kbps, Delay 0 mSec

Disc 02

Disc 02
Title: Giant.600.Cartoon.Collection.Disc.02
Size: 7.18 Gb ( 7 527 382,00 KBytes ) - DVD-9
Enabled regions: 1, 2, 3, 4, 5, 6, 7, 8
VTS_01 :
Play Length: 00:00:00
Video: NTSC 4:3 (720x480) VBR
VTS_02 :
Play Length: 04:53:39+{00:30:15}+{00:43:44}+{01:14:13}+{00:25:15}+{00:20:52}+{00:27:38}+{00:20:36}+{00:14:56}+{00:14:48}+{00:21:20}
Video: NTSC 4:3 (720x480) VBR
Audio:
Not specified, AC3, 2/0 (L,R) ch, 192 kbps, Delay 0 mSec

Disc 03

Disc 03
Title: Giant.600.Cartoon.Collection.Disc.03
Size: 7.47 Gb ( 7 834 680,00 KBytes ) - DVD-9
Enabled regions: 1, 2, 3, 4, 5, 6, 7, 8
VTS_01 :
Play Length: 00:00:00
Video: NTSC 4:3 (720x480) VBR
VTS_02 :
Play Length: 06:27:00
Video: NTSC 4:3 (720x480) VBR
Audio:
Not specified, AC3, 2/0 (L,R) ch, 192 kbps, Delay 0 mSec

Disc 04

Disc 04
Title: Giant.600.Cartoon.Collection.Disc.04
Size: 7.25 Gb ( 7 603 606,00 KBytes ) - DVD-9
Enabled regions: 1, 2, 3, 4, 5, 6, 7, 8
VTS_01 :
Play Length: 00:00:00
Video: NTSC 4:3 (720x480) VBR
VTS_02 :
Play Length: 06:15:44+{02:02:42}+{02:21:23}+{00:43:36}+{01:08:02}+{06:15:44}
Video: NTSC 4:3 (720x480) VBR
Audio:
Not specified, AC3, 2/0 (L,R) ch, 192 kbps, Delay 0 mSec

Disc 05

Disc 05
Title: Giant.600.Cartoon.Collection.Disc.05
Size: 7.37 Gb ( 7 726 474,00 KBytes ) - DVD-9
Enabled regions: 1, 2, 3, 4, 5, 6, 7, 8
VTS_01 :
Play Length: 00:00:00
Video: NTSC 4:3 (720x480) VBR
VTS_02 :
Play Length: 05:01:27+{00:33:53}+{01:01:41}+{00:37:45}+{00:14:29}+{00:20:15}+{00:26:17}+{00:20:01}+{00:13:12}+{00:07:22}+{00:22:24}+{00:41:57}+{00:02:08}
Video: NTSC 4:3 (720x480) VBR
Audio:
Not specified, AC3, 2/0 (L,R) ch, 192 kbps, Delay 0 mSec

Disc 06

Disc 06
Title: Giant.600.Cartoon.Collection.Disc.06
Size: 7.56 Gb ( 7 929 440,00 KBytes ) - DVD-9
Enabled regions: 1, 2, 3, 4, 5, 6, 7, 8
VTS_01 :
Play Length: 00:00:00
Video: NTSC 4:3 (720x480) VBR
VTS_02 :
Play Length: 05:50:06+{00:43:30}+{00:06:27}+{00:08:48}+{00:06:14}+{00:08:07}+{02:27:39}+{00:51:17}+{00:45:59}+{00:24:53}+{00:07:10}
Video: NTSC 4:3 (720x480) VBR
Audio:
Not specified, AC3, 2/0 (L,R) ch, 192 kbps, Delay 0 mSec

Disc 07

Disc 07
Title: Giant.600.Cartoon.Collection.Disc.07
Size: 7.48 Gb ( 7 840 434,00 KBytes ) - DVD-9
Enabled regions: 1, 2, 3, 4, 5, 6, 7, 8
VTS_01 :
Play Length: 00:00:00
Video: NTSC 4:3 (720x480) VBR
VTS_02 :
Play Length: 06:38:36+{01:42:29}+{01:01:15}+{01:16:52}+{01:27:10}+{00:25:03}+{00:14:16}+{00:01:21}+{00:10:48}+{00:19:20}
Video: NTSC 4:3 (720x480) VBR
Audio:
Not specified, AC3, 2/0 (L,R) ch, 192 kbps, Delay 0 mSec

Disc 08

Disc 08
Title: Giant.600.Cartoon.Collection.Disc.08
Size: 6.90 Gb ( 7 230 844,00 KBytes ) - DVD-9
Enabled regions: 1, 2, 3, 4, 5, 6, 7, 8
VTS_01 :
Play Length: 00:16:04
Video: NTSC 4:3 (720x480) VBR
Audio:
Not specified, AC3, 2/0 (L,R) ch, 192 kbps, Delay 0 mSec
VTS_02 :
Play Length: 04:33:19+{00:57:54}+{01:14:10}+{02:03:29}+{00:07:43}+{00:10:01}
Video: NTSC 4:3 (720x480) VBR
Audio:
Not specified, AC3, 2/0 (L,R) ch, 192 kbps, Delay 0 mSec

Disc 09

Disc 09
Title: Giant.600.Cartoon.Collection.Disc.09
Size: 7.20 Gb ( 7 554 608,00 KBytes ) - DVD-9
Enabled regions: 1, 2, 3, 4, 5, 6, 7, 8
VTS_01 :
Play Length: 00:00:00
Video: NTSC 4:3 (720x480) VBR
VTS_02 :
Play Length: 06:19:00+{00:50:14}+{01:31:45}+{00:42:32}+{00:58:23}+{00:18:47}+{00:30:41}+{00:13:22}+{00:29:59}+{00:43:15}
Video: NTSC 4:3 (720x480) VBR
Audio:
Not specified, AC3, 2/0 (L,R) ch, 192 kbps, Delay 0 mSec

Disc 10

Disc 10
Title: Giant.600.Cartoon.Collection.Disc.10
Size: 7.75 Gb ( 8 131 180,00 KBytes ) - DVD-9
Enabled regions: 1, 2, 3, 4, 5, 6, 7, 8
VTS_01 :
Play Length: 00:00:00
Video: NTSC 4:3 (720x480) VBR
VTS_02 :
Play Length: 05:43:01+{02:09:15}+{00:39:35}+{00:58:08}+{01:48:10}+{00:07:50}
Video: NTSC 4:3 (720x480) VBR
Audio:
Not specified, AC3, 2/0 (L,R) ch, 192 kbps, Delay 0 mSec

Disc 11

Disc 11
Title: Giant.600.Cartoon.Collection.Disc.11
Size: 7.49 Gb ( 7 851 362,00 KBytes ) - DVD-9
Enabled regions: 1, 2, 3, 4, 5, 6, 7, 8
VTS_01 :
Play Length: 00:00:00
Video: NTSC 4:3 (720x480) VBR
VTS_02 :
Play Length: 05:35:39+{01:51:46}+{02:21:26}+{00:18:41}+{00:07:20}+{00:06:13}+{00:06:53}+{00:06:20}+{00:06:34}+{00:07:27}+{00:13:21}+{00:09:36}
Video: NTSC 4:3 (720x480) VBR
Audio:
Not specified, AC3, 2/0 (L,R) ch, 192 kbps, Delay 0 mSec

Disc 12

Disc 12
Title: Giant.600.Cartoon.Collection.Disc.12
Size: 7.35 Gb ( 7 712 168,00 KBytes ) - DVD-9
Enabled regions: 1, 2, 3, 4, 5, 6, 7, 8
VTS_01 :
Play Length: 00:00:00
Video: NTSC 4:3 (720x480) VBR
VTS_02 :
Play Length: 04:29:36+{01:16:14}+{01:22:36}+{00:42:01}+{00:36:17}+{00:23:55}+{00:08:32}
Video: NTSC 4:3 (720x480) VBR
Audio:
Not specified, AC3, 2/0 (L,R) ch, 192 kbps, Delay 0 mSec

MediaInfo

MediaInfo
General
Complete name : E:\DVD\Giant.600.Cartoon.Collection.FS.NTSC.12xDVD9\Giant.600.Cartoon.Collection.Disc.01\VIDEO_TS\VTS_02_1.VOB
Format : MPEG-PS
File size : 1 024 MiB
Duration : 48mn 7s
Overall bit rate : 2 975 Kbps
Video
ID : 224 (0xE0)
Format : MPEG Video
Format version : Version 2
Format profile : Main@Main
Format settings, BVOP : Yes
Format settings, Matrix : Default
Format settings, GOP : M=3, N=15
Duration : 48mn 7s
Bit rate mode : Variable
Bit rate : 2 724 Kbps
Nominal bit rate : 3 858 Kbps
Width : 720 pixels
Height : 480 pixels
Display aspect ratio : 4:3
Frame rate : 29.970 fps
Standard : NTSC
Color space : YUV
Chroma subsampling : 4:2:0
Bit depth : 8 bits
Scan type : Interlaced
Scan order : Bottom Field First
Compression mode : Lossy
Bits/(Pixel*Frame) : 0.263
Stream size : 937 MiB (92%)
Audio
ID : 189 (0xBD)-128 (0x80)
Format : AC-3
Format/Info : Audio Coding 3
Mode extension : CM (complete main)
Muxing mode : DVD-Video
Duration : 48mn 6s
Bit rate mode : Constant
Bit rate : 192 Kbps
Channel(s) : 2 channels
Channel positions : Front: L R
Sampling rate : 48.0 KHz
Bit depth : 16 bits
Compression mode : Lossy
Stream size : 66.1 MiB (6%)

Дополнительно

Бонусы: нет
В каждой папке с фильмом есть скан коврика и блинчика

Скриншоты меню

 
Скриншоты:
               

Clavik

Post 22-Aug-2019 23:30

[Quote]

самый прикольный мульт инсты) интересно и весело) все серии для вас;)

Clavik

Post 22-Aug-2019 23:29

[Quote]

Знакомьтесь, Боб! / This is Bob (2015-2019)
WEB-DLRip (сезон 1-5, серии 1-90)
- Жанр: Анимационный веб-сериал
Производство: Россия
Описание:
«Знакомьтесь, Боб» - анимационный проект, где авторы ставят эксперименты над доверчивым парнем по имени Боб. От выпуска к выпуску создатели мультфильма раскрывают перед зрителями любопытные факты, заключая своего героя в непредсказуемые ситуации. Мы не знаем, помогут ли истории Боба в реальной жизни, но ручаемся за хорошее настроение! Только не пытайтесь проверять эксперименты на себе. Боб всё же вымышленный, а вы - самые настоящие. Бум!
Возраст: 16+ (зрителям, достигшим 16 лет)
Релиз от: Natasha77
Продолжительность: ~00:02:00 серия
Качество видео: WEB-DLRip
Перевод: Не требуется (Русский)
Субтитры: Отсутствуют
Видео: AVC/H.264, 1280x720, ~2500 kbps
Аудио: Русский: AAC, 2 ch, 256 kbps

MediaInfo

Код:
General
Unique ID                   : 243660042618087763717611333377088767560 (0xB74F379C9306AA5D8A0778924DAB4648)
Complete name               : C:\Знакомьтесь, Боб\s01e06_Боба укусила ядовитая змея.mkv
Format                      : Matroska
Format version              : Version 4 / Version 2
File size                   : 43.5 MiB
Duration                    : 2 min 9 s
Overall bit rate            : 2 830 kb/s
Encoded date                : UTC 2017-11-05 13:37:03
Writing application         : mkvmerge v16.0.0 ('Protest') 32-bit
Writing library             : libebml v1.3.5 + libmatroska v1.4.8
Video
ID                          : 1
Format                      : AVC
Format/Info                 : Advanced Video Codec
Format profile              : High@L4
Format settings             : CABAC / 4 Ref Frames
Format settings, CABAC      : Yes
Format settings, RefFrames  : 4 frames
Codec ID                    : V_MPEG4/ISO/AVC
Duration                    : 2 min 8 s
Bit rate                    : 2 569 kb/s
Width                       : 1 280 pixels
Height                      : 720 pixels
Display aspect ratio        : 16:9
Frame rate mode             : Constant
Frame rate                  : 25.000 FPS
Color space                 : YUV
Chroma subsampling          : 4:2:0
Bit depth                   : 8 bits
Scan type                   : Progressive
Bits/(Pixel*Frame)          : 0.112
Stream size                 : 39.6 MiB (91%)
Writing library             : x264 core 142
Default                     : Yes
Forced                      : No
Audio
ID                          : 2
Format                      : AAC
Format/Info                 : Advanced Audio Codec
Format profile              : LC
Codec ID                    : A_AAC-2
Duration                    : 2 min 9 s
Bit rate                    : 256 kb/s
Channel(s)                  : 2 channels
Channel positions           : Front: L R
Sampling rate               : 48.0 kHz
Frame rate                  : 46.875 FPS (1024 SPF)
Compression mode            : Lossy
Stream size                 : 3.94 MiB (9%)
Language                    : Russian
Default                     : Yes
Forced                      : No

Список серий:

СЕЗОН 1
s01e01_Боб прыгнул с 10 000 метров без парашюта
s01e02_Боб съел 10 килограмм шоколада
s01e03_Боб похоронен заживо
s01e04_Боб взорвал 50 кг фейерверков
s01e05_Боб без одежды при -40°
s01e06_Боба укусила ядовитая змея
s01e07_Боб погрузился на 200 метров
s01e08_Боб на ядерном полигоне
s01e09_Боб не спал 10 дней
s01e10_Боб на необитаемом острове
s01e11_Боб быстрее скорости звука
s01e12_Боб наелся ядовитых грибов
s01e13_Боб в горящем небоскребе
s01e14_Боб сражается с дикими зверями
s01e15_Боб тонет в нефти
s01e16_Боб попал в средневековье
s01e17_Боба посадили в тюрьму
s01e18_Боба напугали до смерти
СЕЗОН 2
s02e19_Боб на боях без правил
s02e20_Боб заражен паразитами
s02e21_Боб выживает в пустыне
s02e22_Боб на корриде
s02e23_Боб выживает в торнадо
s02e24_Боб тестирует крутые пушки
s02e25_Боб - секретный агент
s02e26_Боб на гладиаторских боях
s02e27_Боб пробует острое
s02e28_Боб сошел с ума
s02e29_Боб против нечисти
s02e30_Боб одержим дьяволом
s02e31_Откуда взялся Боб со шрамом
СЕЗОН 3
s03e32_Боб покоряет Эверест
s03e33_Боб в кратере вулкана
s03e34_Боб выпил 7 литров кофе
s03e35_Боб заражен смертельным вирусом
s03e36_Боб против зомби
s03e37_Боб питается только фаст-фудом
s03e38_Боба убивает электрический ток
s03e39_Боб отправился в космос
s03e40_Боб и смертельно громкие звуки
s03e41_Боб тестирует тачки
s03e42_Боб распаковывает новогодние подарки
s03e43_Боба уменьшили до 1 миллиметра
s03e44_Боб потерялся в лесу
s03e45_Боб попал в Юрский период
s03e46_Боб на рыцарском турнире
s03e47_Боб расхититель гробниц
s03e48_Боб в цирке
s03e49_Боб и смертельные фокусы
s03e50_Боб в команде Мстителей
s03e51_Безумные трюки Боба-каскадера
s03e52_Боб в параллельных мирах
s03e53_Кто такой Диктор?!
s03e54_Боб. Последнее противостояние
СЕЗОН 4
s04e55_Боб против маньяка
s04e56_Боб размером с небоскрёб
s04e57_Боб-пират
s04e58_Боб на свалке
s04e59_Боб в Диканьке
s04e60_Боб в чёрной дыре
s04e61_Боб против мафии
s04e62_Боб в парке развлечений
s04e63_Боб против хищника
s04e64_Боб – ниндзя
s04e65_Боб – Веном
s04e66_Боб на минном поле
s04e67_Боб попал в сказку
s04e68_Диктор против Роберта
s04e69_Боб и фантастические твари
s04e70_Боб застрял в интернете
s04e71_Боб на Диком западе
s04e72_Боб против призраков
s04e73_Боб в гостях у Санты
s04e74_Боб, Диктор, Роберт. Кто из них умрёт?
СЕЗОН 5
s05e75_Боб на пределе боли
s05e76_Боб попал в капкан
s05e77_Без каких органов сможет прожить Боб?
s05e78_Боб остался без еды
s05e79_Боб в микроволновке
s05e80_Боб остался без воздуха
s05e81_Боб в падающем лифте
s05e82_Боб выпил 100 литров Колы
s05e83_Боб подорвался на бомбе
s05e84_Боб за компьютером 24 часа
s05e85_Как Бобу выбраться из тонущей машины
s05e86_Боб не мылся 100 дней
s05e87_Бобу исполнилось 100 лет
s05e88_Боба кусают самые опасные насекомые
s05e89_Боб ест самые опасные блюда
s05e90_Боба пытают до смерти
Скриншоты:
       
-

Clavik

Post 22-Aug-2019 10:26

[Quote]

Пингвины-шпионы / Spy Penguin (2014)
WEB-DLRip (сезон 1, серии 1-26 из 26)
- Производство: Гонконг / Next Animation Studio
Жанр: Мультсериал, Детский, Приключения, Комедия
Режиссер: Цутому Ябуки
Персонажи: Роки, Тексча, Роборобо
Описание:
Большинство жителей Парижа даже не подозревает, что они обязаны своим покоем и благополучием троице храбрых пингвинов. Ловкий малыш Рок, несокрушимый силач Роборобо и гордый красавец Тексча защищают любимый город от особо опасных преступников. Их главный противник – большой коварный кот, который вместе со своей бандой приспешников пытается устроить хаос на парижских улицах. Запустить ракеты в Эйфелеву башню или забросать город гигантскими бильярдными шарами – это его обыкновенные планы на день. Но друзья-пингвины, работающие на секретное шпионское агентство, всегда готовы дать отпор злодеям. С помощью новейших гаджетов и своих личных талантов спецагенты в деловых костюмах и стильных очках выполняют самые немыслимые миссии. У них не всё и всегда идет по плану, но главная сверхспособность этой неугомонной троицы – умение импровизировать.

Возраст: 6+ (зрителям, достигшим 6 лет)
Релиз от: Natasha77
Продолжительность: ~00:05:00 серия
Качество видео: WEB-DLRip
Перевод: Не требуется
Субтитры: Отсутствуют
Видео: AVC/H.264, 1280x720, ~2569 kbps
Аудио: Русский: AAC, 2 ch, 256 kbps

MediaInfo

Код:
Общее
Уникальный идентификатор                 : 156513006657381539630612985352062770316 (0x75BF4F01C508F5DE9C4E4AE742301C8C)
Полное имя                               : E:\11_Незваные гости.mkv
Формат                                   : Matroska
Версия формата                           : Version 4
Размер файла                             : 99,9 Мбайт
Продолжительность                        : 4 м. 57 с.
Общий поток                              : 2816 Кбит/сек
Дата кодирования                         : UTC 2019-08-21 23:07:34
Программа кодирования                    : mkvmerge v36.0.0 ('Is That Jazz?') 32-bit
Библиотека кодирования                   : libebml v1.3.9 + libmatroska v1.5.2
Видео
Идентификатор                            : 1
Формат                                   : AVC
Формат/Информация                        : Advanced Video Codec
Профиль формата                          : High@L4
Настройки формата                        : CABAC / 4 Ref Frames
Параметр CABAC формата                   : Да
Параметр RefFrames формата               : 4 кадра
Идентификатор кодека                     : V_MPEG4/ISO/AVC
Продолжительность                        : 4 м. 57 с.
Битрейт                                  : 2569 Кбит/сек
Ширина                                   : 1280 пикселей
Высота                                   : 720 пикселей
Соотношение сторон                       : 16:9
Режим частоты кадров                     : Постоянный
Частота кадров                           : 25,000 кадров/сек
Цветовое пространство                    : YUV
Субдискретизация насыщенности            : 4:2:0
Битовая глубина                          : 8 бит
Тип развёртки                            : Прогрессивная
Бит/(Пиксели*Кадры)                      : 0.112
Размер потока                            : 90,7 Мбайт (91%)
Библиотека кодирования                   : x264 core 148
Default                                  : Да
Forced                                   : Нет
Аудио
Идентификатор                            : 2
Формат                                   : AAC LC
Формат/Информация                        : Advanced Audio Codec Low Complexity
Идентификатор кодека                     : A_AAC-2
Продолжительность                        : 4 м. 57 с.
Битрейт                                  : 256 Кбит/сек
Каналы                                   : 2 канала
ChannelLayout                            : L R
Частота                                  : 48,0 КГц
Частота кадров                           : 46,875 кадров/сек (1024 SPF)
Метод сжатия                             : С потерями
Задержка видео                           : -43 мс.
Размер потока                            : 9,08 Мбайт (9%)
Язык                                     : English
Default                                  : Да
Forced                                   : Нет

Список серий:

01_Эйфелева башня
02_Секретный вход
03_Беспорядки в раздевалке
04_Волшебный портфель
05_Атака шаров
06_Бабуля даёт отпор
07_Свободное время
08_Время праздников
09_Уловки Большого Босса
10_Прицельтесь
11_Незваные гости
12_Блокировка входа
13_Шкафчики
14_Ох, Роки
15_Не делайте из меня дурака
16_Волшебное шоу
17_Инцидент на Волшебном шоу
18_Веселье с едой
19_Кассовый аппарат
20_Роки: миссия невыполнима
21_Тексча: миссия невыполнима
22_Роборобо: миссия невыполнима
23_Внимание! Париж!
24_Большой Босс против
25_Битва с Роборобо
26_Поющие за рулём
Скриншоты:
       
-

Clavik

Post 09-Aug-2019 13:19

[Quote]

Прикольный мультсериал

Clavik

Post 09-Aug-2019 13:18

[Quote]

Космический рубеж / Final Space (2018) WEB-DLRip [H.264/1080p] (Сезон 1, Серии10 из 10 + Пилот) NewStation - Производство: Сша
Жанр: Компьютерная анимация, Комедия, Для взрослых
Режиссер: Майк Робертс, Олэн Роджерс
Персонажи: Дэвид Теннант, Митчелл Дэвис, Коути Гэлловэй, Олэн Роджерс, Джейк Сидвелл
Описание:
Астронавт по имени Гэри и его уничтожающий планеты приятель, называемый себя Мункейк, приступают к путешествиям по космосу, чтобы разгадать тайну того, где вселенная заканчивается и действительно ли она существует.

Дата мировой премьеры: 26 февраля 2018
Продолжительность: 00:22:00 х серия
Качество видео: WEB-DLRip
Перевод: Двуголосый закадровый, любительский
Озвучка / Автор перевода: NewStation
Субтитры: Русские, Английские
Видео: AVC/H.264, 1920x1080, ~11.8 mbps
Аудио: AC3, 6 ch, 384 kbps

Mediainfo:

General
Unique ID : 169510269826157012864571824067272314024 (0x7F867D8E639D8FD88F5B1B7291C90CA8)
Complete name : H:\Movies\Cartoons\short\Final.Space.S01.WEB-DL.1080p.NewStation
Format : Matroska
Format version : Version 4 / Version 2
File size : 1.91 GiB
Duration : 21 min 18 s
Overall bit rate mode : Variable
Overall bit rate : 12.9 Mb/s
Encoded date : UTC 2018-02-20 13:07:26
Writing application : mkvmerge v19.0.0 ('Brave Captain') 64-bit
Writing library : libebml v1.3.5 + libmatroska v1.4.8
Video
ID : 1
Format : AVC
Format/Info : Advanced Video Codec
Format profile : High@L4
Format settings : CABAC / 4 Ref Frames
Format settings, CABAC : Yes
Format settings, RefFrames : 4 frames
Codec ID : V_MPEG4/ISO/AVC
Duration : 21 min 18 s
Bit rate mode : Variable
Bit rate : 11.8 Mb/s
Maximum bit rate : 15.0 Mb/s
Width : 1 920 pixels
Height : 1 080 pixels
Display aspect ratio : 16:9
Frame rate mode : Constant
Frame rate : 23.976 (24000/1001) FPS
Color space : YUV
Chroma subsampling : 4:2:0
Bit depth : 8 bits
Scan type : Progressive
Bits/(Pixel*Frame) : 0.238
Stream size : 1.76 GiB (92%)
Language : English
Default : Yes
Forced : No
Color range : Limited
Color primaries : BT.709
Transfer characteristics : BT.709
Matrix coefficients : BT.709
Audio #1
ID : 2
Format : AC-3
Format/Info : Audio Coding 3
Codec ID : A_AC3
Duration : 21 min 18 s
Bit rate mode : Constant
Bit rate : 384 kb/s
Channel(s) : 6 channels
Channel positions : Front: L C R, Side: L R, LFE
Sampling rate : 48.0 kHz
Frame rate : 31.250 FPS (1536 SPF)
Bit depth : 16 bits
Compression mode : Lossy
Stream size : 58.5 MiB (3%)
Title : NewStation
Language : Russian
Service kind : Complete Main
Default : Yes
Forced : No
Audio #2
ID : 3
Format : E-AC-3
Format/Info : Enhanced Audio Coding 3
Codec ID : A_EAC3
Duration : 21 min 18 s
Bit rate mode : Constant
Bit rate : 640 kb/s
Channel(s) : 6 channels
Channel positions : Front: L C R, Side: L R, LFE
Sampling rate : 48.0 kHz
Frame rate : 187.500 FPS (256 SPF)
Compression mode : Lossy
Stream size : 97.5 MiB (5%)
Title : Original
Language : English
Service kind : Complete Main
Default : No
Forced : No
Text
ID : 4
Format : UTF-8
Codec ID : S_TEXT/UTF8
Codec ID/Info : UTF-8 Plain Text
Duration : 21 min 9 s
Bit rate : 84 b/s
Count of elements : 475
Stream size : 13.2 KiB (0%)
Language : English
Default : No
Forced : No
Скриншоты:
       
 

The time now is: Today 01:24

All times are GMT + 3 Hours