Today is a free download without charge Download

Search found 500 matches

Author Message

Орлов Владимир

Post 18-Nov-2019 04:17

[Quote]

-Черная молния / Black Lightning--Сезон: 3 / Серии: 1-5 из 16--
Год: 2019
Сезон: 3
Серии: 5
Всего в сезоне серий: 16
Жанры: Боевик, Драма, Фантастика--Режиссёр: Салим Акил, Майкл Шульц, Оз Скотт
В ролях: Кресс Уильямс, Чайна Энн МакКлейн, Нафиса Уильямс, Кристин Адамс, Марвин «Krondon» Джонс III, Дэймон Гаптон, Джеймс Римар--Описание:
Второй сезон научно-фантастического сериала "Черная молния" предлагает зрителям в очередной раз окунуться в историю Джеффа Пирса, человека, который порядка девяти лет назад решил закончить карьеру супергероя. Несмотря на огромные силы, мужчина твердо убедил себя, что спасать мир больше не его забота. Однако мужчине приходится обдумать решение еще раз, ведь на улицах города банда "Сотня" в очередной раз нарушает законы и грозит безопасности простых граждан. Конфликт в отношениях с дочерью заставляют Джефферсона принять окончательное решение - он в очередной раз возвращается к своей супергеройской работе.-- --Выпущено: США. DC Entertainment, Warner Bros. Television, Berlanti Productions
Продолжительность: ~ 00:42:00 серия
Перевод: Профессиональный многоголосый закадровый LostFilm--Качество: WEB-DLRip
Видео: XviD, ~ 1600 Кбит/с, 720x400
Аудио: Русский (AC3, 2 ch, 192 Кбит/с)--Релиз группы: --

Скриншоты

           

Орлов Владимир

Post 18-Nov-2019 03:57

[Quote]

-Стрела / Arrow--Сезон: 8 / Серии: 1-4 из 10--
✦ Название: Стрела
✦ Оригинальное название: Arrow
✦ Год выхода: 2019
✦ Жанр: фантастика, боевик, драма, детектив, приключения
✦ Режиссер: Дэвид Баррет, Дэвид Наттер--✦ В ролях: Стивен Амелл, Кэти Кэссиди, Колин Доннелл, Дэвид Рэмси, Уилла Холлэнд, Сюзанна Томпсон, Пол Блекторн, Колин Сэлмон, Эмили Бетт Рикардс, Энни Айлонзех, Себастьян Данн, Байрон Манн, Роджер Р. Кросс, Мэррет Грин, Ли Винсент, Джон Барроумен, Лесли Ивен--Описание фильма:
После пяти лет, проведенных на одном из необитаемых островов юго-восточной Азии, молодой и дерзкий миллиардер Оливер Куин возвращается домой другим человеком. Все это время все считали его погибшим в результате кораблекрушения. Однако, он оказался единственным из членов экипажа затонувшего судна, кому не просто удалось выжить... Внешние или внутренние обстоятельства превратили его в совершенно другого человека, правда, Оливер отчего-то не спешит предъявить себя в новом качестве общественности.-- --✦ Страна: США
✦ Продолжительность: ~ 00:43:00 серия
✦ Перевод: Профессиональный (многоголосый, закадровый) [LostFilm]--Информация о файле:
✦ Формат: AVI | XviD
✦ Качество: WEB-DLRip
✦ Видео: ~ 1700 Кбит/с, 720х400
✦ Аудио: Русский (AC3, 2 ch, 192 Кбит/с)
✦ Субтитры: отсутствуют--Чистый рип--

✔ Содержание

01. Starling City / Старлинг-Сити
02. Welcome to Hong Kong / Добро пожаловать в Гонконг
03. Leap of Faith / Прыжок веры
04. Present Tense / Настоящее время

✔ Скриншоты

       

✔ Раздача ведется путем добавления новых серий

Когда раздача ведётся путём добавления новых серий, при каждом добавлении создётся новый торрент. Чтобы начать докачку новой серии, пользователям необходимо сделать следующее:
(1) остановить скачивание,
(2) удалить старый торрент у себя из клиента (старые серии удалять не надо),
(3) скачать новый торрент и запустить его у себя в клиенте вместо старого, при этом указать клиенту путь в старую папку, куда и должно происходить скачивание новых серий.
Ваш клиент при этом должен произвести хеширование (проверку) старой папки (если не производит сам - помогите ему сделать это), и будет докачивать только те серии, которых у вас ещё нет. Старые серии при этом не удаляются, а продолжают раздаваться!
Eсли вы уже удалили старые серии, то предотвратить повторную закачку старых серий можно, отжав галочку в соответсвующих местах при запуске нового торрента. По возможности, желательно не удалять старые серии как можно дольше, чтобы релизёр не столько продолжал раздавать старые серии, а смог сконцентрироваться на новых.

Орлов Владимир

Post 18-Nov-2019 03:49

[Quote]

-Стрела / Arrow--Сезон: 8 / Серии: 1-4 из 10--
✦ Название: Стрела
✦ Оригинальное название: Arrow
✦ Год выхода: 2019
✦ Жанр: фантастика, боевик, драма, детектив, приключения
✦ Режиссер: Дэвид Баррет, Дэвид Наттер--✦ В ролях: Стивен Амелл, Кэти Кэссиди, Колин Доннелл, Дэвид Рэмси, Уилла Холлэнд, Сюзанна Томпсон, Пол Блекторн, Колин Сэлмон, Эмили Бетт Рикардс, Энни Айлонзех, Себастьян Данн, Байрон Манн, Роджер Р. Кросс, Мэррет Грин, Ли Винсент, Джон Барроумен, Лесли Ивен--Описание фильма:
После пяти лет, проведенных на одном из необитаемых островов юго-восточной Азии, молодой и дерзкий миллиардер Оливер Куин возвращается домой другим человеком. Все это время все считали его погибшим в результате кораблекрушения. Однако, он оказался единственным из членов экипажа затонувшего судна, кому не просто удалось выжить... Внешние или внутренние обстоятельства превратили его в совершенно другого человека, правда, Оливер отчего-то не спешит предъявить себя в новом качестве общественности.-- --✦ Страна: США
✦ Продолжительность: 4 x ~ 00:42:00
✦ Перевод: Профессиональный (многоголосый, закадровый) [LostFilm]--Информация о файле:
✦ Формат: MPEG-4 AVC
✦ Качество: WEB-DL (720p)
✦ Видео: ~ 4900 Кбит/с, 1280х720
✦ Аудио: Русский (AC3, 2 ch, 384 Кбит/с), английский (E-AC3, 6 ch, 640 Кбит/с)
✦ Субтитры: отсутствуют--Видео без заставки и логотипа.
Аудио без рекламных вставок.
--

✔ Содержание

01. Starling City / Старлинг-Сити
02. Welcome to Hong Kong / Добро пожаловать в Гонконг
03. Leap of Faith / Прыжок веры
04. Present Tense / Настоящее время

✔ Скриншоты

       

✔ Раздача ведется путем добавления новых серий

Когда раздача ведётся путём добавления новых серий, при каждом добавлении создётся новый торрент. Чтобы начать докачку новой серии, пользователям необходимо сделать следующее:
(1) остановить скачивание,
(2) удалить старый торрент у себя из клиента (старые серии удалять не надо),
(3) скачать новый торрент и запустить его у себя в клиенте вместо старого, при этом указать клиенту путь в старую папку, куда и должно происходить скачивание новых серий.
Ваш клиент при этом должен произвести хеширование (проверку) старой папки (если не производит сам - помогите ему сделать это), и будет докачивать только те серии, которых у вас ещё нет. Старые серии при этом не удаляются, а продолжают раздаваться!
Eсли вы уже удалили старые серии, то предотвратить повторную закачку старых серий можно, отжав галочку в соответсвующих местах при запуске нового торрента. По возможности, желательно не удалять старые серии как можно дольше, чтобы релизёр не столько продолжал раздавать старые серии, а смог сконцентрироваться на новых.

Орлов Владимир

Post 18-Nov-2019 03:46

[Quote]

-Стрела / Arrow--Сезон: 8 / Серии: 1-4 из 10--
✦ Название: Стрела
✦ Оригинальное название: Arrow
✦ Год выхода: 2019
✦ Жанр: фантастика, боевик, драма, детектив, приключения
✦ Режиссер: Дэвид Баррет, Дэвид Наттер--✦ В ролях: Стивен Амелл, Кэти Кэссиди, Колин Доннелл, Дэвид Рэмси, Уилла Холлэнд, Сюзанна Томпсон, Пол Блекторн, Колин Сэлмон, Эмили Бетт Рикардс, Энни Айлонзех, Себастьян Данн, Байрон Манн, Роджер Р. Кросс, Мэррет Грин, Ли Винсент, Джон Барроумен, Лесли Ивен--Описание фильма:
После пяти лет, проведенных на одном из необитаемых островов юго-восточной Азии, молодой и дерзкий миллиардер Оливер Куин возвращается домой другим человеком. Все это время все считали его погибшим в результате кораблекрушения. Однако, он оказался единственным из членов экипажа затонувшего судна, кому не просто удалось выжить... Внешние или внутренние обстоятельства превратили его в совершенно другого человека, правда, Оливер отчего-то не спешит предъявить себя в новом качестве общественности.-- --✦ Страна: США
✦ Продолжительность: 4 x ~ 00:42:00
✦ Перевод: Профессиональный (многоголосый, закадровый) [LostFilm]--Информация о файле:
✦ Формат: MPEG-4 AVC
✦ Качество: WEB-DL (1080p)
✦ Видео: ~ 9200 Кбит/с, 1920x1080
✦ Аудио: Русский, английский (AC3, 6 ch, 640 Кбит/с)
✦ Субтитры: Русские, английские--Видео без заставки и логотипа.
Аудио без рекламных вставок.
--

✔ Содержание

01. Starling City / Старлинг-Сити
02. Welcome to Hong Kong / Добро пожаловать в Гонконг
03. Leap of Faith / Прыжок веры
04. Present Tense / Настоящее время

✔ Скриншоты

       

✔ Раздача ведется путем добавления новых серий

Когда раздача ведётся путём добавления новых серий, при каждом добавлении создётся новый торрент. Чтобы начать докачку новой серии, пользователям необходимо сделать следующее:
(1) остановить скачивание,
(2) удалить старый торрент у себя из клиента (старые серии удалять не надо),
(3) скачать новый торрент и запустить его у себя в клиенте вместо старого, при этом указать клиенту путь в старую папку, куда и должно происходить скачивание новых серий.
Ваш клиент при этом должен произвести хеширование (проверку) старой папки (если не производит сам - помогите ему сделать это), и будет докачивать только те серии, которых у вас ещё нет. Старые серии при этом не удаляются, а продолжают раздаваться!
Eсли вы уже удалили старые серии, то предотвратить повторную закачку старых серий можно, отжав галочку в соответсвующих местах при запуске нового торрента. По возможности, желательно не удалять старые серии как можно дольше, чтобы релизёр не столько продолжал раздавать старые серии, а смог сконцентрироваться на новых.

maxkiller

Post 13-Nov-2019 13:54

[Quote]

Мандалорец / The Mandalorian
Год выпуска: 2019
Страна: США
Жанр: Фантастика, боевик, приключения
Продолжительность: ~ 00:40:00
Перевод: Профессиональный (многоголосый закадровый) *HDRezka Studio*
Режиссёр: Дебора Чоу, Рик Фамуйива, Дэйв Филони
В ролях: Педро Паскаль, Кайл Пацек, Брендан Уэйн, Бернард Баллен, Александра Гилман, Луис Ричард Гомес, Джамал Антар, Тейт Флетчер, Тони Табоада, Омид Абтахи
Описание: Одинокий мандалорец-наёмник живёт на краю обитаемой галактики, куда не дотягивается закон Новой Республики. Представитель некогда могучей расы благородных воинов теперь вынужден влачить жалкое существование среди отбросов общества.

Качество: WEB-DL 720p
Формат: MKV
Видео: V_MPEG4/ISO/AVC, 1280x720, ~ 4 200 kb/s
Аудио Rus: AC3, 48 kHz, 2 ch, 192 kbps
Аудио Eng: E-AC3, 48 kHz, 6 ch, 256 kbps
субтитры: Russian (Где тексты, Лебовски?), Danish, German, English, Spanish, French, Italian, Dutch, Norwegian, Polish, Portuguese, Portuguese, Finnish, Swedish

MediaInfo

General
Unique ID : 170439638202573731861229760988392168718 (0x80397AF472C95B379A7381256B8F9D0E)
Complete name : E:\The Mandalorian.S01.720p.HDRezka Studio\The Mandalorian.s01.e01.WEB-DL.720p.HDRezka.mkv
Format : Matroska
Format version : Version 4 / Version 2
File size : 1.27 GiB
Duration : 38 min 46 s
Overall bit rate mode : Variable
Overall bit rate : 4 685 kb/s
Movie name : The Mandalorian.s01.e01.WEB-DL.720p.HDRezka
Encoded date : UTC 2019-11-16 08:24:13
Writing application : mkvmerge v6.1.0 ('Old Devil') built on Mar 4 2013 09:10:42
Writing library : libebml v1.3.0 + libmatroska v1.4.0
Video
ID : 1
Format : AVC
Format/Info : Advanced Video Codec
Format profile : High@L3.1
Format settings : CABAC / 4 Ref Frames
Format settings, CABAC : Yes
Format settings, RefFrames : 4 frames
Codec ID : V_MPEG4/ISO/AVC
Duration : 38 min 46 s
Bit rate mode : Variable
Bit rate : 4 144 kb/s
Maximum bit rate : 6 375 kb/s
Width : 1 280 pixels
Height : 720 pixels
Display aspect ratio : 16:9
Frame rate mode : Constant
Frame rate : 23.976 (24000/1001) FPS
Color space : YUV
Chroma subsampling : 4:2:0
Bit depth : 8 bits
Scan type : Progressive
Bits/(Pixel*Frame) : 0.188
Stream size : 1.12 GiB (88%)
Title : The Mandalorian.s01.e01.WEB-DL.720p.HDRezka
Language : English
Default : Yes
Forced : No
Color range : Limited
Color primaries : BT.709
Transfer characteristics : BT.709
Matrix coefficients : BT.709
Statistics Tags Issue : mkvmerge v30.1.0 ('Forever And More') 64-bit 2019-11-14 11:22:43 / mkvmerge v6.1.0 ('Old Devil') built on Mar 4 2013 09:10:42 2019-11-16 08:24:13
FromStats_BitRate : 4233851
FromStats_Duration : 00:38:46.199000000
FromStats_FrameCount : 55773
FromStats_StreamSize : 1231097511
Audio #1
ID : 2
Format : AC-3
Format/Info : Audio Coding 3
Format settings, Endianness : Big
Codec ID : A_AC3
Duration : 38 min 46 s
Bit rate mode : Constant
Bit rate : 192 kb/s
Channel(s) : 2 channels
Channel positions : Front: L R
Sampling rate : 48.0 kHz
Frame rate : 31.250 FPS (1536 SPF)
Bit depth : 16 bits
Compression mode : Lossy
Stream size : 53.2 MiB (4%)
Title : HDRezka Studio
Language : Russian
Service kind : Complete Main
Default : Yes
Forced : No
Audio #2
ID : 3
Format : E-AC-3
Format/Info : Enhanced Audio Coding 3
Format settings, Endianness : Big
Codec ID : A_EAC3
Duration : 38 min 46 s
Bit rate mode : Constant
Bit rate : 256 kb/s
Channel(s) : 6 channels
Channel positions : Front: L C R, Side: L R, LFE
Sampling rate : 48.0 kHz
Frame rate : 187.500 FPS (256 SPF)
Compression mode : Lossy
Stream size : 71.0 MiB (5%)
Language : English
Service kind : Complete Main
Default : No
Forced : No
Statistics Tags Issue : mkvmerge v30.1.0 ('Forever And More') 64-bit 2019-11-14 11:22:43 / mkvmerge v6.1.0 ('Old Devil') built on Mar 4 2013 09:10:42 2019-11-16 08:24:13
FromStats_BitRate : 256000
FromStats_Duration : 00:38:46.208000000
FromStats_FrameCount : 72694
FromStats_StreamSize : 74438656
Text #1
ID : 4
Format : UTF-8
Codec ID : S_TEXT/UTF8
Codec ID/Info : UTF-8 Plain Text
Title : Sub Rus
Language : Russian
Default : Yes
Forced : No
Text #2
ID : 5
Format : UTF-8
Codec ID : S_TEXT/UTF8
Codec ID/Info : UTF-8 Plain Text
Title : Dansk
Language : Danish
Default : No
Forced : No
Statistics Tags Issue : mkvmerge v30.1.0 ('Forever And More') 64-bit 2019-11-14 11:22:43 / mkvmerge v6.1.0 ('Old Devil') built on Mar 4 2013 09:10:42 2019-11-16 08:24:13
FromStats_BitRate : 27
FromStats_Duration : 00:37:54.399000000
FromStats_FrameCount : 234
FromStats_StreamSize : 7893
Text #3
ID : 6
Format : UTF-8
Codec ID : S_TEXT/UTF8
Codec ID/Info : UTF-8 Plain Text
Title : Deutsch
Language : German
Default : No
Forced : No
Statistics Tags Issue : mkvmerge v30.1.0 ('Forever And More') 64-bit 2019-11-14 11:22:43 / mkvmerge v6.1.0 ('Old Devil') built on Mar 4 2013 09:10:42 2019-11-16 08:24:13
FromStats_BitRate : 28
FromStats_Duration : 00:37:54.399000000
FromStats_FrameCount : 289
FromStats_StreamSize : 7989
Text #4
ID : 7
Format : UTF-8
Codec ID : S_TEXT/UTF8
Codec ID/Info : UTF-8 Plain Text
Title : English [CC]
Language : English
Default : No
Forced : No
Statistics Tags Issue : mkvmerge v30.1.0 ('Forever And More') 64-bit 2019-11-14 11:22:43 / mkvmerge v6.1.0 ('Old Devil') built on Mar 4 2013 09:10:42 2019-11-16 08:24:13
FromStats_BitRate : 41
FromStats_Duration : 00:35:34.051000000
FromStats_FrameCount : 428
FromStats_StreamSize : 11189
Text #5
ID : 8
Format : UTF-8
Codec ID : S_TEXT/UTF8
Codec ID/Info : UTF-8 Plain Text
Title : Español
Language : Spanish
Default : No
Forced : No
Statistics Tags Issue : mkvmerge v30.1.0 ('Forever And More') 64-bit 2019-11-14 11:22:43 / mkvmerge v6.1.0 ('Old Devil') built on Mar 4 2013 09:10:42 2019-11-16 08:24:13
FromStats_BitRate : 27
FromStats_Duration : 00:37:54.399000000
FromStats_FrameCount : 295
FromStats_StreamSize : 7704
Text #6
ID : 9
Format : UTF-8
Codec ID : S_TEXT/UTF8
Codec ID/Info : UTF-8 Plain Text
Title : Français
Language : French
Default : No
Forced : No
Statistics Tags Issue : mkvmerge v30.1.0 ('Forever And More') 64-bit 2019-11-14 11:22:43 / mkvmerge v6.1.0 ('Old Devil') built on Mar 4 2013 09:10:42 2019-11-16 08:24:13
FromStats_BitRate : 26
FromStats_Duration : 00:37:54.399000000
FromStats_FrameCount : 282
FromStats_StreamSize : 7476
Text #7
ID : 10
Format : UTF-8
Codec ID : S_TEXT/UTF8
Codec ID/Info : UTF-8 Plain Text
Title : Italiano
Language : Italian
Default : No
Forced : No
Statistics Tags Issue : mkvmerge v30.1.0 ('Forever And More') 64-bit 2019-11-14 11:22:43 / mkvmerge v6.1.0 ('Old Devil') built on Mar 4 2013 09:10:42 2019-11-16 08:24:13
FromStats_BitRate : 27
FromStats_Duration : 00:37:54.399000000
FromStats_FrameCount : 295
FromStats_StreamSize : 7885
Text #8
ID : 11
Format : UTF-8
Codec ID : S_TEXT/UTF8
Codec ID/Info : UTF-8 Plain Text
Title : Nederlands
Language : Dutch
Default : No
Forced : No
Statistics Tags Issue : mkvmerge v30.1.0 ('Forever And More') 64-bit 2019-11-14 11:22:43 / mkvmerge v6.1.0 ('Old Devil') built on Mar 4 2013 09:10:42 2019-11-16 08:24:13
FromStats_BitRate : 28
FromStats_Duration : 00:37:54.399000000
FromStats_FrameCount : 237
FromStats_StreamSize : 8149
Text #9
ID : 12
Format : UTF-8
Codec ID : S_TEXT/UTF8
Codec ID/Info : UTF-8 Plain Text
Title : Norsk
Language : Norwegian
Default : No
Forced : No
Statistics Tags Issue : mkvmerge v30.1.0 ('Forever And More') 64-bit 2019-11-14 11:22:43 / mkvmerge v6.1.0 ('Old Devil') built on Mar 4 2013 09:10:42 2019-11-16 08:24:13
FromStats_BitRate : 24
FromStats_Duration : 00:37:54.399000000
FromStats_FrameCount : 295
FromStats_StreamSize : 6967
Text #10
ID : 13
Format : UTF-8
Codec ID : S_TEXT/UTF8
Codec ID/Info : UTF-8 Plain Text
Title : Polski
Language : Polish
Default : No
Forced : No
Statistics Tags Issue : mkvmerge v30.1.0 ('Forever And More') 64-bit 2019-11-14 11:22:43 / mkvmerge v6.1.0 ('Old Devil') built on Mar 4 2013 09:10:42 2019-11-16 08:24:13
FromStats_BitRate : 28
FromStats_Duration : 00:38:19.341000000
FromStats_FrameCount : 296
FromStats_StreamSize : 8118
Text #11
ID : 14
Format : UTF-8
Codec ID : S_TEXT/UTF8
Codec ID/Info : UTF-8 Plain Text
Title : Português
Language : Portuguese
Default : No
Forced : No
Statistics Tags Issue : mkvmerge v30.1.0 ('Forever And More') 64-bit 2019-11-14 11:22:43 / mkvmerge v6.1.0 ('Old Devil') built on Mar 4 2013 09:10:42 2019-11-16 08:24:13
FromStats_BitRate : 28
FromStats_Duration : 00:37:54.399000000
FromStats_FrameCount : 295
FromStats_StreamSize : 8131
Text #12
ID : 15
Format : UTF-8
Codec ID : S_TEXT/UTF8
Codec ID/Info : UTF-8 Plain Text
Title : Português (Brasil)
Language : Portuguese
Default : No
Forced : No
Statistics Tags Issue : mkvmerge v30.1.0 ('Forever And More') 64-bit 2019-11-14 11:22:43 / mkvmerge v6.1.0 ('Old Devil') built on Mar 4 2013 09:10:42 2019-11-16 08:24:13
FromStats_BitRate : 28
FromStats_Duration : 00:37:54.399000000
FromStats_FrameCount : 295
FromStats_StreamSize : 8056
Text #13
ID : 16
Format : UTF-8
Codec ID : S_TEXT/UTF8
Codec ID/Info : UTF-8 Plain Text
Title : Suomi
Language : Finnish
Default : No
Forced : No
Statistics Tags Issue : mkvmerge v30.1.0 ('Forever And More') 64-bit 2019-11-14 11:22:43 / mkvmerge v6.1.0 ('Old Devil') built on Mar 4 2013 09:10:42 2019-11-16 08:24:13
FromStats_BitRate : 26
FromStats_Duration : 00:38:19.341000000
FromStats_FrameCount : 296
FromStats_StreamSize : 7669
Text #14
ID : 17
Format : UTF-8
Codec ID : S_TEXT/UTF8
Codec ID/Info : UTF-8 Plain Text
Title : Svenska
Language : Swedish
Default : No
Forced : No
Statistics Tags Issue : mkvmerge v30.1.0 ('Forever And More') 64-bit 2019-11-14 11:22:43 / mkvmerge v6.1.0 ('Old Devil') built on Mar 4 2013 09:10:42 2019-11-16 08:24:13
FromStats_BitRate : 27
FromStats_Duration : 00:37:53.481000000
FromStats_FrameCount : 227
FromStats_StreamSize : 7702

Скриншоты

     

Раздача ведется путем добавления новых серий

Когда раздача ведётся путём добавления новых серий, при каждом добавлении создётся новый торрент. Чтобы начать докачку новой серии, пользователям необходимо сделать следующее:
(1) остановить скачивание,
(2) удалить старый торрент у себя из клиента (старые серии удалять не надо),
(3) скачать новый торрент и запустить его у себя в клиенте вместо старого, при этом указать клиенту путь в старую папку, куда и должно происходить скачивание новых серий.
Ваш клиент при этом должен произвести хеширование (проверку) старой папки (если не производит сам - помогите ему сделать это), и будет докачивать только те серии, которых у вас ещё нет. Старые серии при этом не удаляются, а продолжают раздаваться!
Eсли вы уже удалили старые серии, то предотвратить повторную закачку старых серий можно, отжав галочку в соответсвующих местах при запуске нового торрента. По возможности, желательно не удалять старые серии как можно дольше, чтобы релизёр не столько продолжал раздавать старые серии, а смог сконцентрироваться на новых.

maxkiller

Post 09-Nov-2019 20:14

[Quote]

+4 серия. Пожалуйста перекачайте торент

Clavik

Post 04-Nov-2019 17:43

[Quote]

хороший сериал ))

maxkiller

Post 04-Nov-2019 16:58

[Quote]

ВИДЕТЬSee-
Год выпуска: 2019
Страна: США
Жанр: Фантастика, драма
Продолжительность: ~00:55:00
Перевод: Профессиональный (многоголосый закадровый) *HDRezka Studio*-Режиссёр: Френсис Лоуренс, Андерс Энгстрем, Стивен Серджик
В ролях: Элфри Вудард, Джош Блэкер, Кристиан Камарго, Неста Купер, Yadira Guevara-Prip, Хера Хильмар, Сильвия Хукс, Арчи Мадекве, Джейсон Момоа, Кристиан Слоун-Описание: Действие сериала разворачивается в далёком будущем, когда человеческая раса лишилась зрения. Люди вернулись к племенному образу жизни, называя солнце «пламенным богом» и сжигая на кострах «еретиков», которые всё ещё вспоминают о зрении. Однажды глава племени Баба Восс берёт в жены Магру, пришедшую в поселение извне. Вскоре у женщины рождаются зрячие близнецы, в результате чего семью проклинают и называют еретиками. Желая защитить детей, Баба Восс решает бежать вместе с жителями деревни, чтобы построить дом в новом месте, ведь рождение зрячих рискует нарушить хрупкий баланс нового мира...

Качество: WEB-DL 720p
Формат: MKV
Видео кодек: AVC
Аудио кодек: AC3
Видео: V_MPEG4/ISO/AVC, 1114x528, ~ 2 100 kb/s
Аудио Rus: AC3, 48 kHz, 2 ch, 192 kbps
Аудио Eng: AC3, 48 kHz, 6 ch, 384 kbps
Субтитры: английские

MediaInfo

General
Unique ID : 238026080953048852000940427797995704595 (0xB31227DAFD4380B5AEB2B10448EFD113)
Complete name : E:\See.S01.720p.HDRezka Studio\See.s01.e01.WEB-DL 720p.HDRezka.mkv
Format : Matroska
Format version : Version 4 / Version 2
File size : 1.08 GiB
Duration : 57 min 30 s
Overall bit rate : 2 682 kb/s
Movie name : See.s01.e01.WEB-DL 720p.HDRezka
Encoded date : UTC 2019-11-04 09:59:58
Writing application : mkvmerge v6.1.0 ('Old Devil') built on Mar 4 2013 09:10:42
Writing library : libebml v1.3.0 + libmatroska v1.4.0
Video
ID : 1
Format : AVC
Format/Info : Advanced Video Codec
Format profile : High@L3.1
Format settings : CABAC / 5 Ref Frames
Format settings, CABAC : Yes
Format settings, RefFrames : 5 frames
Codec ID : V_MPEG4/ISO/AVC
Duration : 57 min 30 s
Bit rate : 2 052 kb/s
Width : 1 114 pixels
Height : 528 pixels
Display aspect ratio : 2.110
Frame rate mode : Constant
Frame rate : 23.976 (24000/1001) FPS
Color space : YUV
Chroma subsampling : 4:2:0
Bit depth : 8 bits
Scan type : Progressive
Bits/(Pixel*Frame) : 0.146
Stream size : 844 MiB (77%)
Title : See.s01.e01.WEB-DL 720p.HDRezka
Default : Yes
Forced : No
Color range : Limited
Color primaries : BT.709
Transfer characteristics : BT.709
Matrix coefficients : BT.709
Statistics Tags Issue : mkvmerge v38.0.0 ('The Silent Type') 64-bit 2019-11-01 12:10:01 / mkvmerge v6.1.0 ('Old Devil') built on Mar 4 2013 09:10:42 2019-11-04 09:59:58
FromStats_BitRate : 2103594
FromStats_Duration : 00:57:30.698000000
FromStats_FrameCount : 82734
FromStats_StreamSize : 907358689
Audio #1
ID : 2
Format : AC-3
Format/Info : Audio Coding 3
Format settings, Endianness : Big
Codec ID : A_AC3
Duration : 57 min 30 s
Bit rate mode : Constant
Bit rate : 192 kb/s
Channel(s) : 2 channels
Channel positions : Front: L R
Sampling rate : 48.0 kHz
Frame rate : 31.250 FPS (1536 SPF)
Bit depth : 16 bits
Compression mode : Lossy
Stream size : 79.0 MiB (7%)
Title : HDRezka Studio
Language : Russian
Service kind : Complete Main
Default : Yes
Forced : No
Audio #2
ID : 3
Format : AC-3
Format/Info : Audio Coding 3
Format settings, Endianness : Big
Codec ID : A_AC3
Duration : 57 min 30 s
Bit rate mode : Constant
Bit rate : 384 kb/s
Channel(s) : 6 channels
Channel positions : Front: L C R, Side: L R, LFE
Sampling rate : 48.0 kHz
Frame rate : 31.250 FPS (1536 SPF)
Bit depth : 16 bits
Compression mode : Lossy
Stream size : 158 MiB (14%)
Language : English
Service kind : Complete Main
Default : No
Forced : No
Statistics Tags Issue : mkvmerge v38.0.0 ('The Silent Type') 64-bit 2019-11-01 12:10:01 / mkvmerge v6.1.0 ('Old Devil') built on Mar 4 2013 09:10:42 2019-11-04 09:59:58
FromStats_BitRate : 384000
FromStats_Duration : 00:57:30.752000000
FromStats_FrameCount : 107836
FromStats_StreamSize : 165636096
Text #1
ID : 4
Format : UTF-8
Codec ID : S_TEXT/UTF8
Codec ID/Info : UTF-8 Plain Text
Language : English
Default : No
Forced : No
Statistics Tags Issue : mkvmerge v38.0.0 ('The Silent Type') 64-bit 2019-11-01 12:10:01 / mkvmerge v6.1.0 ('Old Devil') built on Mar 4 2013 09:10:42 2019-11-04 09:59:58
FromStats_BitRate : 35
FromStats_Duration : 00:55:04.879000000
FromStats_FrameCount : 487
FromStats_StreamSize : 14679
Text #2
ID : 5
Format : UTF-8
Codec ID : S_TEXT/UTF8
Codec ID/Info : UTF-8 Plain Text
Language : English
Default : No
Forced : No
Statistics Tags Issue : mkvmerge v38.0.0 ('The Silent Type') 64-bit 2019-11-01 12:10:01 / mkvmerge v6.1.0 ('Old Devil') built on Mar 4 2013 09:10:42 2019-11-04 09:59:58
FromStats_BitRate : 40
FromStats_Duration : 00:55:54.011000000
FromStats_FrameCount : 601
FromStats_StreamSize : 17172

Скриншоты

     

Внимание! Раздача ведётся путём добавления новых серий

Внимание! Раздача ведётся путём добавления новых серий; при каждом добавлении создаётся новый торрент. Чтобы начать докачку новой серии, пользователям необходимо сделать следующее:
(1) остановить скачивание,
(2) удалить старый торрент у себя из клиента (старые серии удалять не надо),
(3) скачать новый торрент и запустить его у себя в клиенте вместо старого, при этом указать клиенту путь в старую папку куда и должно происходить скачивание новых серий.
Ваш клиент при этом должен произвести хеширование (проверку) старой папки (если не производит сам - помогите ему сделать это), и будет докачивать только те серии которых у вас ещё нет. Старые серии при этом не удаляются, а продолжают раздаваться!
Eсли вы уже удалили старые серии, то предотвратить повторную закачку старых серий можно, отжав галочку в соответствующих местах при запуске нового торрента. По возможности, желательно не удалять старые серии как можно дольше чтобы релизёр не столько продолжал раздавать старые серии, а смог сконцентрироваться на новых.

Clavik

Post 03-Nov-2019 09:47

[Quote]

Война миров / The War of the Worlds (2019) WEB-DL [H.264/720p-LQ] (сезон 1, серии 1-3 из 3) BaibaKo [AD]- Производство: Великобритания / Mammoth Screen
Жанр: фантастика, драма, боевик
Режиссер: Крэйг Вивейрос
Актеры: Элинор Томлинсон, Рейф Сполл, Джонатан Арис, Вуди Норман, Роберт Карлайл, Руперт Грейвз, Николя Ле Прево, Талия Блэр, Рейд Андерсон, Филип Гаскойн и др.
Описание:
В центре истории — только начавшие совместную жизнь Джордж и Эми, которым приходится столкнуться с ужасом инопланетного вторжения.

Дата мировой премьеры: 6 октября 2019
Продолжительность: ~00:55:00 серия
Качество видео: WEB-DLb]Перевод: Многоголосый профессиональный (BaibaKo)
Реклама: присутствует реклама
Видео: AVC/H.264, 1280x720 (16:9), ~4027 Kbps
Аудио 1: AC3, 6 ch, 448 Kbps | русский
Аудио 2: AC3, 6 ch, 448 Kbps | английский

MediaInfo:

Общее
Уникальный идентификатор : 60146031630363199435450224224683813648 (0x2D3FB44F516D9BEF105C3A497DD9EB10)
Полное имя : The.War.of.the.Worlds.s01.HD720p.WEBRip.Rus.Eng.BaibaKo.tv\The.War.of.the.Worlds.s01e01.HD720p.WEBRip.Rus.Eng.BaibaKo.tv.mkv
Формат : Matroska
Версия формата : Version 4
Размер файла : 1,90 Гбайт
Продолжительность : 55 м. 13 с.
Общий поток : 4925 Кбит/сек
Дата кодирования : UTC 2019-10-14 22:22:34
Программа кодирования : mkvmerge v31.0.0 ('Dolores In A Shoestand') 64-bit
Библиотека кодирования : libebml v1.3.6 + libmatroska v1.4.9
Writing frontend : StaxRip v2.0.0.1
Видео
Идентификатор : 1
Формат : AVC
Формат/Информация : Advanced Video Codec
Профиль формата : [url=mailto:High@L4.1]High@L4.1[/url]
Настройки формата : CABAC / 4 Ref Frames
Параметр CABAC формата : Да
Параметр RefFrames формата : 4 кадра
Идентификатор кодека : V_MPEG4/ISO/AVC
Продолжительность : 55 м. 13 с.
Битрейт : 4027 Кбит/сек
Ширина : 1280 пикселей
Высота : 720 пикселей
Соотношение сторон : 16:9
Режим частоты кадров : Постоянный
Частота кадров : 25,000 кадров/сек
Цветовое пространство : YUV
Субдискретизация насыщенности : 4:2:0
Битовая глубина : 8 бит
Тип развёртки : Прогрессивная
Бит/(Пиксели*Кадры) : 0.175
Размер потока : 1,55 Гбайт (82%)
Default : Да
Forced : Нет
Аудио #1
Идентификатор : 2
Формат : AC-3
Формат/Информация : Audio Coding 3
Коммерческое название : Dolby Digital
Идентификатор кодека : A_AC3
Продолжительность : 55 м. 13 с.
Вид битрейта : Постоянный
Битрейт : 448 Кбит/сек
Каналы : 6 каналов
ChannelLayout : L R C LFE Ls Rs
Частота : 48,0 КГц
Частота кадров : 31,250 кадров/сек (1536 SPF)
Битовая глубина : 16 бит
Метод сжатия : С потерями
Размер потока : 177 Мбайт (9%)
Язык : Russian
ServiceKind/String : Complete Main
Default : Нет
Forced : Нет
Аудио #2
Идентификатор : 3
Формат : AC-3
Формат/Информация : Audio Coding 3
Коммерческое название : Dolby Digital
Идентификатор кодека : A_AC3
Продолжительность : 55 м. 13 с.
Вид битрейта : Постоянный
Битрейт : 448 Кбит/сек
Каналы : 6 каналов
ChannelLayout : L R C LFE Ls Rs
Частота : 48,0 КГц
Частота кадров : 31,250 кадров/сек (1536 SPF)
Битовая глубина : 16 бит
Метод сжатия : С потерями
Размер потока : 177 Мбайт (9%)
Язык : English
ServiceKind/String : Complete Main
Default : Нет
Forced : Нет
Скриншоты:
       

Орлов Владимир

Post 01-Nov-2019 21:35

[Quote]

--Судная ночь / The Purge--Сезон: 2 / Серии: 1-5 из 10--
Информация о фильме
Название: Судная ночь
Оригинальное название: The Purge
Год выхода: 2019
Жанр: ужасы, фантастика, боевик, триллер, драма
Режиссер: Энтони Хемингуэй, Дэвид Фон Энкен--В ролях: Гэбриел Чаварриа, Джессика Гарза, Ханна Эмили Андерсон, Колин Вуделл, Рид Даймонд, Лили Симмонс, Паулина Гальвес, Эллисон Кинг, Аманда Уоррен, Андреа Франкл--О фильме:
Чтобы сократить уровень преступности, власти США ввели традицию Судной ночи. Раз в году на 12 часов разрешены любые преступления, которые не будут караться законом на следующий день. В центре истории — группа жителей американского городка, чьи судьбы рано или поздно пересекутся в одну из таких страшных ночей. Второй сезон рассказывает, как события одной Судной ночи весь следующий год влияли на жизни четырёх связанных между собой героев, побуждая их совершить определённые поступки в следующую Судную ночь.-- --Страна: США
Студия: Blumhouse Productions, Platinum Dunes
Продолжительность: 5 x ~ 00:42:00
Перевод: Профессиональный (многоголосый, закадровый) [Пифагор]--Файл
Качество: WEB-DL (1080p)
Видео: MPEG-4 AVC, ~ 7149 Кбит/с, 1920x1080
Аудио: Русский (E-AC3, 6 ch, 640 Кбит/с), английский (E-AC3, 6 ch, 640 Кбит/с)
Субтитры: Русские, английские--Реклама: Отсутствует--

Содержание

01. Это не проверка / This Is Not a Test
02. Всё хорошо / Everything Is Fine
03. Слепые пятна / Blindspots

Скриншоты

       

Орлов Владимир

Post 01-Nov-2019 12:02

[Quote]

-Проповедник / Preacher--Сезон: 4 / 1-10 серия из 10--Информация о фильме
Название: Проповедник
Оригинальное название: Preacher
Год выпуска: 2019
Жанр: фэнтези, драма, детектив, приключения
Режиссер: Майкл Словис, Эван Голдберг, Сет Роген--В ролях: Доминик Купер (Jesse Custer), Джозеф Гилган (Cassidy), Рут Негга (Tulip O'Hare), Йен Коллетти (Arseface), Грэм МакТавиш (The Saint of Killers), Пип Торренс (Herr Starr), Ноа Тейлор (Adolf Hitler), Джули Энн Эмери (Lara Featherstone), Колин Каннингэм (TC), Бетти Бакли (Gran'ma), У. Эрл Браун (Hugo Root), Том Брук (Fiore)--О фильме: Сериал "Проповедник" рассказывает историю Джесси Кастера. Он - священник, который ведёт службу в одном из небольших городков Техаса, однако сам уже давно не верует и ведёт образ жизни, далёкий от присущего людям его статуса. Правда, пришло время, когда персонажу ничего не останется, кроме как поверить в существование сверхъестественных сил: странное существо Генезис вселяется в тело главного героя. Оно представляет собой дитя демона и ангела, которое одновременно несёт в себе безмерное количество света, но в то же время переполнено яростным злом. К тому же при определённом раскладе Генезис способен стать таким же могущественным, как сам Бог, поэтому его опасаются многие небесные жители. Главный персонаж объединяется с бывшей возлюбленной Тюльпан, а также берёт к себе в команду вампира Кэссиди, вместе с которыми и отправляется в большое путешествие на поиски того, в кого никогда не верил. Джесси уверен, что если встретит Бога, то сможет с ним поговорить обо всём, однако больше всего пока что главного героя волнует избавление от надоедливого детища ангела и демона. Генезис же, в свою очередь, продолжает развиваться в теле несчастного. Чем же закончится эта интереснейшая фантастическая история? Четвертый сезон постарается дать ответ на этот вопрос. Приятного просмотра!-- --Страна: США
Студия: AMC Studios
Продолжительность: ~00:43:00 серия
Перевод: Профессиональный (многоголосый, закадровый) LostFilm--Файл
Качество: WEB-DL 1080p
Видео: MPEG-4 AVC, ~ 6000 Кбит/с, 1920x1080, 23.976 кадр/с
Аудио: Русский (AC3, 2 ch, 384 Кбит/с), английский (E-AC3, 6 ch, 640 Кбит/с)
Субтитры: Русские (Full [Amazon], Forced [LostFilm]*), английские (Full, SDH, Forced), арабские, бенгальские, немецкие, испанские (Латинская Америка), испанские, французские, хинди, индонезийские, итальянские, японские, корейские, маратхи, голландские, польские, португальские (бразильские), португальские, телугу, турецкие, китайские (упрощенные), китайские (традиционные)--Чистый видеоряд (без заставки и логотипа LostFilm)--

Содержание

01. Масада / Masada
02. Тайная вечеря / Last Supper
03. Девиант / Deviant
04. Поиск и спасение / Search and Rescue
05. Мрачный город / Bleak City
06. Заблудший апостол / The Lost Apostle
07. Мессии / Messiahs
08. Страх божий / Fear of the Lord
09. Увертюра / Overture
10. Конец света / End of the World

Скриншоты

       

Орлов Владимир

Post 01-Nov-2019 11:55

[Quote]

-Проповедник / Preacher--Сезон: 4 / 1-10 серия из 10--Информация о фильме
Название: Проповедник
Оригинальное название: Preacher
Год выпуска: 2019
Жанр: Боевик, Комедия, Криминал, Фэнтези
Режиссер: Майкл Словис, Эван Голдберг, Сет Роген--В ролях: Доминик Купер (Jesse Custer), Джозеф Гилган (Cassidy), Рут Негга (Tulip O'Hare), Йен Коллетти (Arseface), Грэм МакТавиш (The Saint of Killers), Пип Торренс (Herr Starr), Ноа Тейлор (Adolf Hitler), Джули Энн Эмери (Lara Featherstone), Колин Каннингэм (TC), Бетти Бакли (Gran'ma), У. Эрл Браун (Hugo Root), Том Брук (Fiore)--О фильме: Сериал "Проповедник" рассказывает историю Джесси Кастера. Он - священник, который ведёт службу в одном из небольших городков Техаса, однако сам уже давно не верует и ведёт образ жизни, далёкий от присущего людям его статуса. Правда, пришло время, когда персонажу ничего не останется, кроме как поверить в существование сверхъестественных сил: странное существо Генезис вселяется в тело главного героя. Оно представляет собой дитя демона и ангела, которое одновременно несёт в себе безмерное количество света, но в то же время переполнено яростным злом. К тому же при определённом раскладе Генезис способен стать таким же могущественным, как сам Бог, поэтому его опасаются многие небесные жители. Главный персонаж объединяется с бывшей возлюбленной Тюльпан, а также берёт к себе в команду вампира Кэссиди, вместе с которыми и отправляется в большое путешествие на поиски того, в кого никогда не верил. Джесси уверен, что если встретит Бога, то сможет с ним поговорить обо всём, однако больше всего пока что главного героя волнует избавление от надоедливого детища ангела и демона. Генезис же, в свою очередь, продолжает развиваться в теле несчастного. Чем же закончится эта интереснейшая фантастическая история? Четвертый сезон постарается дать ответ на этот вопрос. Приятного просмотра!-- --Страна: США
Студия: AMC Studios
Продолжительность: ~00:43:00 серия
Перевод: Профессиональный (многоголосый, закадровый) LostFilm--Файл
Качество: WEB-DL (720p)
Видео: MPEG-4 AVC, ~ 3000 Кбит/с, 1280x720
Аудио: Русский (AC3, 2 ch, 384 Кбит/с), английский (E-AC3, 6 ch, 640 Кбит/с)
Субтитры: Русские, английские--Видео без заставки и логотипа.
Аудио без рекламных вставок.
--

Содержание

01. Масада / Masada
02. Тайная вечеря / Last Supper
03. Девиант / Deviant
04. Поиск и спасение / Search and Rescue
05. Мрачный город / Bleak City
06. Заблудший апостол / The Lost Apostle
07. Мессии / Messiahs
08. Страх божий / Fear of the Lord
09. Увертюра / Overture
10. Конец света / End of the World

Скриншоты

       

Орлов Владимир

Post 01-Nov-2019 11:44

[Quote]

-Проповедник / Preacher--Сезон: 4 / 1-10 серия из 10--Информация о фильме
Название: Проповедник
Оригинальное название: Preacher
Год: 2019
Сезон: 4
Серии: 1-10
Всего в сезоне серий: 10
Жанры: Боевик, Комедия, Криминал, Фэнтези--Режиссёр: Сет Роген, Майкл Словис, Эван Голдберг
В ролях: Ноа Тейлор, Джули Энн Эмери, Бетти Бакли, Йен Коллетти, Джозеф Гилган, Рут Негга, Доминик Купер, Пип Торренс, Колин Каннингэм, Грэм МакТавиш--Описание: Сериал "Проповедник" рассказывает историю Джесси Кастера. Он - священник, который ведёт службу в одном из небольших городков Техаса, однако сам уже давно не верует и ведёт образ жизни, далёкий от присущего людям его статуса. Правда, пришло время, когда персонажу ничего не останется, кроме как поверить в существование сверхъестественных сил: странное существо Генезис вселяется в тело главного героя. Оно представляет собой дитя демона и ангела, которое одновременно несёт в себе безмерное количество света, но в то же время переполнено яростным злом. К тому же при определённом раскладе Генезис способен стать таким же могущественным, как сам Бог, поэтому его опасаются многие небесные жители. Главный персонаж объединяется с бывшей возлюбленной Тюльпан, а также берёт к себе в команду вампира Кэссиди, вместе с которыми и отправляется в большое путешествие на поиски того, в кого никогда не верил. Джесси уверен, что если встретит Бога, то сможет с ним поговорить обо всём, однако больше всего пока что главного героя волнует избавление от надоедливого детища ангела и демона. Генезис же, в свою очередь, продолжает развиваться в теле несчастного. Чем же закончится эта интереснейшая фантастическая история? Четвертый сезон постарается дать ответ на этот вопрос. Приятного просмотра!-- --Выпущено: США. AMC Studios, DC Entertainment, Kickstart Productions, Original Film, Point Grey Pictures, Short Drive Entertainment, Sony Pictures Television--Продолжительность: ~00:43:00 серия
Перевод: Профессиональный многоголосый закадровый [P] LostFilm--Качество: WEB-DLRip
Видео: XviD, ~ 1599 Кбит/с, 720x400
Аудио: Русский, английский (AC3, 2 ch, 192 Кбит/с)
Субтитры: Русские, английские--Релиз группы: --Видео без заставки и логотипа.--

Содержание

01. Масада / Masada
02. Тайная вечеря / Last Supper
03. Девиант / Deviant
04. Поиск и спасение / Search and Rescue
05. Мрачный город / Bleak City
06. Заблудший апостол / The Lost Apostle
07. Мессии / Messiahs
08. Страх божий / Fear of the Lord
09. Увертюра / Overture
10. Конец света / End of the World

Скриншоты

       

Орлов Владимир

Post 31-Oct-2019 19:23

[Quote]

-Черная молния / Black Lightning--Сезон: 3 / Серии: 1-5 из 16--
Год: 2018
Сезон: 3
Серии: 5
Всего в сезоне серий: 16
Жанры: Боевик, Драма, Фантастика--Режиссёр: Салим Акил, Майкл Шульц, Оз Скотт
В ролях: Кресс Уильямс, Чайна Энн МакКлейн, Нафиса Уильямс, Кристин Адамс, Марвин «Krondon» Джонс III, Дэймон Гаптон, Джеймс Римар--Описание:
Второй сезон научно-фантастического сериала "Черная молния" предлагает зрителям в очередной раз окунуться в историю Джеффа Пирса, человека, который порядка девяти лет назад решил закончить карьеру супергероя. Несмотря на огромные силы, мужчина твердо убедил себя, что спасать мир больше не его забота. Однако мужчине приходится обдумать решение еще раз, ведь на улицах города банда "Сотня" в очередной раз нарушает законы и грозит безопасности простых граждан. Конфликт в отношениях с дочерью заставляют Джефферсона принять окончательное решение - он в очередной раз возвращается к своей супергеройской работе.-- --Выпущено: США. DC Entertainment, Warner Bros. Television, Berlanti Productions
Продолжительность: ~ 00:42:00 серия
Перевод: Профессиональный многоголосый закадровый LostFilm--Качество: WEB-DL (720p)
Видео: MPEG-4 AVC, ~ 4750 Кбит/с, 1280x720
Аудио: Русский (AC3, 2 ch, 384 Кбит/с), английский (AC3, 6 ch, 384 Кбит/с)
Субтитры: Английские--Релиз группы: --Видео без заставки и логотипа.
Аудио без рекламных вставок.
--

Скриншоты

       

Орлов Владимир

Post 31-Oct-2019 15:08

[Quote]

--Нэнси Дрю / Nancy Drew--Сезон: 1 / Серии: 1-5 из 22--Информация о фильме
Год выпуска: 2019
Жанр: Детектив
Страна: США, CBS Television Studios
Режиссёр: Ларри Тенг
Перевод: Профессиональный многоголосый [LostFilm]
Субтитры: Английские
Продолжительность: 5 х ~ 00:44:00-- В ролях: Синед Карри, Тони Али, Альвина Аугуст, Уилл Чилтон, Барбара Эдди, Анжела Фэйрфилд, Эдем Саммер Гилмор, Мэддисон Джайзани, Тунджи Касим, Леа Льюис-- Описание: Нэнси Дрю только что окончила школу и собирается поступать в колледж в другом городе, а пока подрабатывает официанткой. Однако планы придётся отложить — происходит таинственное убийство, в котором подозревают нескольких подростков, в том числе и главную героиню. Ей придётся провести собственное расследование.-- -- Качество: WEB-DLRip
Формат: AVI
Видео: XviD, ~ 1600 Кбит/с, 704x352
Аудио : Русский, английский (AC3, 2ch, 192 Кбит/с)

Скриншоты

       
 

The time now is: Today 01:38

All times are GMT + 3 Hours