Today is a free download without charge Download

Search found 500 matches

Author Message

mayor

Post 13-Jan-2020 18:37

[Quote]

-Преступник: Испания / Criminal: Spain (сезон 1, серии 1-3 из 3)- Производство: Великобритания, Франция, Германия, Испания / Idiotlamp Productions
Жанр: драма, криминал
Режиссер: Мариано Барросо, Джим Филд Смит
Актеры: Эмма Суарес, Хорхе Бош, Альваро Сервантес, Мария Моралес, Хосе Анхель Эхидо, Дэниэл Чаморро, Хавьер Коль, Нурия Менсия, Мило Табоада, Инма Куэста и др.
Описание:
Сериал является антологией, сюжеты разных эпизодов не связаны между собой. Шоу разделено на четыре независимые части. Действие разворачивается в четырех европейских странах: Англии, Германии, Франции и Испании.
Сразу нужно оговориться, что "Преступник" — необычный сериал. Место действие здесь крайне ограничено. Все страсти кипят в полицейской комнате для допросов и соседнем помещении, откуда другие сыщики наблюдают за разговором через специальное стекло. Таким образом повествование сводится не столько к каким-то событиям, сколько к психологическому поединку между полицейским и подозреваемым. Сами создатели описывают это как своеобразную игру в кошки-мышки.

Дата мировой премьеры: 20 сентября 2019
Продолжительность: ~00:40:00 серия
Качество видео: WEBRip [http://sendfile.su/1540030]
Перевод: Многоголосый, профессиональный - LostFilm
Субтитры: русские, английские
Видео: XviD, 720x400 (16:9), ~1461 kbps
Аудио 1: MP3, 2 ch, 128 kbps — русский
Аудио 2: MP3, 2 ch, 128 kbps — испанский

Доп.Информация:

Общее
Полное имя : D:\Преступник (сезон 1) Criminal Spain (2019) WEBRip - LostFilm\Criminal.Spain.S01E01.WEBRip.Rus.Spa.DV.LostFilm.avi
Формат : AVI
Формат/Информация : Audio Video Interleave
Размер файла : 496 Мбайт
Продолжительность : 40 м. 2 с.
Общий поток : 1732 Кбит/сек
Название фильма : Criminal.Spain.S01E01.WEBRip.Rus.Spa.DV.LostFilm / NNM-Club
Программа кодирования : VirtualDubModRus 1.5.10.2 (build 2542/release)
Библиотека кодирования : VirtualDubMod build 2542/release
Видео
Идентификатор : 0
Формат : MPEG-4 Visual
Профиль формата : Advanced Simple@L5
Настройки формата : BVOP2
Параметр BVOP формата : 2
Параметр QPel формата : Нет
Параметр GMC формата : Без точки перехода
Параметр матрицы формата : Default (H.263)
Идентификатор кодека : XVID
Идентификатор кодека/Подсказка : XviD
Продолжительность : 40 м. 2 с.
Битрейт : 1461 Кбит/сек
Ширина : 720 пикселей
Высота : 400 пикселей
Соотношение сторон : 16:9
Частота кадров : 25,000 кадров/сек
Цветовое пространство : YUV
Субдискретизация насыщенности : 4:2:0
Битовая глубина : 8 бит
Тип развёртки : Прогрессивная
Метод сжатия : С потерями
Бит/(Пиксели*Кадры) : 0.203
Размер потока : 418 Мбайт (84%)
Заголовок : Rip from DriverV for NNM-Club
Библиотека кодирования : XviD 64
Аудио #1
Идентификатор : 1
Формат : MPEG Audio
Версия формата : Version 1
Профиль формата : Layer 3
Настройки формата : Joint stereo / MS Stereo
Идентификатор кодека : 55
Идентификатор кодека/Подсказка : MP3
Продолжительность : 40 м. 2 с.
Вид битрейта : Постоянный
Битрейт : 128 Кбит/сек
Каналы : 2 канала
Частота : 48,0 КГц
Метод сжатия : С потерями
Размер потока : 36,7 Мбайт (7%)
Выравнивание : Соединение по промежуткам
Продолжительность промежутка : 40 мс. (1,00 видеокадр)
Время предзагрузки промежутка : 504 мс.
Аудио #2
Идентификатор : 2
Формат : MPEG Audio
Версия формата : Version 1
Профиль формата : Layer 3
Настройки формата : Joint stereo / MS Stereo
Идентификатор кодека : 55
Идентификатор кодека/Подсказка : MP3
Продолжительность : 40 м. 2 с.
Вид битрейта : Постоянный
Битрейт : 128 Кбит/сек
Каналы : 2 канала
Частота : 48,0 КГц
Метод сжатия : С потерями
Размер потока : 36,7 Мбайт (7%)
Выравнивание : Соединение по промежуткам
Продолжительность промежутка : 40 мс. (1,00 видеокадр)
Время предзагрузки промежутка : 504 мс.

Список серий

01. Isabel / Исабель
02. Carmen / Кармен
03. Carmelo / Кармело

Дополнительная информация

"Чистый" кадр. Вступительная заставка и логотип LostFilm отсутствуют.
Скриншоты:
       

mayor

Post 11-Jan-2020 09:02

[Quote]

- Политик / The Politician (сезон 1, серии 1-8 из 8) - Производство: США / Ryan Murphy Productions
Жанр: комедия
Режиссер: Брэд Фалчук, Гвинет Хердер-Пэйтон, Иэн Бреннан
Актеры: Бен Платт, Зои Дойч, Люси Бойнтон, Боб Бэлабан, Дэвид Коренсвет, Джулия Шлэпфер, Лора Дрейфус, Тео Джермейн, Ране Джонс, Бен Баррет
Описание:
Молодой амбициозный политик из Санта-Барбары мечтает пробиться на вершину политического Олимпа.

Продолжительность: ~00:46:00 серия, первая серия ~01:00:00
Качество видео: WEB-DLRip [thumb]http://sendfile.su/1540594[/thumb]
Перевод: Дублированный (Пифагор)
Субтитры: русские (форс., полные), английские (SDH)
Видео: AVC/H.264, 1920x1080 (16:9), ~4420 Kbps
Аудио #1: E-AC3, 6 ch, 640 Kbps - русский
Аудио #2: E-AC3, 6 ch, 640 Kbps - английский

Доп.Информация:

Общее
Уникальный идентификатор : 226023500307922374298432761985062518704 (0xAA0A8AF0DDB6AB3A8E94275AB219BFB0)
Полное имя : F:\The PoliticianS01 (2019)\ThePoliticianS01E01.mkv
Формат : Matroska
Версия формата : Version 4
Размер файла : 2,43 Гбайт
Продолжительность : 1 ч. 2 м.
Режим общего битрейта : Переменный
Общий поток : 5580 Кбит/сек
Дата кодирования : UTC 2019-09-27 10:46:49
Программа кодирования : mkvmerge v9.5.0 ('Quiet Fire') 64bit
Библиотека кодирования : libebml v1.3.4 + libmatroska v1.4.5
Видео
Идентификатор : 1
Формат : AVC
Формат/Информация : Advanced Video Codec
Профиль формата : Main@L4
Настройки формата : CABAC / 3 Ref Frames
Параметр CABAC формата : Да
Параметр RefFrames формата : 3 кадра
Идентификатор кодека : V_MPEG4/ISO/AVC
Продолжительность : 1 ч. 2 м.
Вид битрейта : Переменный
Битрейт : 4420 Кбит/сек
Максимальный битрейт : 6630 Кбит/сек
Ширина : 1920 пикселей
Высота : 1080 пикселей
Соотношение сторон : 16:9
Режим частоты кадров : Постоянный
Частота кадров : 23,976 (24000/1001) кадра/сек
Цветовое пространство : YUV
Субдискретизация насыщенности : 4:2:0
Битовая глубина : 8 бит
Тип развёртки : Прогрессивная
Бит/(Пиксели*Кадры) : 0.089
Размер потока : 1,87 Гбайт (77%)
Библиотека кодирования : x264 core 148 r2715 7e75228
Настройки программы : cabac=1 / ref=3 / deblock=1:0:0 / analyse=0x1:0x111 / me=umh / subme=10 / psy=1 / psy_rd=1.00:0.00 / mixed_ref=1 / me_range=24 / chroma_me=1 / trellis=2 / 8x8dct=0 / cqm=0 / deadzone=21,11 / fast_pskip=1 / chroma_qp_offset=-2 / threads=8 / lookahead_threads=1 / sliced_threads=0 / nr=0 / decimate=1 / interlaced=0 / bluray_compat=0 / stitchable=1 / constrained_intra=0 / bframes=2 / b_pyramid=0 / b_adapt=2 / b_bias=0 / direct=3 / weightb=1 / open_gop=0 / weightp=2 / keyint=48 / keyint_min=25 / scenecut=0 / intra_refresh=0 / rc_lookahead=48 / rc=2pass / mbtree=1 / bitrate=4420 / ratetol=1.0 / qcomp=0.50 / qpmin=6 / qpmax=51 / qpstep=4 / cplxblur=20.0 / qblur=0.5 / vbv_maxrate=6630 / vbv_bufsize=8840 / nal_hrd=vbr / filler=0 / ip_ratio=1.40 / aq=1:1.00
Язык : English
Default : Да
Forced : Нет
Аудио #1
Идентификатор : 2
Формат : E-AC-3
Формат/Информация : Enhanced AC-3
Коммерческое название : Dolby Digital Plus
Идентификатор кодека : A_EAC3
Продолжительность : 1 ч. 2 м.
Вид битрейта : Постоянный
Битрейт : 640 Кбит/сек
Каналы : 6 каналов
ChannelLayout : L R C LFE Ls Rs
Частота : 48,0 КГц
Частота кадров : 31,250 кадров/сек (1536 SPF)
Метод сжатия : С потерями
Размер потока : 286 Мбайт (11%)
Заголовок : rus
Язык : Russian
ServiceKind/String : Complete Main
Default : Да
Forced : Нет
Аудио #2
Идентификатор : 3
Формат : E-AC-3
Формат/Информация : Enhanced AC-3
Коммерческое название : Dolby Digital Plus
Идентификатор кодека : A_EAC3
Продолжительность : 1 ч. 2 м.
Вид битрейта : Постоянный
Битрейт : 640 Кбит/сек
Каналы : 6 каналов
ChannelLayout : L R C LFE Ls Rs
Частота : 48,0 КГц
Частота кадров : 31,250 кадров/сек (1536 SPF)
Метод сжатия : С потерями
Размер потока : 286 Мбайт (11%)
Заголовок : eng
Язык : English
ServiceKind/String : Complete Main
Default : Нет
Forced : Нет
Текст #1
Идентификатор : 4
Формат : UTF-8
Идентификатор кодека : S_TEXT/UTF8
Идентификатор кодека/Информация : UTF-8 Plain Text
Продолжительность : 50 м. 42 с.
Битрейт : 6 бит/сек
ElementCount : 44
Размер потока : 2,39 Кбайт (0%)
Заголовок : rusForced
Язык : Russian
Default : Да
Forced : Да
Текст #2
Идентификатор : 5
Формат : UTF-8
Идентификатор кодека : S_TEXT/UTF8
Идентификатор кодека/Информация : UTF-8 Plain Text
Продолжительность : 1 ч. 1 м.
Битрейт : 105 бит/сек
ElementCount : 865
Размер потока : 47,7 Кбайт (0%)
Заголовок : rusFull
Язык : Russian
Default : Нет
Forced : Нет
Текст #3
Идентификатор : 6
Формат : UTF-8
Идентификатор кодека : S_TEXT/UTF8
Идентификатор кодека/Информация : UTF-8 Plain Text
Продолжительность : 1 ч. 0 м.
Битрейт : 83 бит/сек
ElementCount : 954
Размер потока : 36,6 Кбайт (0%)
Заголовок : engSDH
Язык : English
Default : Нет
Forced : Нет
Скриншоты:
       

mayor

Post 08-Jan-2020 17:03

[Quote]

- Ведьмак / The Witcher (сезон 1, серии 1-8 из 8) - Производство: Польша, США / NetFlix, Pioneer Stilking Films, Platige Image, Sean Daniel Company
Жанр: фэнтези, боевик, драма, приключения
Режиссер: Алик Сахаров, Шарлотта Брандстром, Алекс Гарсиа Лопес
Актеры: Генри Кавилл, Фрейя Аллан, Джои Бэти, МайАнна Бёринг, Том Кэнтон, Аня Чалотра, Имон Фэррен, Бьерн Хлинур Харальдссон, Адам Леви, Джоди Мэй и др.
Описание:
Ведьмак Геральт, мутант и убийца чудовищ, изо всех сил старается найти свое место в мире, где люди часто оказываются намного хуже монстров.

Дата мировой премьеры: 20 декабря 2019
Релиз от: OlLanDGroup
Продолжительность: ~01:00:00 серия
Качество видео: WEB-DLRip [http://sendfile.su/1536738]
Перевод: Многоголосый, профессиональный - Lostfilm
Субтитры: русские (форс., полные), английские
Видео: Xvid, 704x352, ~1699 Kbps
Аудио 1: AC3, 2 ch, 192 Kbps - русский
Аудио 2: AC3, 2 ch, 192 Kbps - английский

Доп.Информация:

General
Complete name : D:\OlLanDGroup\The.Witcher.S01.WEB-DLRip.Lostfilm.OlLanDGroup\The.Witcher.S01.E01.WEB-DLRip.Lostfilm.OlLanDGroup.avi
Format : AVI
Format/Info : Audio Video Interleave
File size : 916 MiB
Duration : 1 h 1 min
Overall bit rate : 2 097 kb/s
Writing application : VirtualDubMod 1.5.10.2 (build 2540/release)
Writing library : VirtualDubMod build 2540/release
Video
ID : 0
Format : MPEG-4 Visual
Format profile : Advanced Simple@L5
Format settings : BVOP1
Format settings, BVOP : 1
Format settings, QPel : No
Format settings, GMC : No warppoints
Format settings, Matrix : Default (MPEG)
Codec ID : XVID
Codec ID/Hint : XviD
Duration : 1 h 1 min
Bit rate : 1 699 kb/s
Width : 704 pixels
Height : 352 pixels
Display aspect ratio : 2.000
Frame rate : 24.000 FPS
Color space : YUV
Chroma subsampling : 4:2:0
Bit depth : 8 bits
Scan type : Progressive
Compression mode : Lossy
Bits/(Pixel*Frame) : 0.286
Stream size : 742 MiB (81%)
Writing library : XviD 73
Audio #1
ID : 1
Format : AC-3
Format/Info : Audio Coding 3
Commercial name : Dolby Digital
Codec ID : 2000
Duration : 1 h 1 min
Bit rate mode : Constant
Bit rate : 192 kb/s
Channel(s) : 2 channels
Channel layout : L R
Sampling rate : 48.0 kHz
Frame rate : 31.250 FPS (1536 SPF)
Bit depth : 16 bits
Compression mode : Lossy
Stream size : 83.9 MiB (9%)
Alignment : Split accross interleaves
Interleave, duration : 42 ms (1.00 video frame)
Interleave, preload duration : 500 ms
Service kind : Complete Main
Audio #2
ID : 2
Format : AC-3
Format/Info : Audio Coding 3
Commercial name : Dolby Digital
Codec ID : 2000
Duration : 1 h 1 min
Bit rate mode : Constant
Bit rate : 192 kb/s
Channel(s) : 2 channels
Channel layout : L R
Sampling rate : 48.0 kHz
Frame rate : 31.250 FPS (1536 SPF)
Bit depth : 16 bits
Compression mode : Lossy
Stream size : 83.9 MiB (9%)
Alignment : Split accross interleaves
Interleave, duration : 42 ms (1.00 video frame)
Interleave, preload duration : 500 ms
Service kind : Complete Main

Список серий:

01. Начало конца | The End’s Beginning
02.Четыре марки | Four Marks
03. Предательская луна | Betrayer Moon
04. Приемы, бастарды и погребения | Of Banquets, Bastards and Burials
05. Желания в бутылке | Bottled Appetites
06. Редкий вид | Rare Species
07. До падения | Before a Fall
08. Нечто большее | Much More

Дополнительная информация:

"Чистый" кадр. Вступительная заставка и логотип LostFilm отсутствуют.
Скриншоты:
       

Скриншоты:

     
     

mayor

Post 04-Jan-2020 20:20

[Quote]

- Дракула / Dracula (сезон 1, серии 1-3 из 3) - Производство: Великобритания \ Hartswood Films, British Broadcasting Corporation (BBC), Netflix
Жанр: ужасы, драма
Режиссер: Джонни Кэмпбелл, Пол МакГиган, Дэймон Томас
Актеры: Клас Банг, Долли Уэллс, Джон Хеффернан, Джоэнна Скэнлэн, Морфидд Кларк, Джонатан Арис, Юссеф Керкур, Нэйтан Стюарт-Джарретт, Катерина Шелл, Линдси Маршал
Описание:
История берет начало в 1897 году в Трансильвании, куда молодой английский юрист Джонатан Харкер (Джон Хеффернан) приезжает на встречу с новым клиентом. Мужчина и не подозревает, что его ожидает в мрачных стенах средневекового замка графа Дракулы (Клас Банг): интересы хозяина оказываются шире, чем вопросы недвижимости, и вот гость уже пускается в бега, чтобы спасти свою жизнь и защитить близких. Погоня за юристом приводит Дракулу в викторианский Лондон, разительно отличающийся от родной Румынии. Почуяв свежую кровь, вампир решает заселить британский остров своими последователями. В то время как потомки доктора Ван Хельсинга начинают охоту на монстра, внимание героя привлекает ничем не примечательная девушка...

Продолжительность: ~01:30:00 серия
Качество видео: WEB-DL (1080p) [http://sendfile.su/1539040]
Перевод: Дублированный (Невафильм)
Субтитры: русские (Forced, Full), английские, немецкие, французские, итальянские, испанские, турецкие, финские, польские
Реклама: Отсутствует
Видео: AVC/H.264, 1920x1080, ~3213 kbps
Аудио #1: E-AC3, 6 ch, ~640 Kbps (Русский, Невафильм)
Аудио #2: AC3, 6 ch, ~640.00 kbps (Русский, Невафильм)
Аудио #3: E-AC3, 6 ch, ~768.00 kbps (Английский)

Содержание

01. Правила зверя / The Rules of the Beast
02. Кровавое судно / Blood Vessel
03. Тёмный компас / The Dark Compass

Доп.Информация:

General
Complete name : Dracula.S01E01.WEB-DL.1080p.-Kyle.mkv
Format : Matroska
Format version : Version 4
File size : 3.29 GiB
Duration : 1 h 29 min
Overall bit rate mode : Variable
Overall bit rate : 5 265 kb/s
Encoded date : UTC 2020-01-04 08:39:20
Writing application : mkvmerge v41.0.0 ('Smarra') 64-bit
Writing library : libebml v1.3.9 + libmatroska v1.5.2
Video
ID : 1
Format : AVC
Format/Info : Advanced Video Codec
Format profile : High@L4
Format settings : CABAC / 4 Ref Frames
Format settings, CABAC : Yes
Format settings, Reference : 4 frames
Codec ID : V_MPEG4/ISO/AVC
Duration : 1 h 29 min
Bit rate mode : Variable
Bit rate : 3 213 kb/s
Maximum bit rate : 20.0 Mb/s
Width : 1 920 pixels
Height : 1 080 pixels
Display aspect ratio : 16:9
Frame rate mode : Constant
Frame rate : 25.000 FPS
Color space : YUV
Chroma subsampling : 4:2:0
Bit depth : 8 bits
Scan type : Progressive
Bits/(Pixel*Frame) : 0.062
Stream size : 2.01 GiB (61%)
Title : English
Writing library : x264 core 148 r2715 7e75228
Encoding settings : cabac=1 / ref=4 / deblock=1:0:0 / analyse=0x3:0x111 / me=umh / subme=10 / psy=1 / psy_rd=1.00:0.00 / mixed_ref=1 / me_range=120 / chroma_me=1 / trellis=2 / 8x8dct=1 / cqm=0 / deadzone=21,11 / fast_pskip=1 / chroma_qp_offset=-2 / threads=8 / lookahead_threads=2 / sliced_threads=0 / nr=0 / decimate=1 / interlaced=0 / bluray_compat=0 / stitchable=1 / constrained_intra=0 / bframes=16 / b_pyramid=2 / b_adapt=2 / b_bias=0 / direct=3 / weightb=1 / open_gop=0 / weightp=2 / keyint=250 / keyint_min=126 / scenecut=0 / intra_refresh=0 / rc_lookahead=250 / rc=crf / mbtree=1 / crf=16.0 / qcomp=0.50 / qpmin=6 / qpmax=51 / qpstep=4 / vbv_maxrate=20000 / vbv_bufsize=25000 / crf_max=0.0 / nal_hrd=vbr / filler=0 / ip_ratio=1.40 / aq=1:0.80
Language : English
Default : Yes
Forced : No
Audio #1
ID : 2
Format : E-AC-3
Format/Info : Enhanced AC-3
Commercial name : Dolby Digital Plus
Codec ID : A_EAC3
Duration : 1 h 29 min
Bit rate mode : Constant
Bit rate : 640 kb/s
Channel(s) : 6 channels
Channel layout : L R C LFE Ls Rs
Sampling rate : 48.0 kHz
Frame rate : 31.250 FPS (1536 SPF)
Compression mode : Lossy
Stream size : 410 MiB (12%)
Title : Russian, E-AC3
Language : Russian
Service kind : Complete Main
Default : Yes
Forced : No
Audio #2
ID : 3
Format : AC-3
Format/Info : Audio Coding 3
Commercial name : Dolby Digital
Codec ID : A_AC3
Duration : 1 h 29 min
Bit rate mode : Constant
Bit rate : 640 kb/s
Channel(s) : 6 channels
Channel layout : L R C LFE Ls Rs
Sampling rate : 48.0 kHz
Frame rate : 31.250 FPS (1536 SPF)
Compression mode : Lossy
Stream size : 410 MiB (12%)
Title : Russian, AC3
Language : Russian
Service kind : Complete Main
Default : No
Forced : No
Audio #3
ID : 4
Format : E-AC-3 JOC
Format/Info : Enhanced AC-3 with Joint Object Coding
Commercial name : Dolby Digital Plus with Dolby Atmos
Codec ID : A_EAC3
Duration : 1 h 29 min
Bit rate mode : Constant
Bit rate : 768 kb/s
Channel(s) : 6 channels
Channel layout : L R C LFE Ls Rs
Sampling rate : 48.0 kHz
Frame rate : 31.250 FPS (1536 SPF)
Compression mode : Lossy
Stream size : 492 MiB (15%)
Title : English
Language : English
Service kind : Complete Main
Default : No
Forced : No
Complexity index : 16
Number of dynamic objects : 15
Bed channel count : 1 channel
Bed channel configuration : LFE
Text #1
ID : 5
Format : UTF-8
Codec ID : S_TEXT/UTF8
Codec ID/Info : UTF-8 Plain Text
Duration : 1 h 28 min
Bit rate : 0 b/s
Count of elements : 10
Stream size : 395 Bytes (0%)
Title : Forced
Language : Russian
Default : Yes
Forced : No
Text #2
ID : 6
Format : UTF-8
Codec ID : S_TEXT/UTF8
Codec ID/Info : UTF-8 Plain Text
Duration : 1 h 28 min
Bit rate : 85 b/s
Count of elements : 1072
Stream size : 55.4 KiB (0%)
Title : Russian
Language : Russian
Default : No
Forced : No
Text #3
ID : 7
Format : UTF-8
Codec ID : S_TEXT/UTF8
Codec ID/Info : UTF-8 Plain Text
Duration : 1 h 28 min
Bit rate : 60 b/s
Count of elements : 1395
Stream size : 39.1 KiB (0%)
Title : English
Language : English
Default : No
Forced : No
Text #4
ID : 8
Format : UTF-8
Codec ID : S_TEXT/UTF8
Codec ID/Info : UTF-8 Plain Text
Duration : 1 h 28 min
Bit rate : 52 b/s
Count of elements : 1051
Stream size : 34.0 KiB (0%)
Title : German
Language : German
Default : No
Forced : No
Text #5
ID : 9
Format : UTF-8
Codec ID : S_TEXT/UTF8
Codec ID/Info : UTF-8 Plain Text
Duration : 1 h 28 min
Bit rate : 54 b/s
Count of elements : 1104
Stream size : 35.3 KiB (0%)
Title : French
Language : French
Default : No
Forced : No
Text #6
ID : 10
Format : UTF-8
Codec ID : S_TEXT/UTF8
Codec ID/Info : UTF-8 Plain Text
Duration : 1 h 28 min
Bit rate : 48 b/s
Count of elements : 1085
Stream size : 31.5 KiB (0%)
Title : Italian
Language : Italian
Default : No
Forced : No
Text #7
ID : 11
Format : UTF-8
Codec ID : S_TEXT/UTF8
Codec ID/Info : UTF-8 Plain Text
Duration : 1 h 28 min
Bit rate : 49 b/s
Count of elements : 1044
Stream size : 32.0 KiB (0%)
Title : European Spanish
Language : Spanish
Default : No
Forced : No
Text #8
ID : 12
Format : UTF-8
Codec ID : S_TEXT/UTF8
Codec ID/Info : UTF-8 Plain Text
Duration : 1 h 28 min
Bit rate : 50 b/s
Count of elements : 1012
Stream size : 32.8 KiB (0%)
Title : Turkish
Language : Turkish
Default : No
Forced : No
Text #9
ID : 13
Format : UTF-8
Codec ID : S_TEXT/UTF8
Codec ID/Info : UTF-8 Plain Text
Duration : 1 h 28 min
Bit rate : 45 b/s
Count of elements : 1039
Stream size : 29.2 KiB (0%)
Title : Finnish
Language : Finnish
Default : No
Forced : No
Text #10
ID : 14
Format : UTF-8
Codec ID : S_TEXT/UTF8
Codec ID/Info : UTF-8 Plain Text
Duration : 1 h 28 min
Bit rate : 50 b/s
Count of elements : 1062
Stream size : 32.5 KiB (0%)
Title : Polish
Language : Polish
Default : No
Forced : No
Скриншоты:
       

Clavik

Post 28-Dec-2019 17:01

[Quote]

Затерянные в космосе / Lost in Space (2019) WEBRip (сезон 2, серии 1-10 из 10) JimmyJ [AD] - Производство: США / Applebox Pictures, Clickety-Clack Productions, Legendary Television, Synthesis Entertainment
Жанр: фантастика, драма, детектив, приключения, семейный
Режиссер: Тим Соутэм, Стивен Серджик, Нил Маршалл
Актеры: Молли Паркер, Тоби Стивенс, Макс Дженкинс, Тейлор Расселл, Мина Сандвол, Игнасио Серричио, Паркер Поузи, Брайан Стил, Раза Джеффри, Амелия Берстин
Описание:
Наступило современное будущее, позволившее учёным сделать инновационный прорыв. В этом новом мире путешествия в открытый космос стали привычным делом, и никто им уже не удивлялся. Межгалактические перелеты совершались ежедневно, были открыты необычные планеты и созвездия. Вот и семейство Робинсонов в полном составе однажды отправилось на космические просторы, чтобы довести до конца очень важную правительственную миссию. Их маршрут пролегал через огромное пространство, и преодолеть его можно было спустя миллионы световых лет. Но в пути произошла авария, вызвавшая экстренную посадку на неизвестную площадку. До нужной цели оставалось еще очень далеко, и вернуться на верную дорогу нельзя. Что делать? Пришлось командиру отряда принимать решение о высадке на поверхность, чтобы из подручных материалов они смогли починить летательный аппарат. Но астронавтам необходимо побороть собственный страх, выжить в тяжёлых условиях, и справиться с накатившим отчаянием. Всех героев ждет непростой период времени, заполненный испытаниями, опасностями и странными событиями. Справятся ли путешественники со всеми тяжелыми проблемами?

Релиз от: JimmyJ
Продолжительность: ~00:50:00 серия
Качество видео: WEBRip
Перевод: Двуголосый любительский (JimmyJ)
Реклама: присутствуют видео, аудио, текстовые вставки рекламы
Видео: XviD, 720х328, ~1440 kbps
Аудио #1: MP3, 2 ch, 192 Kbps - русский
Аудио #2: MP3, 2 ch, 192 Kbps - английский

MediaInfo:

General
Complete name : E:\Torrent\JimmyJ\Lost.in.Space.2018.S02.NF.WEBRip-JimmyJ\Lost.in.Space.2018.S02E02.Precipice.NF.WEBRip-JimmyJ.avi
Format : AVI
Format/Info : Audio Video Interleave
File size : 541 MiB
Duration : 41 min 4 s
Overall bit rate : 1 843 kb/s
Writing application : Lavf58.29.100
Video
ID : 0
Format : MPEG-4 Visual
Format profile : Advanced Simple@L5
Format settings, BVOP : No
Format settings, QPel : No
Format settings, GMC : No warppoints
Format settings, Matrix : Default (H.263)
Codec ID : XVID
Codec ID/Hint : XviD
Duration : 41 min 3 s
Bit rate : 1 438 kb/s
Width : 720 pixels
Height : 328 pixels
Display aspect ratio : 2.2:1
Frame rate : 23.976 (24000/1001) FPS
Color space : YUV
Chroma subsampling : 4:2:0
Bit depth : 8 bits
Scan type : Progressive
Compression mode : Lossy
Bits/(Pixel*Frame) : 0.254
Stream size : 422 MiB (78%)
Writing library : XviD 67
Audio #1
ID : 1
Format : MPEG Audio
Format version : Version 1
Format profile : Layer 3
Format settings : Joint stereo
Codec ID : 55
Codec ID/Hint : MP3
Duration : 41 min 4 s
Bit rate mode : Constant
Bit rate : 192 kb/s
Channel(s) : 2 channels
Sampling rate : 48.0 kHz
Compression mode : Lossy
Stream size : 56.4 MiB (10%)
Alignment : Aligned on interleaves
Interleave, duration : 24 ms (0.58 video frame)
Title : JimmyJ DDP5.1 @ 768kbps
Writing library : LAMEªªª
Audio #2
ID : 2
Format : MPEG Audio
Format version : Version 1
Format profile : Layer 3
Format settings : Joint stereo
Codec ID : 55
Codec ID/Hint : MP3
Duration : 41 min 4 s
Bit rate mode : Constant
Bit rate : 192 kb/s
Channel(s) : 2 channels
Sampling rate : 48.0 kHz
Compression mode : Lossy
Stream size : 56.4 MiB (10%)
Alignment : Aligned on interleaves
Interleave, duration : 24 ms (0.58 video frame)
Title : Original DDP5.1 @ 768kbps
Writing library : LAMEªª
Скриншоты:
       

Clavik

Post 26-Dec-2019 11:29

[Quote]

Ведьмак / The Witcher (2019) WEB-DLRip «The Worst Monsters Are the Ones We Create»- Производство: Польша, США / NetFlix, Pioneer Stilking Films, Platige Image, Sean Daniel Company
Жанр: фэнтези, боевик, драма, приключения
Режиссер: Алик Сахаров, Шарлотта Брандстром, Алекс Гарсиа Лопес
Актеры: Генри Кавилл, Фрейя Аллан, Джои Бэти, МайАнна Бёринг, Том Кэнтон, Аня Чалотра, Имон Фэррен, Бьерн Хлинур Харальдссон, Адам Леви, Джоди Мэй и др.
Описание:
Ведьмак Геральт, мутант и убийца чудовищ, изо всех сил старается найти свое место в мире, где люди часто оказываются намного хуже монстров.

Дата мировой премьеры: 20 декабря 2019
Продолжительность: ~01:00:00 серия
Качество видео: WEB-DLRip
Перевод: Дублированный - Пифагор
Субтитры: русские (форсированные, полные), английские
Видео: XviD, 704x352, ~1800 Kbps
Аудио #1: AC3, 6 ch, 384 Kbps - русский
Аудио #2: AC3, 6 ch, 384 Kbps - английский

MediaInfo:

Общее
Полное имя : F:\The Witcher\The.Witcher.s01e01.avi
Формат : AVI
Формат/Информация : Audio Video Interleave
Размер файла : 1,10 Гбайт
Продолжительность : 1 ч. 1 м.
Общий поток : 2580 Кбит/сек
Программа кодирования : VirtualDubMod 1.5.10.2 (build 2540/release)
Библиотека кодирования : VirtualDubMod build 2540/release
Видео
Идентификатор : 0
Формат : MPEG-4 Visual
Профиль формата : Advanced Simple@L5
Настройки формата : BVOP1 / Custom Matrix
Параметр BVOP формата : 1
Параметр QPel формата : Нет
Параметр GMC формата : Без точки перехода
Параметр матрицы формата : Выборочная
Идентификатор кодека : XVID
Идентификатор кодека/Подсказка : XviD
Продолжительность : 1 ч. 1 м.
Битрейт : 1798 Кбит/сек
Ширина : 704 пикселя
Высота : 352 пикселя
Соотношение сторон : 2,000
Частота кадров : 24,000 кадра/сек
Цветовое пространство : YUV
Субдискретизация насыщенности : 4:2:0
Битовая глубина : 8 бит
Тип развёртки : Прогрессивная
Метод сжатия : С потерями
Бит/(Пиксели*Кадры) : 0.302
Размер потока : 785 Мбайт (70%)
Библиотека кодирования : XviD 73
Аудио #1
Идентификатор : 1
Формат : AC-3
Формат/Информация : Audio Coding 3
Коммерческое название : Dolby Digital
Идентификатор кодека : 2000
Продолжительность : 1 ч. 1 м.
Вид битрейта : Постоянный
Битрейт : 384 Кбит/сек
Каналы : 6 каналов
ChannelLayout : L R C LFE Ls Rs
Частота : 48,0 КГц
Частота кадров : 31,250 кадров/сек (1536 SPF)
Метод сжатия : С потерями
Размер потока : 168 Мбайт (15%)
Выравнивание : Разделение по промежуткам
Продолжительность промежутка : 42 мс. (1,00 видеокадр)
Время предзагрузки промежутка : 500 мс.
ServiceKind/String : Complete Main
Аудио #2
Идентификатор : 2
Формат : AC-3
Формат/Информация : Audio Coding 3
Коммерческое название : Dolby Digital
Идентификатор кодека : 2000
Продолжительность : 1 ч. 1 м.
Вид битрейта : Постоянный
Битрейт : 384 Кбит/сек
Каналы : 6 каналов
ChannelLayout : L R C LFE Ls Rs
Частота : 48,0 КГц
Частота кадров : 31,250 кадров/сек (1536 SPF)
Метод сжатия : С потерями
Размер потока : 168 Мбайт (15%)
Выравнивание : Разделение по промежуткам
Продолжительность промежутка : 42 мс. (1,00 видеокадр)
Время предзагрузки промежутка : 500 мс.
ServiceKind/String : Complete Main

Список серий:

Начало конца / The End's Beginning
Четыре знака / Four Marks
Предательская луна / Betrayer Moon
Банкеты, ублюдки и похороны / Of Banquets, Bastards and Burials
Сдерживаемые аппетиты / Bottled Appetites
Редкие виды / Rare Species
Перед падением / Before A Fall
Нечто большее / Much More
Скриншоты:
       

Clavik

Post 26-Dec-2019 11:28

[Quote]

Ведьмак / The Witcher (2019) WEBRip (сезон 1, серии 1-8 из 8) JimmyJ (обновляемая) [AD] - Производство: Польша, США / NetFlix, Pioneer Stilking Films, Platige Image, Sean Daniel Company
Жанр: фэнтези, боевик, драма, приключения
Режиссер: Алик Сахаров, Шарлотта Брандстром, Алекс Гарсиа Лопес
Актеры: Генри Кавилл, Фрейя Аллан, Джои Бэти, МайАнна Бёринг, Том Кэнтон, Аня Чалотра, Имон Фэррен, Бьерн Хлинур Харальдссон, Адам Леви, Джоди Мэй и др.
Описание:
Все события в этом телесериале происходят в придуманном мире, в котором обитают всевозможные чудовищные существа, а также очень опасные монстры. Наш главный герой -- ведьмак, охотившийся за кровожадными оборотнями, представляющих угрозу для жизни людей. В раннем детстве он пережил мутацию, в результате чего получил лучшие боевые навыки: повышенную силу, быструю реакцию. Основной его задачей было за оплату уничтожать кровожадных обитателей. Но другой раз он шел наперекор своим нанимателям. Геральт оставлял в живых драконов, которых почти не осталось на земле; монстров обладающих высоким интеллектом и вообще старался не вмешиваться в политические интриги чародеев и королей. Но однажды он все таки был вовлечен в противостояния между королевствами, чтобы защитить совсем юную княжну, на которой были сосредоточены интересы больших людей. По предсказанию только ее будущий потомок мог решить судьбу всего человечества. Цири тоже хорошо владела мечом и обладала магией, вот им двоим и пришлось преодолевать все тяжелые испытания, встречающиеся на их пути.

Дата мировой премьеры: 20 декабря 2019
Релиз от: JimmyJ
Продолжительность: ~01:00:00 серия
Качество видео: WEBRip
Перевод: Двуголосый любительский (JimmyJ)
Реклама: присутствуют видео, аудио, текстовые вставки рекламы
Видео: XviD, 720х360, ~1950 kbps
Аудио #1: MP3, 2 ch, 192 Kbps - русский
Аудио #2: MP3, 2 ch, 192 Kbps - английский

MediaInfo:

General
Complete name : E:\Torrent\JimmyJ\The.Witcher.S01.WEBRip-JimmyJ\The.Witcher.S01E01.The.End’s.Beginning.WEBRip-JimmyJ.avi
Format : AVI
Format/Info : Audio Video Interleave
Format profile : OpenDML
File size : 1.03 GiB
Duration : 1 h 2 min
Overall bit rate : 2 368 kb/s
Writing application : Lavf58.29.100
Video
ID : 0
Format : MPEG-4 Visual
Format profile : Advanced Simple@L5
Format settings, BVOP : No
Format settings, QPel : No
Format settings, GMC : No warppoints
Format settings, Matrix : Default (H.263)
Codec ID : XVID
Codec ID/Hint : XviD
Duration : 1 h 2 min
Bit rate : 1 957 kb/s
Width : 720 pixels
Height : 360 pixels
Display aspect ratio : 2.000
Frame rate : 24.000 FPS
Color space : YUV
Chroma subsampling : 4:2:0
Bit depth : 8 bits
Scan type : Progressive
Compression mode : Lossy
Bits/(Pixel*Frame) : 0.315
Stream size : 870 MiB (83%)
Writing library : XviD 67
Audio #1
ID : 1
Format : MPEG Audio
Format version : Version 1
Format profile : Layer 3
Format settings : Joint stereo
Codec ID : 55
Codec ID/Hint : MP3
Duration : 1 h 2 min
Bit rate mode : Constant
Bit rate : 192 kb/s
Channel(s) : 2 channels
Sampling rate : 48.0 kHz
Compression mode : Lossy
Stream size : 85.4 MiB (8%)
Alignment : Aligned on interleaves
Interleave, duration : 24 ms (0.58 video frame)
Title : JimmyJ
Writing library : LAMEUUU
Audio #2
ID : 2
Format : MPEG Audio
Format version : Version 1
Format profile : Layer 3
Format settings : Joint stereo
Codec ID : 55
Codec ID/Hint : MP3
Duration : 1 h 2 min
Bit rate mode : Constant
Bit rate : 192 kb/s
Channel(s) : 2 channels
Sampling rate : 48.0 kHz
Compression mode : Lossy
Stream size : 85.4 MiB (8%)
Alignment : Aligned on interleaves
Interleave, duration : 24 ms (0.58 video frame)
Title : Original
Writing library : LAME
Скриншоты:
       

Soldat_5

Post 23-Dec-2019 17:41

[Quote]

Ординатор / The Resident (2019) WEB-DL [H.264/1080p-LQ] (сезон 3, серии 1-10 из 23)- Производство: США
Жанр: драма
Режиссер: Роб Корн, Билл Д`Элиа, Филлип Нойс
Актеры: Мэтт Зукри, Эмили ВанКэмп, Мелина Канакаридис, Ван Мартен, Маниш Дайал, Тассо Фельдман, Джессика Мизел, Винс Фостер, Элизабет Лудлоу, Кэролайн Фридлюнд и др.
Описание:
Главный герой этого сериала Девон Правеш работает доктором в одной из больниц своего города. Персонаж отличается идеалистическими взглядами на жизнь. Он сразу же показывает свои серьезные намерения, касаемые работы. Однако его руководитель доктор Конрад Хокинс с трудом привыкает к такому сотруднику. Взгляды Девона заставляют Конраду показать молодому сотруднику совершенно иную сторону врачебной практики.

Возраст: 16+ (зрителям, достигшим 16 лет)
Продолжительность: ~00:44:00 серия
Качество видео: WEB-DL
Перевод: Профессиональный многоголосый - TVShows
Субтитры: английские
Видео: AVC/H.264, 1920x1080 (16:9), ~10.0 Mbps
Аудио 1: AC3, 6 ch, 384 kbps - русский
Аудио 2: E-AC3, 6 ch, 640 kbps - английский
5 серия:
Видео: AVC/H.264, 1920х1080 (16:9), ~5 241 kbps
Аудио 1: AC3, 6 ch, 384 kbps - русский
Аудио 2: E-AC3, 6 ch, 256 kbps - английский

Mediainfo:

General
Unique ID : 28046239417127738107736481079680423066 (0x1519825D08C4979E9AF23F7D1931D49A)
Complete name : E:\фильмы\The.Resident.S03.1080p.TVShows\The.Resident.S03E01.1080p.TVShows.mkv
Format : Matroska
Format version : Version 4 / Version 2
File size : 3.21 GiB
Duration : 43 min 21 s
Overall bit rate : 10.6 Mb/s
Encoded date : UTC 2019-09-27 17:18:15
Writing application : mkvmerge v33.1.0 ('Primrose') 64-bit
Writing library : libebml v1.3.7 + libmatroska v1.5.0
Video
ID : 1
Format : AVC
Format/Info : Advanced Video Codec
Format profile : High@L4
Format settings, CABAC : Yes
Format settings, ReFrames : 4 frames
Codec ID : V_MPEG4/ISO/AVC
Duration : 43 min 21 s
Bit rate mode : Constant
Bit rate : 10 000 kb/s
Width : 1 920 pixels
Height : 1 080 pixels
Display aspect ratio : 16:9
Frame rate mode : Constant
Frame rate : 23.976 (24000/1001) FPS
Color space : YUV
Chroma subsampling : 4:2:0
Bit depth : 8 bits
Scan type : Progressive
Bits/(Pixel*Frame) : 0.201
Stream size : 2.90 GiB (90%)
Default : Yes
Forced : No
Color range : Limited
Color primaries : BT.709
Transfer characteristics : BT.709
Matrix coefficients : BT.709
Audio #1
ID : 2
Format : AC-3
Format/Info : Audio Coding 3
Mode extension : CM (complete main)
Format settings, Endianness : Big
Codec ID : A_AC3
Duration : 43 min 21 s
Bit rate mode : Constant
Bit rate : 384 kb/s
Channel(s) : 6 channels
Channel positions : Front: L C R, Side: L R, LFE
Sampling rate : 48.0 kHz
Frame rate : 31.250 FPS (1536 spf)
Compression mode : Lossy
Stream size : 119 MiB (4%)
Title : TVShows
Language : Russian
Default : Yes
Forced : Yes
Audio #2
ID : 3
Format : E-AC-3
Format/Info : Audio Coding 3
Format settings, Endianness : Big
Codec ID : A_EAC3
Duration : 43 min 21 s
Bit rate mode : Constant
Bit rate : 640 kb/s
Channel(s) : 6 channels
Channel positions : Front: L C R, Side: L R, LFE
Sampling rate : 48.0 kHz
Frame rate : 187.500 FPS (256 spf)
Compression mode : Lossy
Stream size : 198 MiB (6%)
Title : Original
Language : English
Default : No
Forced : No
Text
ID : 4
Format : UTF-8
Codec ID : S_TEXT/UTF8
Codec ID/Info : UTF-8 Plain Text
Duration : 43 min 18 s
Bit rate : 82 b/s
Count of elements : 881
Stream size : 26.2 KiB (0%)
Title : English
Language : English
Default : No
Forced : No
Скриншоты:
       

Clavik

Post 21-Dec-2019 20:59

[Quote]

Ведьмак / The Witcher (2019) WEBRip (сезон 1, серии 1-8 из 8) Пифагор - Производство: Польша, США, NetFlix, Pioneer Stilking Films, Platige Image, Sean Daniel Company
Жанр: фэнтези, боевик, драма, приключения
Режиссер: Алик Сахаров, Шарлотта Брандстром, Алекс Гарсиа Лопес
Актеры: Генри Кавилл, Фрейя Аллан, Джои Бэти, МайАнна Бёринг, Том Кэнтон, Аня Чалотра, Имон Фэррен, Бьерн Хлинур Харальдссон, Адам Леви, Джоди Мэй и др.
Описание:
Ведьмак Геральт, мутант и убийца чудовищ, изо всех сил старается найти свое место в мире, где люди часто оказываются намного хуже монстров.

Дата мировой премьеры: 20 декабря 2019
Релиз от: AMRAP
Продолжительность: ~01:00:00 серия
Качество видео: WEBRip
Перевод: Дублированный (Пифагор)
Субтитры: Русские (форс., полные), английские (SDH)
Видео: HEVC/H.265, 1920x1080 ~ 5000 kbps
Аудио: E-AC3, 6 ch, 768 kbps - русский
Аудио: E-AC3, 6 ch, 768 kbps - английский

MediaInfo:

General
Unique ID : 2983716017074303073005100488628840342 (0x23EA48EB0BFCD4FA98FE2B839CB2796)
Complete name : E:\The.Witcher.S01.1080p.WEBRip.HEVC.H265.10bit.HDR-AMRAP\The.Witcher.S01E01.1080p.WEBRip.HEVC.H265.10bit.HDR-AMRAP.mkv
Format : Matroska
Format version : Version 4
File size : 2.78 GiB
Duration : 1 h 1 min
Overall bit rate : 6 507 kb/s
Movie name : Начало конца
Encoded date : UTC 2019-12-21 09:24:59
Writing application : mkvmerge v34.0.0 ('Sight and Seen') 64-bit
Writing library : libebml v1.3.7 + libmatroska v1.5.0
Cover : Yes
Attachments : cover.jpg
Video
ID : 1
Format : HEVC
Format/Info : High Efficiency Video Coding
Format profile : Main 10@L4@Main
HDR format : SMPTE ST 2086, HDR10 compatible
Codec ID : V_MPEGH/ISO/HEVC
Duration : 1 h 0 min
Bit rate : 5 036 kb/s
Width : 1 920 pixels
Height : 1 080 pixels
Display aspect ratio : 16:9
Frame rate mode : Constant
Frame rate : 24.000 FPS
Color space : YUV
Chroma subsampling : 4:2:0 (Type 2)
Bit depth : 10 bits
Bits/(Pixel*Frame) : 0.101
Stream size : 2.12 GiB (76%)
Language : English
Default : Yes
Forced : No
Color range : Limited
Color primaries : BT.2020
Transfer characteristics : PQ
Matrix coefficients : BT.2020 non-constant
Mastering display color primaries : Display P3
Mastering display luminance : min: 0.0001 cd/m2, max: 1000 cd/m2
Maximum Content Light Level : 1078 cd/m2
Maximum Frame-Average Light Level : 96 cd/m2
Audio #1
ID : 2
Format : E-AC-3 JOC
Format/Info : Enhanced AC-3 with Joint Object Coding
Commercial name : Dolby Digital Plus with Dolby Atmos
Codec ID : A_EAC3
Duration : 1 h 1 min
Bit rate mode : Constant
Bit rate : 768 kb/s
Channel(s) : 6 channels
Channel layout : L R C LFE Ls Rs
Sampling rate : 48.0 kHz
Frame rate : 31.250 FPS (1536 SPF)
Compression mode : Lossy
Stream size : 335 MiB (12%)
Title : E-AC3 + Atmos @ 768 kbps - DUB, Пифагор
Language : Russian
Service kind : Complete Main
Default : Yes
Forced : No
Complexity index : 16
Number of dynamic objects : 15
Bed channel count : 1 channel
Bed channel configuration : LFE
Audio #2
ID : 3
Format : E-AC-3 JOC
Format/Info : Enhanced AC-3 with Joint Object Coding
Commercial name : Dolby Digital Plus with Dolby Atmos
Codec ID : A_EAC3
Duration : 1 h 1 min
Bit rate mode : Constant
Bit rate : 768 kb/s
Channel(s) : 6 channels
Channel layout : L R C LFE Ls Rs
Sampling rate : 48.0 kHz
Frame rate : 31.250 FPS (1536 SPF)
Compression mode : Lossy
Stream size : 335 MiB (12%)
Title : E-AC3 + Atmos @ 768 kbps - Original
Language : English
Service kind : Complete Main
Default : No
Forced : No
Complexity index : 16
Number of dynamic objects : 15
Bed channel count : 1 channel
Bed channel configuration : LFE
Text #1
ID : 4
Format : UTF-8
Codec ID : S_TEXT/UTF8
Codec ID/Info : UTF-8 Plain Text
Duration : 59 min 54 s
Bit rate : 0 b/s
Count of elements : 3
Stream size : 144 Bytes (0%)
Title : Forced
Language : Russian
Default : Yes
Forced : Yes
Text #2
ID : 5
Format : UTF-8
Codec ID : S_TEXT/UTF8
Codec ID/Info : UTF-8 Plain Text
Duration : 59 min 54 s
Bit rate : 63 b/s
Count of elements : 624
Stream size : 28.0 KiB (0%)
Title : Full
Language : Russian
Default : No
Forced : No
Text #3
ID : 6
Format : UTF-8
Codec ID : S_TEXT/UTF8
Codec ID/Info : UTF-8 Plain Text
Duration : 58 min 33 s
Bit rate : 46 b/s
Count of elements : 748
Stream size : 19.9 KiB (0%)
Title : Full SDH
Language : English
Default : No
Forced : No
Скриншоты:
       

Дополнительные скриншоты:

 
Без преобразования HDR -> SDR

Clavik

Post 21-Dec-2019 20:48

[Quote]

Ведьмак / The Witcher (2019) WEBRip [H.264/1080p-LQ] (сезон 1, серии 1-8 из 8) «The Worst Monsters Are the Ones We Create»- Производство: Польша, США / NetFlix, Pioneer Stilking Films, Platige Image, Sean Daniel Company
Жанр: фэнтези, боевик, драма, приключения
Режиссер: Алик Сахаров, Шарлотта Брандстром, Алекс Гарсиа Лопес
Актеры: Генри Кавилл, Фрейя Аллан, Джои Бэти, МайАнна Бёринг, Том Кэнтон, Аня Чалотра, Имон Фэррен, Бьерн Хлинур Харальдссон, Адам Леви, Джоди Мэй и др.
Описание:
Ведьмак Геральт, мутант и убийца чудовищ, изо всех сил старается найти свое место в мире, где люди часто оказываются намного хуже монстров.

Дата мировой премьеры: 20 декабря 2019,
Продолжительность: ~01:00:00 серия
Качество видео: WEBRip
Перевод: Дублированный - Пифагор
Субтитры: русские, английские
Видео: AVC/H.264, 1920x1080 (16:9), ~5800 kbps
Аудио 1: E-AC3, 6 ch, 768 kbps - русский
Аудио 2: E-AC3, 6 ch, 768 kbps - английский

MediaInfo:

Общее
Уникальный идентификатор : 160652830747043552317746453400078084075 (0x78DC9C17D4B55D3F4072211E6BDD67EB)
Полное имя : E:\The.Witcher.S01.1080p.WEB-DL.DUB.EniaHD\The.Witcher.S01E01.The.End’s.Beginning.1080p.WEB-DL.DUB.EniaHD.mkv
Формат : Matroska
Версия формата : Version 4
Размер файла : 3,09 Гбайт
Продолжительность : 1 ч. 1 м.
Режим общего битрейта : Переменный
Общий поток : 7235 Кбит/сек
Название фильма : Начало конца
Дата кодирования : UTC 2019-12-20 08:25:32
Программа кодирования : mkvmerge v40.0.0 ('Old Town Road + Pony') 64-bit
Библиотека кодирования : libebml v1.3.9 + libmatroska v1.5.2
Обложка : Yes
Attachments : cover.the.witcher.jpg
Видео
Идентификатор : 1
Формат : AVC
Формат/Информация : Advanced Video Codec
Профиль формата : Main@L4
Настройки формата : CABAC / 3 Ref Frames
Параметр CABAC формата : Да
Параметр RefFrames формата : 3 кадра
Идентификатор кодека : V_MPEG4/ISO/AVC
Продолжительность : 1 ч. 1 м.
Вид битрейта : Переменный
Битрейт : 5800 Кбит/сек
Максимальный битрейт : 8700 Кбит/сек
Ширина : 1920 пикселей
Высота : 1080 пикселей
Соотношение сторон : 16:9
Режим частоты кадров : Постоянный
Частота кадров : 24,000 кадра/сек
Цветовое пространство : YUV
Субдискретизация насыщенности : 4:2:0
Битовая глубина : 8 бит
Тип развёртки : Прогрессивная
Бит/(Пиксели*Кадры) : 0.117
Размер потока : 2,43 Гбайт (79%)
Заголовок : The.Witcher.S01E01.The.End’s.Beginning.1080p.WEB-DL.DUB.EniaHD
Библиотека кодирования : x264 core 148 r2715 7e75228
Настройки программы : cabac=1 / ref=3 / deblock=1:0:0 / analyse=0x1:0x111 / me=umh / subme=10 / psy=1 / psy_rd=1.00:0.00 / mixed_ref=1 / me_range=24 / chroma_me=1 / trellis=2 / 8x8dct=0 / cqm=0 / deadzone=21,11 / fast_pskip=1 / chroma_qp_offset=-2 / threads=8 / lookahead_threads=1 / sliced_threads=0 / nr=0 / decimate=1 / interlaced=0 / bluray_compat=0 / stitchable=1 / constrained_intra=0 / bframes=2 / b_pyramid=0 / b_adapt=2 / b_bias=0 / direct=3 / weightb=1 / open_gop=0 / weightp=2 / keyint=250 / keyint_min=24 / scenecut=0 / intra_refresh=0 / rc_lookahead=48 / rc=2pass / mbtree=1 / bitrate=5800 / ratetol=1.0 / qcomp=0.50 / qpmin=6 / qpmax=51 / qpstep=4 / cplxblur=20.0 / qblur=0.5 / vbv_maxrate=8700 / vbv_bufsize=11600 / nal_hrd=vbr / filler=0 / ip_ratio=1.40 / aq=1:1.00
Язык : English
Default : Да
Forced : Нет
Аудио #1
Идентификатор : 2
Формат : E-AC-3 JOC
Формат/Информация : Enhanced AC-3 with Joint Object Coding
Коммерческое название : Dolby Digital Plus with Dolby Atmos
Идентификатор кодека : A_EAC3
Продолжительность : 1 ч. 1 м.
Вид битрейта : Постоянный
Битрейт : 768 Кбит/сек
Каналы : 6 каналов
ChannelLayout : L R C LFE Ls Rs
Частота : 48,0 КГц
Частота кадров : 31,250 кадров/сек (1536 SPF)
Метод сжатия : С потерями
Размер потока : 335 Мбайт (11%)
Заголовок : E-AC3 + Atmos @ 768 kbps - DUB, Пифагор
Язык : Russian
ServiceKind/String : Complete Main
Default : Да
Forced : Нет
ComplexityIndex : 16
NumberOfDynamicObjects : 15
BedChannelCount/String : 1 канал
BedChannelConfiguration : LFE
Аудио #2
Идентификатор : 3
Формат : E-AC-3 JOC
Формат/Информация : Enhanced AC-3 with Joint Object Coding
Коммерческое название : Dolby Digital Plus with Dolby Atmos
Идентификатор кодека : A_EAC3
Продолжительность : 1 ч. 1 м.
Вид битрейта : Постоянный
Битрейт : 768 Кбит/сек
Каналы : 6 каналов
ChannelLayout : L R C LFE Ls Rs
Частота : 48,0 КГц
Частота кадров : 31,250 кадров/сек (1536 SPF)
Метод сжатия : С потерями
Размер потока : 335 Мбайт (11%)
Заголовок : E-AC3 + Atmos @ 768 kbps - Original
Язык : English
ServiceKind/String : Complete Main
Default : Нет
Forced : Нет
ComplexityIndex : 16
NumberOfDynamicObjects : 15
BedChannelCount/String : 1 канал
BedChannelConfiguration : LFE
Текст #1
Идентификатор : 4
Формат : UTF-8
Идентификатор кодека : S_TEXT/UTF8
Идентификатор кодека/Информация : UTF-8 Plain Text
Продолжительность : 59 м. 54 с.
Битрейт : 0 бит/сек
ElementCount : 3
Размер потока : 144 байт (0%)
Заголовок : Forced
Язык : Russian
Default : Да
Forced : Да
Текст #2
Идентификатор : 5
Формат : UTF-8
Идентификатор кодека : S_TEXT/UTF8
Идентификатор кодека/Информация : UTF-8 Plain Text
Продолжительность : 59 м. 54 с.
Битрейт : 63 бит/сек
ElementCount : 624
Размер потока : 28,0 Кбайт (0%)
Заголовок : Full
Язык : Russian
Default : Нет
Forced : Нет
Текст #3
Идентификатор : 6
Формат : UTF-8
Идентификатор кодека : S_TEXT/UTF8
Идентификатор кодека/Информация : UTF-8 Plain Text
Продолжительность : 58 м. 33 с.
Битрейт : 46 бит/сек
ElementCount : 748
Размер потока : 19,9 Кбайт (0%)
Заголовок : Full SDH
Язык : English
Default : Нет
Forced : Нет

Список серий:

Начало конца / The End's Beginning
Четыре знака / Four Marks
Предательская луна / Betrayer Moon
Банкеты, ублюдки и похороны / Of Banquets, Bastards and Burials
Сдерживаемые аппетиты / Bottled Appetites
Редкие виды / Rare Species
Перед падением / Before A Fall
Нечто большее / Much More

Подготовка релиза

Перевод: Дублированный | Пифагор по заказу Netflix
Работа со звуком: Zgurvas@EniaHD
Скриншоты:
       

Soldat_5

Post 17-Dec-2019 17:56

[Quote]

Пространство / Экспансия / The Expanse (2019) WEBRip (сезон 4, серии 1 из 10) LostFilm (Обновляемая)
«We've gone too far»
- Производство: Канада, США / Alcon Entertainment, Sean Daniel Company
Жанр: фантастика, триллер, драма, детектив
Режиссер: Брек Эйснер, Джефф Вулнаф, Терри МакДонаф
Актеры: Стивен Стрейт, Кэс Анвар, Доминик Типпер, Уэс Чэтэм, Шоре Агдашлу, Фрэнки Адамс, Шон Дойл, Томас Джейн, Флоренс Ванида Фэйвр, Кара Ги и др.
Описание:
Прошло два столетия с тех пор, как человечество полностью колонизировало Солнечную систему, достигнув внешнего пояса астероидов. Детектив Джозеф Миллер, начав поиски пропавшей без вести Джульетты Андромеды Мао, вместе с капитаном космического корабля «Кентербери» Джимом Холденом вышли на след заговорщиков, цель которых — захватить власть в галактике.

Продолжительность: ~00:49:00 серия
Качество видео: WEBRip
Перевод: Многоголосый профессиональный LostFilm
Субтитры: Отсутствуют
Видео: AVC/H.264, 1280x720, ~4200 kbps
Аудио #1: AC3, 2 ch, 384 kbps | русский
Аудио #2: AC3, 6 ch, 640 kbps | английский-

MediaInfo

Общее
Уникальный идентификатор : 184144498781913402009871384481990781155 (0x8A88F0C0025562EB95E584B5C29D28E3)
Полное имя : E:\Сериалы\The.Expanse.S04.LostFilm.720p\The.Expanse.S04E01.AMZN.WEBRip.720p.mkv
Формат : Matroska
Версия формата : Version 4
Размер файла : 1,80 Гбайт
Продолжительность : 49 м. 17 с.
Общий поток : 5231 Кбит/сек
Дата кодирования : UTC 2019-12-16 19:55:39
Программа кодирования : mkvmerge v7.9.0 ('Birds') 64bit
Библиотека кодирования : libebml v1.3.1 + libmatroska v1.4.2
Видео
Идентификатор : 1
Формат : AVC
Формат/Информация : Advanced Video Codec
Профиль формата : [url=mailto:High@L4.1]High@L4.1[/url]
Настройки формата : CABAC / 9 Ref Frames
Параметр CABAC формата : Да
Параметр RefFrames формата : 9 кадров
Идентификатор кодека : V_MPEG4/ISO/AVC
Продолжительность : 49 м. 17 с.
Битрейт : 4205 Кбит/сек
Ширина : 1280 пикселей
Высота : 720 пикселей
Соотношение сторон : 16:9
Режим частоты кадров : Постоянный
Частота кадров : 23,976 (24000/1001) кадра/сек
Цветовое пространство : YUV
Субдискретизация насыщенности : 4:2:0
Битовая глубина : 8 бит
Тип развёртки : Прогрессивная
Бит/(Пиксели*Кадры) : 0.190
Размер потока : 1,45 Гбайт (80%)
Библиотека кодирования : x264 core 157 r2969 d4099dd
Настройки программы : cabac=1 / ref=9 / deblock=1:-3:-3 / analyse=0x3:0x133 / me=umh / subme=10 / psy=1 / psy_rd=1.00:0.00 / mixed_ref=1 / me_range=48 / chroma_me=1 / trellis=2 / 8x8dct=1 / cqm=0 / deadzone=21,11 / fast_pskip=0 / chroma_qp_offset=-2 / threads=12 / lookahead_threads=2 / sliced_threads=0 / nr=0 / decimate=0 / interlaced=0 / bluray_compat=0 / constrained_intra=0 / bframes=8 / b_pyramid=2 / b_adapt=2 / b_bias=0 / direct=3 / weightb=1 / open_gop=0 / weightp=2 / keyint=250 / keyint_min=23 / scenecut=40 / intra_refresh=0 / rc=crf / mbtree=0 / crf=16.0 / qcomp=0.60 / qpmin=0 / qpmax=69 / qpstep=4 / ip_ratio=1.30 / pb_ratio=1.20 / aq=3:0.80
Язык : English
Default : Да
Forced : Нет
Аудио #1
Идентификатор : 2
Формат : AC-3
Формат/Информация : Audio Coding 3
Коммерческое название : Dolby Digital
Идентификатор кодека : A_AC3
Продолжительность : 49 м. 17 с.
Вид битрейта : Постоянный
Битрейт : 384 Кбит/сек
Каналы : 2 канала
ChannelLayout : L R
Частота : 48,0 КГц
Частота кадров : 31,250 кадров/сек (1536 SPF)
Метод сжатия : С потерями
Размер потока : 135 Мбайт (7%)
Заголовок : LostFilm
Язык : Russian
ServiceKind/String : Complete Main
Default : Да
Forced : Нет
Аудио #2
Идентификатор : 3
Формат : E-AC-3
Формат/Информация : Enhanced AC-3
Коммерческое название : Dolby Digital Plus
Идентификатор кодека : A_EAC3
Продолжительность : 49 м. 17 с.
Вид битрейта : Постоянный
Битрейт : 640 Кбит/сек
Каналы : 6 каналов
ChannelLayout : L R C LFE Ls Rs
Частота : 48,0 КГц
Частота кадров : 31,250 кадров/сек (1536 SPF)
Метод сжатия : С потерями
Размер потока : 226 Мбайт (12%)
Заголовок : original
Язык : English
ServiceKind/String : Complete Main
Default : Нет
Forced : Нет

Список серий

01. New Terra / Новая Терра

Дополнительная информация

"Чистый" кадр. Вступительная заставка и логотип LostFilm отсутствуют.

Внимание! Раздача ведётся путём добавления новых серий:

Внимание! Раздача ведётся путём добавления новых серий; при каждом добавлении создаётся новый торрент.
Чтобы начать докачку новой серии, пользователям необходимо сделать следующее:
1. Остановить скачивание;
2. Удалить старый торрент у себя из клиента (старые серии удалять не надо);
3. Скачать новый торрент и запустить его у себя в клиенте вместо старого, при этом указать клиенту путь в старую папку куда и должно происходить скачивание новых серий. Ваш клиент при этом должен произвести хеширование (проверку) старой папки и будет докачивать только те серии, которых у вас ещё нет. Старые серии при этом не удаляются, а продолжают раздаваться! Eсли вы уже удалили старые серии, то предотвратить повторную закачку старых серий можно, сняв галочку в соответствующих местах при запуске нового торрента.
Скриншоты:
       

Soldat_5

Post 15-Dec-2019 02:41

[Quote]

Девичий лес (2019) WEB-DLRip (сезон 1, серии 1-4 из 4) - Производство: Россия / Леандра Продакшн
Жанр: детектив, экранизация
Режиссер: Владимир Шевельков
Актеры: Анна Королева, Алексей Нилов, Игорь Юдин, Татьяна Ткач, Руслан Барабанов, Галина Бокашевская, Владимир Шевельков, Геннадий Смирнов, Евгений Славский, Надежда Некрасова и др.
Описание:
По роману Татьяны Поляковой «У прокурора век недолог»
Алла решает порвать отношения с женатым любовником, прокурором Акимовым. Она угробила на него несколько лет жизни. Он умоляет о встрече, по телефону говорит о какой-то опасности, которая ей грозит, обещает в чём-то признаться. Алла не хочет ничего слушать и едет домой. Перед дверью своей квартиры она находит умирающего Акимова. Алла становится подозреваемой. Чтобы доказать, что не она убила любовника, женщина ввязывается в расследование...

Дата российской премьеры: 14 декабря 2019
Релиз от: Алехаndr
Продолжительность: ~00:46:00 серия
Качество видео: WEB-DLRip
Видео: Xvid, 720x400 (16:9), ~1525 Kbps
Аудио: AC3, 2 ch, 192 Kbps

MediaInfo:

Общее
Полное имя : D:\Девичий лес (2019).by.Алехаndr\Девичий лес. 1 серия.by.Алехаndr.avi
Формат : AVI
Формат/Информация : Audio Video Interleave
Размер файла : 604 Мбайт
Продолжительность : 48 м. 52 с.
Общий поток : 1729 Кбит/сек
Программа кодирования : Lavf58.29.100
Видео
Идентификатор : 0
Формат : xvid
Идентификатор кодека : xvid
Продолжительность : 48 м. 51 с.
Битрейт : 1526 Кбит/сек
Ширина : 720 пикселей
Высота : 400 пикселей
Соотношение сторон : 16:9
Частота кадров : 25,000 кадров/сек
Тип развёртки : Прогрессивная
Бит/(Пиксели*Кадры) : 0.212
Размер потока : 533 Мбайт (88%)
Аудио
Идентификатор : 1
Формат : AC-3
Формат/Информация : Audio Coding 3
Коммерческое название : Dolby Digital
Идентификатор кодека : 2000
Продолжительность : 48 м. 52 с.
Вид битрейта : Постоянный
Битрейт : 192 Кбит/сек
Каналы : 2 канала
ChannelLayout : L R
Частота : 48,0 КГц
Частота кадров : 31,250 кадров/сек (1536 SPF)
Битовая глубина : 16 бит
Метод сжатия : С потерями
Размер потока : 67,1 Мбайт (11%)
Выравнивание : Соединение по промежуткам
Продолжительность промежутка : 32 мс. (0,80 видеокадр)
ServiceKind/String : Complete Main
Скриншоты:
       

Soldat_5

Post 15-Dec-2019 02:27

[Quote]

Дом с прислугой / Servant (2019) WEBRip [H.264/720p-LQ] - Производство: США / Blinding Edge Pictures, Escape Artists
Жанр: ужасы, триллер, драма
Режиссер: М. Найт Шьямалан, Дэниэл Сакхайм, Лиза Брюльманн
Актеры: Лорен Эмброуз, Тоби Кеббелл, Нелл Тайгер Фри, Руперт Гринт, Филлип Джеймс Браннон, Джеффри Моуэри и др.
Описание:
У супругов Тёрнер случилась беда — они потеряли трёхмесячного малыша. Дороти никак не может оправиться от трагедии, поэтому продолжает нянчить куклу и даже нанимает для этих целей няню, девушку Лиенн. А та как будто не замечает странностей и обращается с куклой как с настоящим младенцем.

Возраст: 18+ (зрителям, достигшим 18 лет. запрещено для детей)
Дата мировой премьеры: 28 ноября 2019
Продолжительность: ~00:32:00 серия
Качество видео: WEBRip
Перевод: Многоголосый профессиональный - HDRezka Studio
Видео: AVC/H.264, 1280x640, ~2210 Kbps
Аудио: AC3, 2 ch, 192 Kbps - русский

MediaInfo:

Общее
Уникальный идентификатор : 243307464614529496142800840119475760197 (0xB70B502C868A9D38AD8399BECBB3EC45)
Полное имя : G:\Servant (2019)\Servant.S01E01.WEBRip.mkv
Формат : Matroska
Версия формата : Version 4
Размер файла : 604 Мбайт
Продолжительность : 35 м. 8 с.
Режим общего битрейта : Переменный
Общий поток : 2402 Кбит/сек
Дата кодирования : UTC 2019-11-29 21:55:14
Программа кодирования : mkvmerge v28.2.0 ('The Awakening') 64-bit
Библиотека кодирования : libebml v1.3.6 + libmatroska v1.4.9
Видео
Идентификатор : 1
Формат : AVC
Формат/Информация : Advanced Video Codec
Профиль формата : [url=mailto:High@L4.1]High@L4.1[/url]
Настройки формата : CABAC / 1 Ref Frames
Параметр CABAC формата : Да
Параметр RefFrames формата : 1 кадр
Идентификатор кодека : V_MPEG4/ISO/AVC
Продолжительность : 35 м. 8 с.
Вид битрейта : Переменный
Битрейт : 2209 Кбит/сек
Максимальный битрейт : 2000 Кбит/сек
Ширина : 1280 пикселей
Высота : 640 пикселей
Соотношение сторон : 2,000
Режим частоты кадров : Постоянный
Частота кадров : 23,976 (24000/1001) кадра/сек
Цветовое пространство : YUV
Субдискретизация насыщенности : 4:2:0
Битовая глубина : 8 бит
Тип развёртки : Прогрессивная
Бит/(Пиксели*Кадры) : 0.112
Размер потока : 555 Мбайт (92%)
Default : Да
Forced : Нет
Аудио
Идентификатор : 2
Формат : AC-3
Формат/Информация : Audio Coding 3
Коммерческое название : Dolby Digital
Идентификатор кодека : A_AC3
Продолжительность : 35 м. 8 с.
Вид битрейта : Постоянный
Битрейт : 192 Кбит/сек
Каналы : 2 канала
ChannelLayout : L R
Частота : 48,0 КГц
Частота кадров : 31,250 кадров/сек (1536 SPF)
Метод сжатия : С потерями
Размер потока : 48,3 Мбайт (8%)
Язык : Russian
ServiceKind/String : Complete Main
Default : Да
Forced : Нет
Скриншоты:
       

Clavik

Post 14-Dec-2019 12:08

[Quote]

Плохие банки / Bad Banks (2018) WEBRip [H.264/720p-LQ] «Are you ready to pay?»- Производство: Германия, Люксембург / Letterbox Filmproduktion, Iris Productions
Жанр: триллер, драма, криминал
Режиссер: Кристиан Швохов, Кристиан Цюберт
Актеры: Тобиас Моретти, Паула Бер, Барри Атсма, Дезире Носбуш, Альбрехт Шух, Май Дуонг Кьеу и др.
Описание:
После ошибочного увольнения из престижного инвестиционного банка в Люксембурге талантливая молодая банкирша Джана Лиекам получает предложение о работе во Франкфурте под руководством выдающегося Габриэля Фенгера, руководителя банка Deutsche Invest. Джане быстро удается произвести впечатление на Фенгера и его команду. Вскоре девушка оказывается разорванной между ее новыми обязательствами и неумолимым шантажом со стороны ее бывшего босса Кристеля Леблана. Сможет ли она и ее карьера пережить эту демонстрацию силы?

Продолжительность: ~00:50:00 серия
Качество видео: WEBRip
Перевод: Многоголосый профессиональный - HDRezka Studio
Субтитры: русские (на надписи)
Видео: AVC/H.264, 1280x640 (2.000), ~2300-3200 Kbps
Аудио: AC3, 2 ch, 192 Kbps - русский

MediaInfo:

Общее
Уникальный идентификатор : 247650811894361361143138018549363601446 (0xBA4FCFBA6530767639EA963C18B77026)
Полное имя : F:\Bad.Banks.2018.S01.720p.by.Алехаndr\Bad.Banks.S01E01.WEBRip.720p.mkv
Формат : Matroska
Версия формата : Version 4
Размер файла : 1,24 Гбайт
Продолжительность : 51 м. 5 с.
Режим общего битрейта : Переменный
Общий поток : 3475 Кбит/сек
Программа кодирования : Lavf58.26.101
Библиотека кодирования : Lavf58.26.101
ErrorDetectionType : Per level 1
Видео
Идентификатор : 1
Формат : AVC
Формат/Информация : Advanced Video Codec
Профиль формата : [url=mailto:High@L4.1]High@L4.1[/url]
Настройки формата : CABAC / 1 Ref Frames
Параметр CABAC формата : Да
Параметр RefFrames формата : 1 кадр
Идентификатор кодека : V_MPEG4/ISO/AVC
Продолжительность : 51 м. 5 с.
Вид битрейта : Переменный
Битрейт : 3214 Кбит/сек
Максимальный битрейт : 2000 Кбит/сек
Ширина : 1280 пикселей
Высота : 640 пикселей
Соотношение сторон : 2,000
Режим частоты кадров : Постоянный
Частота кадров : 25,000 кадров/сек
Цветовое пространство : YUV
Субдискретизация насыщенности : 4:2:0
Битовая глубина : 8 бит
Тип развёртки : Прогрессивная
Бит/(Пиксели*Кадры) : 0.157
Размер потока : 1,15 Гбайт (92%)
Default : Да
Forced : Нет
Аудио
Идентификатор : 2
Формат : AC-3
Формат/Информация : Audio Coding 3
Коммерческое название : Dolby Digital
Идентификатор кодека : A_AC3
Продолжительность : 51 м. 5 с.
Вид битрейта : Постоянный
Битрейт : 192 Кбит/сек
Каналы : 2 канала
ChannelLayout : L R
Частота : 48,0 КГц
Частота кадров : 31,250 кадров/сек (1536 SPF)
Битовая глубина : 32 бит
Метод сжатия : С потерями
Задержка видео : -5 мс.
Размер потока : 70,2 Мбайт (6%)
Язык : Russian
ServiceKind/String : Complete Main
Default : Да
Forced : Нет
Скриншоты:
       

Soldat_5

Post 11-Dec-2019 14:42

[Quote]

Миссис Флетчер / Mrs. Fletcher (2019) WEBRip (сезон 1, серии 1-7 из 7) JimmyJ - Производство: США | Home Box Office (HBO)
Жанр: комедия
Режиссер: Кэрри Браунштейн, Джиллиан Робеспьер
Актеры: Кэтрин Хан, Оуэн Тиг, Кэмерон Бойс, Джен Ричардс, Доменик Ломбардоззи, Рашад Эдвардс, Кейси Уилсон, Билл Рэймонд и др.
Описание:
Ив Флетчер — мать-одиночка, чей единственный ребёнок отправился учиться в колледж. Ив решает оживить свою личную жизнь и придумывает себе сексуальное альтер эго. Неожиданно она обнаруживает, что мир скрывает в себе бесконечные возможности для эротических подвигов.

Дата мировой премьеры: 27 октября 2019
Дата российской премьеры: 28 октября 2019
Релиз от: JimmyJ
Продолжительность: ~00:30:00 серия
Качество видео: WEBRip [img]http://nnmclub.ch/forum/image.php?link=https://assets.nnm-club.ws/forum/images/channel/sample_light_nnm.png[/img]
Перевод: Двуголосый любительский (JimmyJ)
Реклама: присутствуют видео, аудио, текстовые вставки рекламы
Видео: XviD, 720х400 (16:9), ~1970 kbps
Аудио: MP3, 2 ch, 192 Kbps

MediaInfo:

General
Complete name : E:\Torrent\JimmyJ\Mrs.Fletcher.S01.WEBRip.JimmyJ\Mrs.Fletcher.S01E01.WEBRip.JimmyJ.avi
Format : AVI
Format/Info : Audio Video Interleave
File size : 493 MiB
Duration : 31 min 42 s
Overall bit rate : 2 174 kb/s
Writing application : Lavf58.20.100
Video
ID : 0
Format : MPEG-4 Visual
Format profile : Advanced Simple@L5
Format settings, BVOP : No
Format settings, QPel : No
Format settings, GMC : No warppoints
Format settings, Matrix : Default (H.263)
Codec ID : XVID
Codec ID/Hint : XviD
Duration : 31 min 42 s
Bit rate : 1 969 kb/s
Width : 720 pixels
Height : 400 pixels
Display aspect ratio : 16:9
Frame rate : 23.976 (24000/1001) FPS
Color space : YUV
Chroma subsampling : 4:2:0
Bit depth : 8 bits
Scan type : Progressive
Compression mode : Lossy
Bits/(Pixel*Frame) : 0.285
Stream size : 447 MiB (91%)
Writing library : XviD 67
Audio
ID : 1
Format : MPEG Audio
Format version : Version 1
Format profile : Layer 3
Format settings : Joint stereo / MS Stereo
Codec ID : 55
Codec ID/Hint : MP3
Duration : 31 min 42 s
Bit rate mode : Constant
Bit rate : 192 kb/s
Channel(s) : 2 channels
Sampling rate : 48.0 kHz
Compression mode : Lossy
Stream size : 43.5 MiB (9%)
Alignment : Aligned on interleaves
Interleave, duration : 24 ms (0.58 video frame)
Title : DVO JimmyJ
Writing library : LAME
Скриншоты:
       
 

The time now is: Today 17:41

All times are GMT + 3 Hours