Today is a free download without charge Download

Search found 26 matches

Author Message

Dracula

Post 21-Oct-2020 10:53

[Quote]

Топик был перенесен из форума Новинки (HD|DVD|BD|WEB|TV|SAT|PDTV|-Rip) в форум Архив


БАНДИТ

БАНДИТ

Post 19-Oct-2020 19:18

[Quote]

Любовь и монстры / Love and MonstersГод выхода: 2020
Жанр: Комедия, фантастика, боевик, приключения
Страна: Канада, США
Студия: 21 Laps Entertainment, Entertainment One, MTV Films
Продолжительность: 01:48:52
Перевод: Любительский многоголосый | @MUZOBOZ@
Субтитры: Английские
Режиссер: Майкл Мэтьюз
В ролях: Дилан О Брайен, Джессика Хенвик, Майкл Рукер, Эллен Холлман, Мелани Занетти, Ариана Гринблатт, Амали Голден, Тэнди Райт, Тэсним Рок, Ларри Седар
О фильме: Спустя семь лет после нападения на человеческую расу ужасных монстров, Джоэль Доусон вместе с остальными выжившими прячется под землей от огромных существ, которые теперь чувствуют себя хозяевами на планете. Однажды парень ловит сигнал по радио и слышит голос девушки Эйми, в которую был влюблён ещё в старшей школе. Она укрылась в прибрежной колонии, расположенной в 80 милях от убежища Джоэля. Вопреки всякой логике, парень решает, что ему больше нечего делать под землей, и отправляется на поиски Эйми. На пути к заветной цели Джоэлю предстоит преодолеть множество опасностей и найти новых друзей, а также узнать много нового о чудовищах, захвативших планету...

Качество: WEB-DL 1080p
Формат: MKV
Видео: MPEG-4 AVC, 7443 Кбит/с, 1920x800, 23.976 кадр/с
Аудио #1: AC3, 48 Гц, 192 Кбит/сек, 2 ch (L + R) | MVO | @MUZOBOZ@
Аудио #2: AC3, 48 Гц, 640 Кбит/сек, 6 ch (L C R, + L R, LFE) | Английский

MI

Общее
Уникальный идентификатор : 88166729060717327760680827381442355699 (0x42544B5B27C8FC4A5A995FDC4C7B21F3)
Полное имя : D:ТоррентыLove.and.Monsters.2020.RU.ENG.x264.WEB-DL-1080p-MediaBit.mkv
Формат : Matroska
Версия формата : Version 4
Размер файла : 6,29 Гбайт
Продолжительность : 1 ч. 48 м.
Общий поток : 8 278 Кбит/сек
Название фильма : Любовь и монстры / Love and Monsters (2020)
Дата кодирования : UTC 2020-10-19 13:32:45
Программа кодирования : mkvmerge v25.0.0 ('Prog Noir') 64-bit
Библиотека кодирования : libebml v1.3.6 + libmatroska v1.4.9
Видео
Идентификатор : 1
Формат : AVC
Формат/Информация : Advanced Video Codec
Профиль формата : High@L4
Настройки формата : CABAC / 4 Ref Frames
Параметр CABAC формата : Да
Параметр RefFrames формата : 4 кадра
Идентификатор кодека : V_MPEG4/ISO/AVC
Продолжительность : 1 ч. 48 м.
Вид битрейта : Постоянный
Битрейт : 7 443 Кбит/сек
Номинальный битрейт : 10 000 Кбит/сек
Ширина : 1 920 пикселей
Высота : 800 пикселей
Соотношение сторон : 2,40:1
Режим частоты кадров : Постоянный
Частота кадров : 23,976 (24000/1001) кадра/сек
Цветовое пространство : YUV
Субдискретизация насыщенности : 4:2:0
Битовая глубина : 8 бит
Тип развёртки : Прогрессивная
Бит/(Пиксели*Кадры) : 0.202
Размер потока : 5,66 Гбайт (90%)
Заголовок : NTG
Язык : English
Default : Да
Forced : Нет
Цветовой диапазон : Limited
Основные цвета : BT.709
Характеристики трансфера : BT.709
Коэффициенты матрицы : BT.709
Аудио #1
Идентификатор : 2
Формат : AC-3
Формат/Информация : Audio Coding 3
Коммерческое название : Dolby Digital
Идентификатор кодека : A_AC3
Продолжительность : 1 ч. 48 м.
Вид битрейта : Постоянный
Битрейт : 192 Кбит/сек
Каналы : 2 канала
Channel layout : L R
Частота : 48,0 КГц
Частота кадров : 31,250 кадров/сек (1536 SPF)
Метод сжатия : С потерями
Размер потока : 149 Мбайт (2%)
Заголовок : MVO [@MUZOBOZ@] MediaBit
Язык : Russian
Service kind : Complete Main
Default : Да
Forced : Нет
Аудио #2
Идентификатор : 3
Формат : AC-3
Формат/Информация : Audio Coding 3
Коммерческое название : Dolby Digital
Идентификатор кодека : A_AC3
Продолжительность : 1 ч. 48 м.
Вид битрейта : Постоянный
Битрейт : 640 Кбит/сек
Каналы : 6 каналов
Channel layout : L R C LFE Ls Rs
Частота : 48,0 КГц
Частота кадров : 31,250 кадров/сек (1536 SPF)
Метод сжатия : С потерями
Размер потока : 498 Мбайт (8%)
Язык : English
Service kind : Complete Main
Default : Нет
Forced : Нет
Текст
Идентификатор : 4
Формат : UTF-8
Идентификатор кодека : S_TEXT/UTF8
Идентификатор кодека/Информация : UTF-8 Plain Text
Продолжительность : 1 ч. 42 м.
Битрейт : 73 бит/сек
Count of elements : 1711
Размер потока : 55,3 Кбайт (0%)
Заголовок : SDH
Язык : English
Default : Нет
Forced : Нет

Скриншоты

     

Dracula

Post 20-Oct-2020 18:17

[Quote]

Топик был перенесен из форума Новинки (BD|HDTV|DVD) в форум Архив


БАНДИТ

Theseus

Post 23-Aug-2020 22:40

[Quote]

Агент Ева / Ava- Год выхода: 2020
Страна: США
Жанр: Боевик, триллер, драма, криминал, детектив
Продолжительность: 01:37:09
Перевод: Дублированный (Чистый звук)
Субтитры: Отсутствуют-Режиссер: Тейт Тейлор-В ролях: Джессика Честейн, Джон Малкович, Джесс Вейкслер, Коммон, Джина Дэвис, Колин Фаррелл, Диана Сильверс, Йоан Гриффит, Джоан Чэнь, Janelle Feigley-О фильме: Она умна, красива и чрезвычайно опасна. Перемещаясь по миру словно тень, агент по имени Ева в одиночку выполняет самые сложные задания своего руководства. Когда внезапно очередная спецоперация идет не по плану, и Ева решает выйти из игры, один из влиятельных боссов секретной службы открывает на неё охоту.- -Качество: WEB-DL 1080p
Формат: MKV
Видео кодек: x.264
Аудио кодек: AC3
Видео: AVC, 1920x804 (2.40:1), 23.976 fps, 8 054 kb/s
Аудио: AC3, 48.0 kHz, 2 ch, 192 kb/s-Сэмпл-Присутствует баннер, звуковая реклама- -

MediaInfo

Код:
Общее
Уникальный идентификатор                 : 206205236290199230573171149647317392523 (0x9B21AF15C778CFBFBAF8E722315D5C8B)
Полное имя                               : Ava.2020.Line.WEB-DL.1080p.mkv
Формат                                   : Matroska
Версия формата                           : Version 4
Размер файла                             : 5,60 Гбайт
Продолжительность                        : 1 ч. 37 м.
Режим общего битрейта                    : Переменный
Общий поток                              : 8248 Кбит/сек
Дата кодирования                         : UTC 2020-08-23 18:43:48
Программа кодирования                    : mkvmerge v8.3.0 ('Over the Horizon') 64bit
Библиотека кодирования                   : libebml v1.3.1 + libmatroska v1.4.2
Видео
Идентификатор                            : 1
Формат                                   : AVC / AVC
Формат/Информация                        : Advanced Video Codec
Профиль формата                          : High@L4.1 / High@L4
Настройки формата                        : CABAC / 4 Ref Frames / CABAC / 5 Ref Frames
Параметр CABAC формата                   : Да / Да
Параметр RefFrames формата               : 4 кадра / 5 кадров
Идентификатор кодека                     : V_MPEG4/ISO/AVC
Продолжительность                        : 1 ч. 37 м.
Вид битрейта                             : Переменный
Битрейт                                  : 8054 Кбит/сек
Номинальный битрейт                      : 9000 Кбит/сек / 9000 Кбит/сек
Максимальный битрейт                     : 9000 Кбит/сек
Ширина                                   : 1920 пикселей
Ширина оригинала                         : 1920 пикселей / 1920 пикселей
Высота                                   : 804 пикселя
Высота оригинала                         : 804 пикселя / 804 пикселя
Соотношение сторон                       : 2,40:1
Режим частоты кадров                     : Постоянный
Частота кадров                           : 23,976 (24000/1001) кадра/сек
Стандарт вещания                         : Component
Цветовое пространство                    : YUV
Субдискретизация насыщенности            : 4:2:0 / 4:2:0
Битовая глубина                          : 8 бит / 8 бит
Тип развёртки                            : Прогрессивная / Progressive
Бит/(Пиксели*Кадры)                      : 0.218
Размер потока                            : 5,47 Гбайт (98%)
Библиотека кодирования                   : x264 / x264 core 155 / core 155
Настройки программы                      : cabac=1 / ref=4 / deblock=1:0:0 / analyse=0x3:0x3 / me=dia / subme=1 / psy=1 / psy_rd=1.00:0.00 / mixed_ref=0 / me_range=16 / chroma_me=1 / trellis=0 / 8x8dct=1 / cqm=1 / deadzone=21,11 / fast_pskip=1 / chroma_qp_offset=0 / threads=25 / lookahead_threads=4 / sliced_threads=0 / slices=1 / nr=0 / decimate=1 / interlaced=0 / minigop=0 / stitchable=1 / constrained_intra=0 / bframes=2 / b_pyramid=0 / b_adapt=0 / b_bias=0 / direct=1 / weightb=1 / open_gop=1 / weightp=0 / keyint=240 / keyint_min=23 / scenecut=40 / intra_refresh=0 / rc_lookahead=0 / rc=cbr / mbtree=0 / bitrate=9000 / ratetol=1.0 / qcomp=0.60 / qpmin=1 / qpmax=69 / qpstep=4 / vbv_maxrate=9000 / vbv_bufsize=9000 / nal_hrd=vbr / filler=0 / ip_ratio=1.40 / pb_ratio=1.30 / aq=1:1.00 / cabac=1 / ref=4 / deblock=1:0:0 / analyse=0x3:0x3 / me=dia / subme=1 / psy=1 / psy_rd=1.00:0.00 / mixed_ref=0 / me_range=16 / chroma_me=1 / trellis=0 / 8x8dct=1 / cqm=1 / deadzone=21,11 / fast_pskip=1 / chroma_qp_offset=0 / threads=25 / lookahead_threads=4 / sliced_threads=0 / slices=1 / nr=0 / decimate=1 / interlaced=0 / minigop=0 / stitchable=1 / constrained_intra=0 / bframes=2 / b_pyramid=0 / b_adapt=0 / b_bias=0 / direct=1 / weightb=1 / open_gop=1 / weightp=0 / keyint=240 / keyint_min=23 / scenecut=40 / intra_refresh=0 / rc_lookahead=0 / rc=cbr / mbtree=0 / bitrate=9000 / ratetol=1.0 / qcomp=0.60 / qpmin=1 / qpmax=69 / qpstep=4 / vbv_maxrate=9000 / vbv_bufsize=9000 / nal_hrd=vbr / filler=0 / ip_ratio=1.40 / pb_ratio=1.30 / aq=1:1.00
Default                                  : Да
Forced                                   : Нет
Цветовой диапазон                        : Limited
Основные цвета                           : BT.709
Характеристики трансфера                 : BT.709
Коэффициенты матрицы                     : BT.709
Аудио
Идентификатор                            : 2
Формат                                   : AC-3
Формат/Информация                        : Audio Coding 3
Коммерческое название                    : Dolby Digital
Идентификатор кодека                     : A_AC3
Продолжительность                        : 1 ч. 37 м.
Вид битрейта                             : Постоянный
Битрейт                                  : 192 Кбит/сек
Каналы                                   : 2 канала
Channel layout                           : L R
Частота                                  : 48,0 КГц
Частота кадров                           : 31,250 кадров/сек (1536 SPF)
Битовая глубина                          : 16 бит
Метод сжатия                             : С потерями
Размер потока                            : 133 Мбайт (2%)
Заголовок                                : Line
Язык                                     : Russian
ServiceKind/String                       : Complete Main
Default                                  : Да
Forced                                   : Нет

Трейлер

-     - -

Dracula

Post 20-Oct-2020 18:17

[Quote]

Топик был перенесен из форума Новинки (BD|HDTV|DVD) в форум Архив


БАНДИТ

Theseus

Post 22-Aug-2020 21:30

[Quote]

Агент Ева / Ava- Год выхода: 2020
Страна: США
Жанр: Боевик, триллер, драма, криминал, детектив
Продолжительность: 01:37:09
Перевод: Многоголосый закадровый, любительский (AlphaProject)
Субтитры: Отсутствуют-Режиссер: Тейт Тейлор-В ролях: Джессика Честейн, Джон Малкович, Джесс Вейкслер, Коммон, Джина Дэвис, Колин Фаррелл, Диана Сильверс, Йоан Гриффит, Джоан Чэнь, Janelle Feigley-О фильме: Она умна, красива и чрезвычайно опасна. Перемещаясь по миру словно тень, агент по имени Ева в одиночку выполняет самые сложные задания своего руководства. Когда внезапно очередная спецоперация идет не по плану, и Ева решает выйти из игры, один из влиятельных боссов секретной службы открывает на неё охоту.- -[Качество: WEB-DL 1080p
Формат: MKV
Видео кодек: x.264
Аудио кодек: AC3
Видео: AVC, 1920x804 (2.40:1), 23,976 fps, 4 495 kb/s
Аудио 1: AC3, 48.0 kHz, 2 ch, 192 kb/s | RUS
Аудио 2: AC3, 48.0 kHz, 6 ch, 384 kb/s | ENG-Сэмпл-Рекламы нет- -

MediaInfo

Код:
Общее
Уникальный идентификатор                 : 191365446138922588063876814039206273462 (0x8FF7A4F11B556940BFB75363101321B6)
Полное имя                               : Eva.(2020).WEB-DL.1080p.mkv
Формат                                   : Matroska
Версия формата                           : Version 4
Размер файла                             : 3,44 Гбайт
Продолжительность                        : 1 ч. 37 м.
Общий поток                              : 5073 Кбит/сек
Дата кодирования                         : UTC 2020-08-22 16:17:04
Программа кодирования                    : mkvmerge v8.3.0 ('Over the Horizon') 64bit
Библиотека кодирования                   : libebml v1.3.1 + libmatroska v1.4.2
Видео
Идентификатор                            : 1
Формат                                   : AVC
Формат/Информация                        : Advanced Video Codec
Профиль формата                          : High@L4
Настройки формата                        : CABAC / 5 Ref Frames
Параметр CABAC формата                   : Да
Параметр RefFrames формата               : 5 кадров
Идентификатор кодека                     : V_MPEG4/ISO/AVC
Продолжительность                        : 1 ч. 37 м.
Битрейт                                  : 4495 Кбит/сек
Ширина                                   : 1920 пикселей
Высота                                   : 804 пикселя
Соотношение сторон                       : 2,40:1
Режим частоты кадров                     : Постоянный
Частота кадров                           : 23,976 (24000/1001) кадра/сек
Цветовое пространство                    : YUV
Субдискретизация насыщенности            : 4:2:0
Битовая глубина                          : 8 бит
Тип развёртки                            : Прогрессивная
Бит/(Пиксели*Кадры)                      : 0.121
Размер потока                            : 3,05 Гбайт (89%)
Язык                                     : English
Default                                  : Да
Forced                                   : Нет
Цветовой диапазон                        : Limited
Основные цвета                           : BT.709
Характеристики трансфера                 : BT.709
Коэффициенты матрицы                     : BT.709
Аудио #1
Идентификатор                            : 2
Формат                                   : AC-3
Формат/Информация                        : Audio Coding 3
Коммерческое название                    : Dolby Digital
Идентификатор кодека                     : A_AC3
Продолжительность                        : 1 ч. 36 м.
Вид битрейта                             : Постоянный
Битрейт                                  : 192 Кбит/сек
Каналы                                   : 2 канала
Channel layout                           : L R
Частота                                  : 48,0 КГц
Частота кадров                           : 31,250 кадров/сек (1536 SPF)
Битовая глубина                          : 16 бит
Метод сжатия                             : С потерями
Размер потока                            : 133 Мбайт (4%)
Заголовок                                : MVO | AlphaProject
Язык                                     : Russian
ServiceKind/String                       : Complete Main
Default                                  : Да
Forced                                   : Нет
Аудио #2
Идентификатор                            : 3
Формат                                   : AC-3
Формат/Информация                        : Audio Coding 3
Коммерческое название                    : Dolby Digital
Идентификатор кодека                     : A_AC3
Продолжительность                        : 1 ч. 37 м.
Вид битрейта                             : Постоянный
Битрейт                                  : 384 Кбит/сек
Каналы                                   : 6 каналов
Channel layout                           : L R C LFE Ls Rs
Частота                                  : 48,0 КГц
Частота кадров                           : 31,250 кадров/сек (1536 SPF)
Битовая глубина                          : 16 бит
Метод сжатия                             : С потерями
Размер потока                            : 267 Мбайт (8%)
Язык                                     : English
ServiceKind/String                       : Complete Main
Default                                  : Нет
Forced                                   : Нет
Текст #1
Идентификатор                            : 4
Формат                                   : UTF-8
Идентификатор кодека                     : S_TEXT/UTF8
Идентификатор кодека/Информация          : UTF-8 Plain Text
Продолжительность                        : 23 м. 15 с.
Битрейт                                  : 2 бит/сек
ElementCount                             : 18
Размер потока                            : 458 байт (0%)
Заголовок                                : Forced
Язык                                     : English
Default                                  : Нет
Forced                                   : Нет
Текст #2
Идентификатор                            : 5
Формат                                   : UTF-8
Идентификатор кодека                     : S_TEXT/UTF8
Идентификатор кодека/Информация          : UTF-8 Plain Text
Продолжительность                        : 1 ч. 31 м.
Битрейт                                  : 45 бит/сек
ElementCount                             : 1131
Размер потока                            : 30,4 Кбайт (0%)
Заголовок                                : Full
Язык                                     : English
Default                                  : Нет
Forced                                   : Нет
Меню
00:00:00.000                             : :Chapter 01
00:11:24.851                             : :Chapter 02
00:20:49.874                             : :Chapter 03
00:35:00.599                             : :Chapter 04
00:42:01.477                             : :Chapter 05
00:51:10.274                             : :Chapter 06
00:58:45.520                             : :Chapter 07
01:10:52.455                             : :Chapter 08
01:18:43.967                             : :Chapter 09
01:32:48.227                             : :Chapter 10

Трейлер

-    [- -

Dracula

Post 20-Oct-2020 18:02

[Quote]

Топик был перенесен из форума Новинки (HD|DVD|BD|WEB|TV|SAT|PDTV|-Rip) в форум Архив

Причина переноса: https://dark-os.com/viewtopic.php?p=596673#596673
БАНДИТ

kilmister777

Post 09-Apr-2020 11:47

[Quote]

Калашников- Год выпуска: 2020
Страна: Россия
Жанр: биография, история
Продолжительность: 01:44:27
Перевод: Не требуется- -Режиссер: Константин Буслов-В ролях: Юрий Борисов, Ольга Лерман, Артур Смольянинов, Эльдар Калимулин, Виталий Хаев, Валерий Баринов, Анатолий Лобоцкий, Алексей Вертков, Дмитрий Богдан, Максим Битюков-Описание: Калашников. Все знают эту фамилию, но не все знают, какой долгий и тернистый путь прошел парень-самоучка, чтобы в 28 создать легендарное оружие АК-47, которое по сей день является символом оружейной мысли нашего времени.-Качество: WEB-DLRip
Формат: AVI
Видео кодек: XviD
Аудио кодек: AC3
Видео: 720x304 (2.37:1), 24.000 fps, XviD build 73 ~1654 kbps avg, 0.30 bit/pixel
Аудио: 48 kHz, AC3 Dolby Digital, 2/0 (L,R) ch, ~192 kbps-

Скриншоты

       

mayor

Post 06-Jan-2020 20:47

[Quote]

- eXeL@B | Программист 2020..2030 - Автор (издатель): Bad_guy
Сайт производителя: exelab.ru (crack.lab)
Жанр: Обучающий интерактивный диск
Системные требования:
• Операционная система: Microsoft Windows 98/Me/200/XP/Vista/7
• Процессор: Pentium II 500 Мгц
• 128 Мб оперативной памяти
• Разрешение экрана: 1024x768 с глубиной цвета 16 бит

Формат: unpacked
Описание:
Вы программист или хотите им быть? Между прочим, это всё ещё перспективная специальность в наш «век информации» для вас и ваших детей. Кроме того, именно программисты чаще всего переходят в новые специальности, связанные с информационными технологиями, которых не было ещё пару лет назад. Будучи программистом и повышая свои знания, вы всегда будете актуальным на рынке труда и актуальным для самого себя.
Общая продолжительность: 91:40:16
Качество видео: PCRec
Видео: TSCC, AVC/H.264, 1024-1280x720-768, ~1000 Kbps
Аудио: MP3, AAC, 1-2 ch, 64-126 Kbps

MediaInfo:

[scroll][eXeL@B] Программист 2020...2030\Top Secrets\01-Языки выоскооплачиваемые.avi
Format : AVI
Format/Info : Audio Video Interleave
File size : 37.3 MiB
Duration : 21 min 24 s
Overall bit rate : 244 kb/s
Video
ID : 0
Format : TechSmith
Codec ID : tscc
Codec ID/Info : TechSmith Screen Capture
Duration : 21 min 24 s
Bit rate : 176 kb/s
Width : 1 024 pixels
Height : 768 pixels
Display aspect ratio : 4:3
Frame rate : 10.000 FPS
Bits/(Pixel*Frame) : 0.022
Stream size : 26.9 MiB (72%)
Audio
ID : 1
Format : MPEG Audio
Format version : Version 2
Format profile : Layer 3
Codec ID : 55
Codec ID/Hint : MP3
Duration : 21 min 24 s
Bit rate mode : Constant
Bit rate : 64.0 kb/s
Channel(s) : 1 channel
Sampling rate : 22.05 kHz
Compression mode : Lossy
Stream size : 9.80 MiB (26%)
Alignment : Split across interleaves
Interleave, duration : 999 ms (9.99 video frames)
Interleave, preload duratio : 750 ms
Writing library : LAME+̼"dÇFAîF@»•
[eXeL@B] Программист 2020...2030\Swift Pattern\Урок 2. Одиночка (Singletone) - паттерны проектирования в iOS.mp4
Format : MPEG-4
Format profile : Base Media
Codec ID : isom (isom/iso2/avc1/mp41)
File size : 11.2 MiB
Duration : 5 min 30 s
Overall bit rate : 285 kb/s
Writing application : Lavf58.20.100
Video
ID : 1
Format : AVC
Format/Info : Advanced Video Codec
Format profile : [url=mailto:Main@L3.1]Main@L3.1[/url]
Format settings : CABAC / 3 Ref Frames
Format settings, CABAC : Yes
Format settings, Reference : 3 frames
Codec ID : avc1
Codec ID/Info : Advanced Video Coding
Duration : 5 min 30 s
Bit rate : 152 kb/s
Width : 1 152 pixels
Height : 720 pixels
Display aspect ratio : 16:10
Frame rate mode : Variable
Frame rate : 29.970 (30000/1001) FPS
Minimum frame rate : 29.960 FPS
Maximum frame rate : 29.970 FPS
Color space : YUV
Chroma subsampling : 4:2:0
Bit depth : 8 bits
Scan type : Progressive
Bits/(Pixel*Frame) : 0.006
Stream size : 5.97 MiB (53%)
Color range : Limited
Color primaries : BT.709
Transfer characteristics : BT.709
Matrix coefficients : BT.709
Codec configuration box : avcC
Audio
ID : 2
Format : AAC LC
Format/Info : Advanced Audio Codec Low Complexity
Codec ID : mp4a-40-2
Duration : 5 min 30 s
Bit rate mode : Constant
Bit rate : 126 kb/s
Channel(s) : 2 channels
Channel layout : L R
Sampling rate : 44.1 kHz
Frame rate : 43.066 FPS (1024 SPF)
Compression mode : Lossy
Stream size : 4.95 MiB (44%)
Default : Yes
Alternate group : 1
[eXeL@B] Программист 2020...2030\Go\Погружение в Google Go Введение [v2].mp4
Format : MPEG-4
Format profile : Base Media
Codec ID : isom (isom/iso2/avc1/mp41)
File size : 24.2 MiB
Duration : 13 min 23 s
Overall bit rate : 253 kb/s
Writing application : Lavf58.20.100
Video
ID : 1
Format : AVC
Format/Info : Advanced Video Codec
Format profile : [url=mailto:Main@L3.1]Main@L3.1[/url]
Format settings : CABAC / 3 Ref Frames
Format settings, CABAC : Yes
Format settings, Reference : 3 frames
Codec ID : avc1
Codec ID/Info : Advanced Video Coding
Duration : 13 min 23 s
Bit rate : 122 kb/s
Width : 1 280 pixels
Height : 720 pixels
Display aspect ratio : 16:9
Frame rate mode : Constant
Frame rate : 24.000 FPS
Color space : YUV
Chroma subsampling : 4:2:0
Bit depth : 8 bits
Scan type : Progressive
Bits/(Pixel*Frame) : 0.006
Stream size : 11.7 MiB (48%)
Codec configuration box : avcC
Audio
ID : 2
Format : AAC LC
Format/Info : Advanced Audio Codec Low Complexity
Codec ID : mp4a-40-2
Duration : 13 min 23 s
Bit rate mode : Constant
Bit rate : 126 kb/s
Channel(s) : 2 channels
Channel layout : L R
Sampling rate : 44.1 kHz
Frame rate : 43.066 FPS (1024 SPF)
Compression mode : Lossy
Stream size : 12.0 MiB (50%)
Default : Yes
Alternate group : 1 [/scroll]

Продолжение описания:

В видеокурсе Программист 2020..2030 раскрываются темы, которые находятся «в работе» и будут наиболее популярны в программирование на ближайшие 10 лет: цифровая экономика (биткойн, блокчейны, смарт-контракты), искусственный интеллект (нейросети, современная робототехника), большие данные (из соц.сетей, наука о данных, статистическая обработка, бизнес применение). Также продолжатся разработки прошлых десятилетий: веб-сайты, игры для смартфонов и планшетов, облачные сервисы.
Как начинающему, так и опытному программисту обязательно необходимо быть внимательным к новым тенденциям, чтобы не остаться без работы в ближайшие несколько лет. И это не шутки: кому сейчас нужно программирование на языках Паскаль и Дельфи? А ведь всего 10 лет назад эти специалисты были очень востребованы. Но не волнуйтесь, со мной вам не о чем волноваться. Ведь я (Bad_guy) последние 15 лет сосредоточен на выпуске видеокурсов для программистов, крэкеров и хакеров. Будьте уверены, Видеокурс Программист 2020..2030, созданный мной, вам точно поможет. В видеоуроках приводится как креативная теоретическая часть, которая обязательно подкинет отличную идею, в какую сторону можно двигаться самостоятельно, так и практика, то есть, непосредственное изучение языков программирование и написание кода.
Кстати, если вы видите себя больше хакером, а не программистом, то популярные в ближайшие 10 лет вышеприведенные темы (более подробно раскрытые в видеокурсе), и вам дадут пищу для ума и поле для деятельности.
Вы сможете без проблем просматривать и использовать все материалы видеокурса на Windows, смарфтонах и планшетах Android и Apple, Linux, MacOS.
У видеокурса есть специализированная Windows-оболочка Autorun, которая написана на C++, обладает встроенным HTML движком, включает описание для всех материалов курса и удобна в навигации.
Скриншоты:
       

Clavik

Post 20-Aug-2019 09:09

[Quote]

рекомендую ) интересный сериал

Clavik

Post 20-Aug-2019 09:08

[Quote]

Пацаны / The Boys (2019) WEBRip (сезон 1, серии 1-8 из 8) - Производство: США / Amazon Studios, Original Film, Sony Pictures Television
Жанр: фантастика, боевик, комедия, криминал
Режиссер: Филип Сгриккиа, Дэниэл Эттиэс, Дженнифер Фанг
Актеры: Карл Урбан, Чейс Кроуфорд, Доминик МакЭллигот, Нэйтан Митчелл, Эрин Мориарти, Джек Куэйд, Элизабет Шу, Энтони Старр, Джесси Ашер, Лас Алонсо
Описание:
Действие сериала разворачивается в мире, где существуют супергерои. Именно они являются настоящими звездами. Их все знают и обожают. Но за идеальным фасадом скрывается гораздо более мрачный мир наркотиков и секса, а большинство героев — в жизни не самые приятные люди. Для контроля за супергероями ЦРУ создает специальный отряд, неофициально известный как «Пацаны», суровые члены которого всегда готовы поставить зазнавшегося героя на место самым жестоким способом.

TV Parental Guidelines (US): TV-MA (для взрослых, не рекомендуется лицам до 17 лет)
Дата мировой премьеры: 16 июля 2019
Продолжительность: 8 х ~ 01:01:00
Качество видео: WEBRip
Перевод: Любительский двухголосый - Kerob
Реклама: присутствуют видео, аудио, текстовые вставки рекламы
Видео: AVC/H.264, 1280x544, ~4000 Kbps
Аудио: AC3, 2 ch, 128 Kbps - русский

MediaInfo:

General
Unique ID : 140533132895252581230691256105438137435 (0x69B9B266DE6312E239EDA1732E6DCC5B)
Complete name : I:\The.Boys.S01.720p.Kerob\The.Boys.S01E01.720p.Kerob.mkv
Format : Matroska
Format version : Version 4
File size : 1.75 GiB
Duration : 1 h 2 min
Overall bit rate mode : Constant
Overall bit rate : 4 003 kb/s
Encoded date : UTC 2019-07-27 07:40:03
Writing application : mkvmerge v31.0.0 ('Dolores In A Shoestand') 64-bit
Writing library : libebml v1.3.6 + libmatroska v1.4.9
Video
ID : 1
Format : AVC
Format/Info : Advanced Video Codec
Format profile : [url=mailto:High@L3.1]High@L3.1[/url]
Format settings : CABAC / 1 Ref Frames
Format settings, CABAC : Yes
Format settings, ReFrames : 1 frame
Format settings, GOP : M=1, N=25
Codec ID : V_MPEG4/ISO/AVC
Duration : 1 h 2 min
Bit rate mode : Constant
Bit rate : 4 000 kb/s
Width : 1 280 pixels
Height : 544 pixels
Display aspect ratio : 2.35:1
Frame rate mode : Constant
Frame rate : 23.976 (24000/1001) FPS
Color space : YUV
Chroma subsampling : 4:2:0
Bit depth : 8 bits
Scan type : Progressive
Bits/(Pixel*Frame) : 0.240
Stream size : 1.69 GiB (97%)
Language : English
Default : Yes
Forced : No
Audio
ID : 2
Format : AC-3
Format/Info : Audio Coding 3
Commercial name : Dolby Digital
Codec ID : A_AC3
Duration : 1 h 2 min
Bit rate mode : Constant
Bit rate : 128 kb/s
Channel(s) : 2 channels
Channel layout : L R
Sampling rate : 48.0 kHz
Frame rate : 31.250 FPS (1536 SPF)
Bit depth : 16 bits
Compression mode : Lossy
Stream size : 57.2 MiB (3%)
Language : Russian
Service kind : Complete Main
Default : Yes
Forced : No

Дополнительная информация:

Сериал основан на одноименной серии комиксов сценариста Гарта Энниса и художника Дэрика Робертсона выходившей с 2006 по 2012 года.
Скриншоты:
       

Region_13

Post 02-Feb-2016 21:55

[Quote]

Взлом / Home Invasion Год выпуска: 2016
Страна: США / ARO Entertainment, Odyssey Media, TAJJ Media
Жанр: триллер
Продолжительность: 85 мин. / 01:25
Перевод: Профессиональный (многоголосый закадровый)
Режиссер: Дэвид Теннант
Продюссер: Джефф Сэкман, Кирк Шоу, Шон Эшмор
Сценарий: Питер Салливан
Премьера в мире: 1 февраля 2016


В ролях: Скотт Эдкинс, Наташа Хенстридж, Лиам Дикинсон, Кира Загорски, Майкл Роджерс, Кристиан Тессьер, Бренда Кричлоу, Лиэнн Лэпп, Джоанна Ньюмарк, Гари Чок
Описание: Ужас приходит к героям в месте, которое они считали самым безопасным. В своем загородном доме состоятельная дама со своим приемным сыном становятся жертвой нападения трех изощренных и беспощадных воров. Единственная их надежда на спасение — это оператор службы домашней сигнализации на другом конце телефона. Сможет ли он стать глазами пленников собственного дома и помочь им выбраться из кошмара наяву?
Качество:WEB-DLRip
Формат: AVI
Видео кодек: XviD
Аудио кодек: AC3
Видео: MPEG4, XviD, 720x400 (16:9), 23.976 fps, 1 979 Kbps (0.287 bit/pixel)
Аудио: AC-3, 48.0 KHz, 6 ch, 384 Kbps, CBR
           

MEDIAINFO

Общее
Полное имя : F:\кино\Взлом.2016.WEB-DLRip.avi
Формат : AVI
Формат/Информация : Audio Video Interleave
Размер файла : 1,47 Гбайт
Длительность : 1 ч. 28 м.
Общий поток : 2372 Кбит/сек
Программа кодирования : VirtualDubMod 1.5.10.3 | www.virtualdub-fr.org || (build 2550/release)
Библиотека кодирования : VirtualDubMod build 2550/release
Видео
Идентификатор : 0
Формат : MPEG-4 Visual
Профиль формата : Advanced Simple@L5
Параметр BVOP формата : 2
Параметр QPel формата : Нет
Параметр GMC формата : Без точки перехода
Параметр матрицы формата : Default (H.263)
Идентификатор кодека : XVID
Идентификатор кодека/Подсказка : XviD
Длительность : 1 ч. 28 м.
Битрейт : 1979 Кбит/сек
Ширина : 720 пикселей
Высота : 400 пикселей
Соотношение сторон : 16:9
Частота кадров : 23,976 (23976/1000) кадра/сек
Цветовое пространство : YUV
Субдискретизация насыщенности : 4:2:0
Битовая глубина : 8 бит
Тип развёртки : Прогрессивная
Метод сжатия : С потерями
Бит/(Пиксели*Кадры) : 0.287
Размер потока : 1,22 Гбайт (83%)
Библиотека кодирования : XviD 1.2.1 (UTC 2008-12-04)
Аудио
Идентификатор : 1
Формат : AC-3
Формат/Информация : Audio Coding 3
Расширение режима : CM (complete main)
Параметр Endianness формата : Big
Идентификатор кодека : 2000
Длительность : 1 ч. 28 м.
Вид битрейта : Постоянный
Битрейт : 384 Кбит/сек
Каналы : 6 каналов
Расположение каналов : Front: L C R, Side: L R, LFE
Частота : 48,0 КГц
Частота кадров : 31,250 кадров/сек (1536 spf)
Метод сжатия : С потерями
Размер потока : 243 Мбайт (16%)
Выравнивание : Разделение по промежуткам
Длительность промежутка : 42 мс. (1,00 видеокадр)
Время предзагрузки промежутка : 500 мс.

Region_13

Post 13-Jan-2016 16:39

[Quote]

Равнины Меркурия / Mercury Plains
Год выпуска: 2016
Страна:США
Жанр: боевик, драма, приключения
Продолжительность: 01:42:06
Перевод: Любительский (одноголосый закадровый)[datynet]

Режиссер: Чарльз Бурмейстер
Продюссер: Хьюстон Хилл, Эрик Уотсон, Tibaut Bowman
Сценарий: Чарльз Бурмейстер
Премьера в мире: 10 января 2016
рейтинг R лицам до 17 лет обязательно присутствие взрослого


В ролях: Скотт Иствуд, Анджела Сарафян, Ник Чинланд, Хорхе А. Хименес, Кэтерин Уиллис, Сью Рок, Майк Гассэвей, Кит Поулсон, Марк Хэнсон, Джастин Арнольд
Описание: Столкнувшись с мрачным будущим, молодой человек сбегает в Мексику. Там он оказывается вовлечен в военизированную группу подростков, которые борются с картелями.
Качество: DVDRip
Формат: AVI
Видео кодек: XviD
Аудио кодек: AC3
Видео: 1458 kb/s, 720x304
Аудио: Russian: MP3, 192 kb/s (2 ch) / English: AC3, 256 kb/s (6 ch)

Скриншоты

               

MEDIAINFO

General
Complete name : E:\Равнины_Меркурия.2016.L1.DVDRip.avi
Format : AVI
Format/Info : Audio Video Interleave
File size : 1.37 GiB
Duration : 1h 42mn
Overall bit rate : 1 920 Kbps
Writing application : VirtualDubMod 1.5.10.3 | www.virtualdub-fr.org || (build 2550/release)
Writing library : VirtualDubMod build 2550/release
Video
ID : 0
Format : MPEG-4 Visual
Format profile : Advanced Simple@L5
Format settings, BVOP : 2
Format settings, QPel : No
Format settings, GMC : No warppoints
Format settings, Matrix : Default (H.263)
Codec ID : XVID
Codec ID/Hint : XviD
Duration : 1h 42mn
Bit rate : 1 458 Kbps
Width : 720 pixels
Height : 304 pixels
Display aspect ratio : 2.35:1
Frame rate : 23.976 fps
Color space : YUV
Chroma subsampling : 4:2:0
Bit depth : 8 bits
Scan type : Progressive
Compression mode : Lossy
Bits/(Pixel*Frame) : 0.278
Stream size : 1.04 GiB (76%)
Writing library : XviD 65
Audio #1
ID : 1
Format : MPEG Audio
Format version : Version 1
Format profile : Layer 3
Mode : Joint stereo
Codec ID : 55
Codec ID/Hint : MP3
Duration : 1h 42mn
Bit rate mode : Constant
Bit rate : 192 Kbps
Channel count : 2 channels
Sampling rate : 48.0 KHz
Compression mode : Lossy
Stream size : 140 MiB (10%)
Alignment : Split accross interleaves
Interleave, duration : 42 ms (1.00 video frame)
Interleave, preload duration : 500 ms
Audio #2
ID : 2
Format : AC-3
Format/Info : Audio Coding 3
Mode extension : CM (complete main)
Format settings, Endianness : Big
Codec ID : 2000
Duration : 1h 42mn
Bit rate mode : Constant
Bit rate : 256 Kbps
Channel count : 6 channels
Channel positions : Front: L C R, Side: L R, LFE
Sampling rate : 48.0 KHz
Bit depth : 16 bits
Compression mode : Lossy
Stream size : 187 MiB (13%)
Alignment : Split accross interleaves
Interleave, duration : 42 ms (1.00 video frame)
Interleave, preload duration : 500 ms
 

Dracula

Post 22-Sep-2015 19:17

[Quote]

Топик был перенесен из форума Предложения по улучшению раздела "Кино, Видео и ТВ" в форум Архив

Причина переноса: решено https://darkos.club/viewtopic.php?t=156796
Геннадич

Dracula

Post 21-Sep-2015 19:44

[Quote]

Топик был перенесен из форума Предложения по улучшению раздела "Кино, Видео и ТВ" в форум Архив

Причина переноса: не актуально
Геннадич
 

The time now is: Today 08:38

All times are GMT + 3 Hours