Today is a free download without charge Download

Search found 14 matches

Author Message

RazBoyNik

Post 17-Feb-2020 10:16

[Quote]

Пятый элемент / The Fifth Element (Remastered) (1997) Blu ray [H.264/1080p]
«It Mu5t Be Found»
- Производство: Франция / Gaumont
Жанр: фантастика, боевик, триллер, комедия
Режиссер: Люк Бессон
Актеры: Брюс Уиллис, Милла Йовович, Гари Олдман, Иэн Холм, Крис Такер, Люк Перри, Брайон Джеймс, Томми Листер, Ли Эванс, Чарли Крид-Майлз
Описание:
Каждые пять тысяч лет открываются двери между измерениями и темные силы стремятся нарушить существующую гармонию. Каждые пять тысяч лет Вселенной нужен герой, способный противостоять этому злу. XXIII век. Нью-йоркский таксист Корбен Даллас должен решить глобальную задачу — спасение всего рода человеческого.
Зло в виде раскаленной массы, наделенной интеллектом, надвигается на Землю. Победить его можно, только лишь собрав воедино четыре элемента (они же стихии — земля, вода, воздух и огонь) и добавив к ним загадочный пятый элемент.

Возраст: 16+ (зрителям, достигшим 16 лет)
Рейтинг MPAA: PG-13 (детям до 13 лет просмотр нежелателен)
Продолжительность: 02:05:53
Качество видео: Blu ray
Перевод: Дублированный (Лицензия), Двуголосый, Одноголосый
Субтитры: Русские, английские (полные, SDH)
Видео: AVC, 1920x1080 (16:9), 28,6 Mbps
Аудио 1: DTS, 5.1 ch, 1510 Kbps - Русский (Dub)
Аудио 2: PCM, 5.1 ch, 4608 kbps - Английский
Аудио 3: DTS, 5.1 ch, 1510 Kbps - Русский (Гланц и Королева)
Аудио 4: DTS, 5.1 ch, 1510 Kbps - Русский (Гаврилов)

MediaInfo:

Идентификатор                    : 0
Полное имя : \The Fifth Element RUS\BDMV\STREAM\00001.m2ts
Формат : BDAV
Формат/Информация : Blu-ray Video
Размер файла : 34,8 Гигабайт
Продолжительность : 2 ч. 6 м.
Общий поток : 39,3 Мбит/сек
Максимальный общий битрейт : 48,0 Мбит/сек
Видео
Идентификатор : 4113 (0x1011)
Идентификатор меню : 1 (0x1)
Формат : AVC
Формат/Информация : Advanced Video Codec
Профайл формата : [url=mailto:High@L4.1]High@L4.1[/url]
Параметры CABAC формата : Да
Параметры ReFrames формата : 2 кадры
Продолжительность : 2 ч. 6 м.
Битрейт : 28,6 Мбит/сек
Ширина : 1920 пикс.
Высота : 1080 пикс.
Соотношение кадра : 16:9
Частота кадров : 23,976 кадр/сек
Разрешение : 24 бит
Колориметрия : 4:2:0
Тип развёртки : Прогрессивная
Бит/(Пиксели*Кадры) : 0.576
Аудио #1
Идентификатор : 4352 (0x1100)
Идентификатор меню : 1 (0x1)
Формат : DTS
Формат/Информация : Digital Theater Systems
Продолжительность : 2 ч. 6 м.
Вид битрейта : Постоянный
Битрейт : 1510 Кбит/сек
Канал(ы) : 6 канала(ов)
Расположение каналов : Front: L C R, Surround: L R, LFE
Частота : 48,0 КГц
Разрешение : 24 бит
Размер потока : 1,33 Гигабайт (4%)
Аудио #2
Идентификатор : 4353 (0x1101)
Идентификатор меню : 1 (0x1)
Формат : PCM
Параметры Endianness формата : Big
Параметры Sign формата : Signed
Режим смешивания : Blu-ray
Продолжительность : 2 ч. 6 м.
Вид битрейта : Постоянный
Битрейт : 4608 Кбит/сек
Канал(ы) : 6 канала(ов)
Расположение каналов : Front: L R C, Rear: L R, LFE
Частота : 48,0 КГц
Разрешение : 16 бит
Размер потока : 4,07 Гигабайт (12%)
Аудио #3
Идентификатор : 4354 (0x1102)
Идентификатор меню : 1 (0x1)
Формат : DTS
Формат/Информация : Digital Theater Systems
Продолжительность : 2 ч. 6 м.
Вид битрейта : Постоянный
Битрейт : 1510 Кбит/сек
Канал(ы) : 6 канала(ов)
Расположение каналов : Front: L C R, Surround: L R, LFE
Частота : 48,0 КГц
Разрешение : 24 бит
Размер потока : 1,33 Гигабайт (4%)
Аудио #4
Идентификатор : 4355 (0x1103)
Идентификатор меню : 1 (0x1)
Формат : DTS
Формат/Информация : Digital Theater Systems
Продолжительность : 2 ч. 6 м.
Вид битрейта : Постоянный
Битрейт : 1510 Кбит/сек
Канал(ы) : 6 канала(ов)
Расположение каналов : Front: L C R, Surround: L R, LFE
Частота : 48,0 КГц
Разрешение : 24 бит
Размер потока : 1,33 Гигабайт (4%)
Текст #1
Идентификатор : 4608 (0x1200)
Идентификатор меню : 1 (0x1)
Формат : PGS
Текст #2
Идентификатор : 4609 (0x1201)
Идентификатор меню : 1 (0x1)
Формат : PGS
Текст #3
Идентификатор : 4610 (0x1202)
Идентификатор меню : 1 (0x1)
Формат : PGS
Текст #4
Идентификатор : 4611 (0x1203)
Идентификатор меню : 1 (0x1)
Формат : PGS
Текст #5
Идентификатор : 4612 (0x1204)
Идентификатор меню : 1 (0x1)
Формат : PGS
Текст #6
Идентификатор : 4613 (0x1205)
Идентификатор меню : 1 (0x1)
Формат : PGS
Текст #7
Идентификатор : 4614 (0x1206)
Идентификатор меню : 1 (0x1)
Формат : PGS
Текст #8
Идентификатор : 4615 (0x1207)
Идентификатор меню : 1 (0x1)
Формат : PGS

Знаете ли Вы, что...

  • Люк Бессон написал сценарий к картине еще в то время, когда был учеником средней школы.
  • Полное имя Лилу звучит так – «ЛилуминАй ЛекатАриба ЛаминачАй Экбат Дэ СэбАт».
  • Язык, на котором разговаривает персонаж Милы Йовович – Лилу, был придуман самим Люком Бессонном. Разумеется, не обошлось и без импровизации самой актрисы. К моменту окончания съемок они могли спокойно болтать друг с другом на выдуманном языке, чем приводили в восторг всю съемочную бригаду.
  • Среди этой тарабарщины зритель может выявить такие фразы как «Мларта», «Биг Бадабум», «Акта», «Сено Акта Гамат», «Сан агамат чей бэт Энволет», «Данко», «Домо Данко» и «Апипулай». Все остальные фразы звучат нечленораздельно.
  • Взрыв в главном Флостонском зале на момент выхода картины в прокат был самым мощным взрывом внутри помещения, когда-либо демонстрируемым в рамках художественного фильма.
  • В самом начале картины персонаж Гари Олдмана цитирует Ницше: «То, что тебя не убивает, делает тебя только сильнее». Брюс Уиллис в свое время записал альбом с точно таким же названием.
  • По сценарию персонажа Криса Такера звали вовсе не Руби Род, а Лок Род. Именно это имя (Локк) можно встретить и в книге, написанной по мотивам фильма.
  • Впервые увидев Корбена Далласа в кадре, мы можем увидеть дату на календаре в его комнате – 18 марта 2263 года. 18 марта – день рождения Люка Бессона.
  • Когда Президент говорит священнику Корнелиусу, что у того есть ровно двадцать секунд, чтобы озвучить свою мысль, Вито успевает донести свои суждения именно за 20 секунд.
  • Интересно, что главный протогонист (Уиллис) и главный антигонист (Олдман) на протяжении всего хода картины не то, что ни разу не встречаются, они даже ни разу не разговаривают друг с другом.
  • Имя певицы, прячущей заветные камни в недрах своей плоти, звучит как «Плава Лагуна». Именно такое название носит бомбоубежище в Хорватии, где Люк довольно часто проводил свои летние каникулы, будучи ребенком. В переводе с хорватского данное имя звучит как «Голубая лагуна».
  • Число «пять» используется в картине несколько раз, в том числе и в самом названии. Во-первых, это 5 элементов. Во-вторых, Зорг останавливает бомбу ровно за 5 секунд до взрыва. В-третьих, в самом конце фильма врач, заглядывающий в отсек, где свои силы восстанавливают Корбен и Лилу, говорит, что им нужно еще 5 минут.
  • За всю историю французского кино данная лента стала самой дорогостоящей как для всей Франции, так и для кинокомпании Gaumont в частности.
  • К моменту выхода картины в прокат затраты на создание спецэффектов в размере 80 миллионов были самыми дорогостоящими в истории кино. До сих пор картина считается одной из самых дорогостоящих картин, выпущенных без участия Голливуда.
  • В 2002 году по лицензии кинокомпании Gaumont по мотивам фильма была выпущена компьютерная аркада «NY Race».В России локализована компаниями Nival Interactive и 1С под названием «Погоня за Пятым элементом». Игроку предлагается ощутить себя «в шкуре» Корбена Далласа и погонять такси по улицам Нью-Йорка 2259 года.
  • Ария Плавы Лагуны спета не человеческим голосом, а создана на компьютере. Для человека исполнение этой партии невозможно

Дополнительно + благодарности:

Цитата -"Диск пересобран из оригинального Blu-ray диска. Используемые программы: BD Reauthor от DVDLogic Software (http://www.dvd-logic.com) и Sonic Scenarist BD. Полностью сохранена структура оригинального Blu-ray диска (включая меню, Pop-up меню, и т.д.).
За исходник большое спасибо BananaFarmer и HDBits.org
Русские звуковые дорожки взяты из раздачи Max1g, все благодарности ему.
Большую помощь в создании диска оказал Ptomain, за что ему большое спасибо.
Воспроизведение проверено и на компьютере и на бытовом Blu-ray плеере Sony. Должно проигрываться и на PS3."
Скриншоты:
       

RazBoyNik

Post 16-Feb-2020 21:12

[Quote]

Зеленее травы / Greener Grass (2019) BDRip [H.264/720p] - Год: 2019
Производство: США / Gulp Splash Productions, Vanishing Angle
Жанр: Комедия
Режиссер: Жослин ДеБоэр, Доун Люббе
Актеры: Жослин ДеБоэр, Доун Люббе, Бек Беннетт, Нил Кэйси, Мэри Холлэнд, Д’Арси Карден, Джулиан Хиллиард, Яница Браво, Дот-Мари Джонс, Эшер Майлз Фаллика
Описание:
Две богатые домохозяйки живут беззаботной жизнью в американском пригороде. Одна из них — Джил — сначала дарит ребёнка своей подруге, а потом её сын превращается в собаку. Что дальше? А дальше ещё 99,7% абсурда.

Возраст: 16+ (зрителям, достигшим 16 лет)
Дата мировой премьеры: 26 января 2019
Дата российской премьеры: 17 октября 2019, «Russian World Vision»
Продолжительность: 01:36:06
Качество видео: BDRip
Перевод: Многоголосый профессиональный
Субтитры: Английские
Видео: AVC/H.264, 1280x544, ~4777 Kbps
Аудио 1: AC3, 6 ch, 384 Kbps - Русский (MVO, iTunes)
Аудио 2: AC3, 6 ch, 448 Kbps - Английский

MediaInfo:

Общее
Уникальный идентификатор : 236279492669047647489028663843145061928 (0xB1C1C6678D9571E8BF59D98147F31628)
Полное имя : G:Torrent2ZeleneeTravyBDRip720p.mkv
Формат : Matroska
Версия формата : Version 4 / Version 2
Размер файла : 3,76 Гбайт
Продолжительность : 1 ч. 36 м.
Общий поток : 5609 Кбит/сек
Дата кодирования : UTC 2020-02-16 15:39:41
Программа кодирования : mkvmerge v9.5.0 ('Quiet Fire') 64bit
Библиотека кодирования : libebml v1.3.4 + libmatroska v1.4.5
Видео
Идентификатор : 1
Формат : AVC
Формат/Информация : Advanced Video Codec
Профиль формата : [url=mailto:High@L4.1]High@L4.1[/url]
Настройки формата : CABAC / 12 Ref Frames
Параметр CABAC формата : Да
Параметр RefFrames формата : 12 кадров
Идентификатор кодека : V_MPEG4/ISO/AVC
Продолжительность : 1 ч. 36 м.
Битрейт : 4777 Кбит/сек
Ширина : 1280 пикселей
Высота : 544 пикселя
Соотношение сторон : 2,35:1
Режим частоты кадров : Постоянный
Частота кадров : 23,976 (23976/1000) кадра/сек
Цветовое пространство : YUV
Субдискретизация насыщенности : 4:2:0
Битовая глубина : 8 бит
Тип развёртки : Прогрессивная
Бит/(Пиксели*Кадры) : 0.286
Размер потока : 3,20 Гбайт (85%)
Заголовок : Sisendrovich(R)
Библиотека кодирования : x264 core 159 r2991 1771b55
Настройки программы : cabac=1 / ref=12 / deblock=1:-1:-1 / analyse=0x3:0x133 / me=tesa / subme=11 / psy=1 / psy_rd=1.00:0.00 / mixed_ref=1 / me_range=32 / chroma_me=1 / trellis=2 / 8x8dct=1 / cqm=0 / deadzone=21,11 / fast_pskip=0 / chroma_qp_offset=-2 / threads=17 / lookahead_threads=4 / sliced_threads=0 / nr=0 / decimate=0 / interlaced=0 / bluray_compat=0 / constrained_intra=0 / bframes=10 / b_pyramid=2 / b_adapt=2 / b_bias=0 / direct=3 / weightb=1 / open_gop=0 / weightp=2 / keyint=240 / keyint_min=23 / scenecut=40 / intra_refresh=0 / rc_lookahead=60 / rc=2pass / mbtree=0 / bitrate=4777 / ratetol=1.0 / qcomp=0.70 / qpmin=0 / qpmax=69 / qpstep=4 / cplxblur=20.0 / qblur=0.5 / vbv_maxrate=50000 / vbv_bufsize=62500 / nal_hrd=none / filler=0 / ip_ratio=1.40 / pb_ratio=1.30 / aq=3:0.80
Язык : English
Default : Да
Forced : Нет
Аудио #1
Идентификатор : 2
Формат : AC-3
Формат/Информация : Audio Coding 3
Параметр Endianness формата : Big
Идентификатор кодека : A_AC3
Продолжительность : 1 ч. 36 м.
Вид битрейта : Постоянный
Битрейт : 384 Кбит/сек
Каналы : 6 каналов
Расположение каналов : Front: L C R, Side: L R, LFE
Частота : 48,0 КГц
Частота кадров : 31,250 кадров/сек (1536 SPF)
Битовая глубина : 16 бит
Метод сжатия : С потерями
Размер потока : 264 Мбайт (7%)
Заголовок : rus
Язык : Russian
Default : Да
Forced : Нет
Аудио #2
Идентификатор : 3
Формат : AC-3
Формат/Информация : Audio Coding 3
Параметр Endianness формата : Big
Идентификатор кодека : A_AC3
Продолжительность : 1 ч. 36 м.
Вид битрейта : Постоянный
Битрейт : 448 Кбит/сек
Каналы : 6 каналов
Расположение каналов : Front: L C R, Side: L R, LFE
Частота : 48,0 КГц
Частота кадров : 31,250 кадров/сек (1536 SPF)
Битовая глубина : 16 бит
Метод сжатия : С потерями
Размер потока : 308 Мбайт (8%)
Заголовок : eng
Язык : English
Default : Нет
Forced : Нет
Текст
Идентификатор : 4
Формат : UTF-8
Идентификатор кодека : S_TEXT/UTF8
Идентификатор кодека/Информация : UTF-8 Plain Text
Продолжительность : 1 ч. 32 м.
Битрейт : 59 бит/сек
ElementCount : 1371
Размер потока : 40,0 Кбайт (0%)
Заголовок : engFull
Язык : English
Default : Нет
Forced : Нет
Меню
00:00:00.000 : en:Chapter 01
00:08:47.235 : en:Chapter 02
00:15:37.102 : en:Chapter 03
00:23:57.811 : en:Chapter 04
00:31:28.428 : en:Chapter 05
00:36:44.869 : en:Chapter 06
00:42:26.710 : en:Chapter 07
00:51:07.981 : en:Chapter 08
01:00:50.897 : en:Chapter 09
01:10:07.745 : en:Chapter 10
01:22:13.219 : en:Chapter 11
01:33:19.176 : en:Chapter 12
01:36:04.467 : en:Chapter 13
Скриншоты:
       

RazBoyNik

Post 16-Feb-2020 18:06

[Quote]

Первая любовь / Hatsukoi (2019) BDRip [H.264/1080p]- Год: 2019
Производство: Япония, Великобритания / Oriental Light and Magic (OLM)
Жанр: Криминал, боевик, мелодрама
Режиссер: Такаси Миике
Продюсер: Мисако Сака, Джереми Томас, Мунэюки Кии
Актеры: Масатака Кубота, Сакурако Кониси, Нао Омори, Сёта Сомэтани, Сэиё Утино, Беки, Дзюн Мураками, Сансэй Сиоми, Такахиро Миура, Янь Цзинко
Описание: Рео и Моника — боксер со смертельным диагнозом и проститутка-наркоманка, влипшая в долги… Любовь, первая любовь настигает их внезапно. Но их чувство и жизнь под угрозой: за парочкой гонятся якудза, продажный коп, киллерша, посланная китайской триадой, и даже призрак в белой простыне… Безумная ночь в безумном Токио.

Возраст: 16+ (зрителям, достигшим 16 лет)
Дата мировой премьеры: 17 мая 2019
Дата российской премьеры: 28 ноября 2019, «Парадиз»
Продолжительность: 01:48:16
Качество видео: BDRip 1080p
Перевод: Дублированный (iTunes)
Субтитры: Английские
Видео: AVC/H.264, 1920x804, 8000 Kbps, 23.976 fps
Аудио 1: AC-3, 6 ch, 384 Kbps | Русский
Аудио 2: AC-3, 6 ch, 640 Kbps | Английский

Mediainfo:

General
Unique ID : 6116920269192867005240426392419692132 (0x49A13742BE8FC965B8BB02177A1EE64)
Complete name : /Users/imac/HandBrake/Hatsukoi.BDRip.1080p.pk.mkv
Format : Matroska
Format version : Version 4
File size : 6.83 GiB
Duration : 1h 48mn
Overall bit rate : 9 025 Kbps
Movie name : Hatsukoi BDRip 1080p pk
Encoded date : UTC 2020-02-16 13:41:51
Writing application : mkvmerge v43.0.0 ('The Quartermaster') 64-bit
Writing library : libebml v1.3.10 + libmatroska v1.5.2
Video
ID : 1
Format : AVC
Format/Info : Advanced Video Codec
Format profile : [url=mailto:High@L4.1]High@L4.1[/url]
Format settings : CABAC / 5 Ref Frames
Format settings, CABAC : Yes
Format settings, ReFrames : 5 frames
Codec ID : V_MPEG4/ISO/AVC
Duration : 1h 48mn
Bit rate : 8 000 Kbps
Width : 1 920 pixels
Height : 804 pixels
Display aspect ratio : 2.40:1
Frame rate mode : Constant
Frame rate : 23.976 (24000/1001) fps
Color space : YUV
Chroma subsampling : 4:2:0
Bit depth : 8 bits
Scan type : Progressive
Bits/(Pixel*Frame) : 0.216
Stream size : 6.05 GiB (89%)
Writing library : x264 core 157 r2935 545de2f
Encoding settings : cabac=1 / ref=5 / deblock=1:-3:-3 / analyse=0x3:0x113 / me=umh / subme=9 / psy=1 / psy_rd=1.00:0.00 / mixed_ref=1 / me_range=32 / chroma_me=1 / trellis=2 / 8x8dct=1 / cqm=0 / deadzone=21,11 / fast_pskip=0 / chroma_qp_offset=-2 / threads=25 / lookahead_threads=6 / sliced_threads=0 / nr=0 / decimate=0 / interlaced=0 / bluray_compat=0 / constrained_intra=0 / bframes=12 / b_pyramid=2 / b_adapt=2 / b_bias=0 / direct=1 / weightb=0 / open_gop=0 / weightp=2 / keyint=240 / keyint_min=24 / scenecut=40 / intra_refresh=0 / rc_lookahead=75 / rc=2pass / mbtree=0 / bitrate=8000 / ratetol=1.0 / qcomp=0.65 / qpmin=0 / qpmax=69 / qpstep=4 / cplxblur=20.0 / qblur=0.5 / vbv_maxrate=62500 / vbv_bufsize=78125 / nal_hrd=none / filler=0 / ip_ratio=1.30 / pb_ratio=1.20 / aq=1:1.10
Language : English
Default : Yes
Forced : No
Color range : Limited
Color primaries : BT.709
Transfer characteristics : BT.709
Matrix coefficients : BT.709
Audio #1
ID : 2
Format : AC-3
Format/Info : Audio Coding 3
Commercial name : Dolby Digital
Codec ID : A_AC3
Duration : 1h 48mn
Bit rate mode : Constant
Bit rate : 384 Kbps
Channel(s) : 6 channels
Channel layout : L R C LFE Ls Rs
Sampling rate : 48.0 KHz
Frame rate : 31.250 fps (1536 SPF)
Compression mode : Lossy
Stream size : 297 MiB (4%)
Title : Russian Dub iTunes
Language : Russian
Service kind : Complete Main
Default : Yes
Forced : No
Audio #2
ID : 3
Format : AC-3
Format/Info : Audio Coding 3
Commercial name : Dolby Digital
Codec ID : A_AC3
Duration : 1h 48mn
Bit rate mode : Constant
Bit rate : 640 Kbps
Channel(s) : 6 channels
Channel layout : L R C LFE Ls Rs
Sampling rate : 48.0 KHz
Frame rate : 31.250 fps (1536 SPF)
Compression mode : Lossy
Stream size : 496 MiB (7%)
Title : English Original
Language : English
Service kind : Complete Main
Default : No
Forced : No
Text
ID : 4
Format : UTF-8
Codec ID : S_TEXT/UTF8
Codec ID/Info : UTF-8 Plain Text
Duration : 1h 46mn
Bit rate : 32 bps
Count of elements : 1079
Stream size : 25.5 KiB (0%)
Title : English full
Language : English
Default : No
Forced : No
Menu
00:00:00.000 : :Chapter 1
00:05:00.091 : :Chapter 2
00:10:00.016 : :Chapter 3
00:15:00.066 : :Chapter 4
00:20:00.074 : :Chapter 5
00:25:00.040 : :Chapter 6
00:30:00.048 : :Chapter 7
00:35:00.015 : :Chapter 8
00:40:00.064 : :Chapter 9
00:45:00.031 : :Chapter 10
00:50:00.080 : :Chapter 11
00:55:00.047 : :Chapter 12
01:00:00.055 : :Chapter 13
01:05:00.021 : :Chapter 14
01:10:00.029 : :Chapter 15
01:15:00.037 : :Chapter 16
01:20:00.045 : :Chapter 17
01:25:00.012 : :Chapter 18
01:30:00.103 : :Chapter 19
01:35:00.069 : :Chapter 20
01:40:00.119 : :Chapter 21
01:45:00.044 : :Chapter 22

x264 лог

x264 [info]: frame I:821   Avg QP:11.08  size:158463
x264 [info]: frame P:45103 Avg QP:12.51 size: 70119
x264 [info]: frame B:109842 Avg QP:13.08 size: 29162
x264 [info]: consecutive B-frames: 4.0% 4.9% 32.7% 25.1% 13.5% 16.6% 1.6% 0.5% 0.4% 0.2% 0.2% 0.1% 0.3%
x264 [info]: mb I I16..4: 8.5% 82.9% 8.5%
x264 [info]: mb P I16..4: 4.9% 24.3% 1.4% P16..4: 34.2% 20.4% 10.7% 0.0% 0.0% skip: 4.1%
x264 [info]: mb B I16..4: 1.4% 3.1% 0.1% B16..8: 36.2% 15.8% 4.3% direct:11.2% skip:27.9% L0:47.6% L1:42.6% BI: 9.8%
x264 [info]: 8x8 transform intra:76.6% inter:44.7%
x264 [info]: coded y,uvDC,uvAC intra: 70.0% 91.5% 85.7% inter: 30.7% 41.7% 21.9%
x264 [info]: i16 v,h,dc,p: 62% 15% 8% 15%
x264 [info]: i8 v,h,dc,ddl,ddr,vr,hd,vl,hu: 13% 10% 29% 7% 8% 8% 8% 8% 8%
x264 [info]: i4 v,h,dc,ddl,ddr,vr,hd,vl,hu: 19% 15% 13% 8% 11% 10% 9% 7% 8%
x264 [info]: i8c dc,h,v,p: 63% 14% 13% 9%
x264 [info]: Weighted P-Frames: Y:1.8% UV:1.2%
x264 [info]: ref P L0: 53.8% 4.1% 21.9% 9.8% 9.8% 0.5% 0.0%
x264 [info]: ref B L0: 70.8% 17.6% 8.7% 2.9%
x264 [info]: ref B L1: 95.2% 4.8%
x264 [info]: kb/s:7998.92
Скриншоты:
       

RazBoyNik

Post 16-Feb-2020 18:03

[Quote]

Первая любовь / Hatsukoi (2019) BDRip [H.264/720p]- Год: 2019
Производство: Япония, Великобритания / Oriental Light and Magic (OLM)
Жанр: Криминал, боевик, мелодрама
Режиссер: Такаси Миике
Продюсер: Мисако Сака, Джереми Томас, Мунэюки Кии
Актеры: Масатака Кубота, Сакурако Кониси, Нао Омори, Сёта Сомэтани, Сэиё Утино, Беки, Дзюн Мураками, Сансэй Сиоми, Такахиро Миура, Янь Цзинко
Описание: Рео и Моника — боксер со смертельным диагнозом и проститутка-наркоманка, влипшая в долги… Любовь, первая любовь настигает их внезапно. Но их чувство и жизнь под угрозой: за парочкой гонятся якудза, продажный коп, киллерша, посланная китайской триадой, и даже призрак в белой простыне… Безумная ночь в безумном Токио.

Возраст: 16+ (зрителям, достигшим 16 лет)
Дата мировой премьеры: 17 мая 2019
Дата российской премьеры: 28 ноября 2019, «Парадиз»
Продолжительность: 01:48:16
Качество видео: BDRip 720p
Перевод: Дублированный (iTunes)
Субтитры: Английские
Видео: AVC/H.264, 1280x536, 3500 Kbps, 23.976 fps
Аудио 1: AC-3, 6 ch, 384 Kbps | Русский
Аудио 2: AC-3, 6 ch, 640 Kbps | Английский

Mediainfo:

General
Unique ID : 212888501838977689341691463238938528318 (0xA028D5845975EC77CAA19EA342000A3E)
Complete name : /Users/imac/HandBrake/Hatsukoi.BDRip.720p.pk.mkv
Format : Matroska
Format version : Version 4
File size : 3.42 GiB
Duration : 1h 48mn
Overall bit rate : 4 520 Kbps
Movie name : Hatsukoi BDRip 720p pk
Encoded date : UTC 2020-02-16 14:10:55
Writing application : mkvmerge v43.0.0 ('The Quartermaster') 64-bit
Writing library : libebml v1.3.10 + libmatroska v1.5.2
Video
ID : 1
Format : AVC
Format/Info : Advanced Video Codec
Format profile : [url=mailto:High@L4.1]High@L4.1[/url]
Format settings : CABAC / 12 Ref Frames
Format settings, CABAC : Yes
Format settings, ReFrames : 12 frames
Codec ID : V_MPEG4/ISO/AVC
Duration : 1h 48mn
Bit rate : 3 500 Kbps
Width : 1 280 pixels
Height : 536 pixels
Display aspect ratio : 2.40:1
Frame rate mode : Constant
Frame rate : 23.976 (24000/1001) fps
Color space : YUV
Chroma subsampling : 4:2:0
Bit depth : 8 bits
Scan type : Progressive
Bits/(Pixel*Frame) : 0.213
Stream size : 2.64 GiB (77%)
Writing library : x264 core 157 r2935 545de2f
Encoding settings : cabac=1 / ref=12 / deblock=1:-3:-3 / analyse=0x3:0x113 / me=umh / subme=9 / psy=1 / psy_rd=1.00:0.00 / mixed_ref=1 / me_range=32 / chroma_me=1 / trellis=2 / 8x8dct=1 / cqm=0 / deadzone=21,11 / fast_pskip=0 / chroma_qp_offset=-2 / threads=17 / lookahead_threads=4 / sliced_threads=0 / nr=0 / decimate=0 / interlaced=0 / bluray_compat=0 / constrained_intra=0 / bframes=12 / b_pyramid=2 / b_adapt=2 / b_bias=0 / direct=1 / weightb=0 / open_gop=0 / weightp=2 / keyint=240 / keyint_min=24 / scenecut=40 / intra_refresh=0 / rc_lookahead=70 / rc=2pass / mbtree=0 / bitrate=3500 / ratetol=1.0 / qcomp=0.65 / qpmin=0 / qpmax=69 / qpstep=4 / cplxblur=20.0 / qblur=0.5 / vbv_maxrate=50000 / vbv_bufsize=62000 / nal_hrd=none / filler=0 / ip_ratio=1.40 / pb_ratio=1.30 / aq=1:1.10
Language : English
Default : Yes
Forced : No
Color range : Limited
Color primaries : BT.709
Transfer characteristics : BT.709
Matrix coefficients : BT.709
Audio #1
ID : 2
Format : AC-3
Format/Info : Audio Coding 3
Commercial name : Dolby Digital
Codec ID : A_AC3
Duration : 1h 48mn
Bit rate mode : Constant
Bit rate : 384 Kbps
Channel(s) : 6 channels
Channel layout : L R C LFE Ls Rs
Sampling rate : 48.0 KHz
Frame rate : 31.250 fps (1536 SPF)
Compression mode : Lossy
Stream size : 297 MiB (8%)
Title : Russian Dub iTunes
Language : Russian
Service kind : Complete Main
Default : Yes
Forced : No
Audio #2
ID : 3
Format : AC-3
Format/Info : Audio Coding 3
Commercial name : Dolby Digital
Codec ID : A_AC3
Duration : 1h 48mn
Bit rate mode : Constant
Bit rate : 640 Kbps
Channel(s) : 6 channels
Channel layout : L R C LFE Ls Rs
Sampling rate : 48.0 KHz
Frame rate : 31.250 fps (1536 SPF)
Compression mode : Lossy
Stream size : 496 MiB (14%)
Title : English Original
Language : English
Service kind : Complete Main
Default : No
Forced : No
Text
ID : 4
Format : UTF-8
Codec ID : S_TEXT/UTF8
Codec ID/Info : UTF-8 Plain Text
Duration : 1h 46mn
Bit rate : 32 bps
Count of elements : 1079
Stream size : 25.5 KiB (0%)
Title : English full
Language : English
Default : No
Forced : No
Menu
00:00:00.000 : :Chapter 1
00:05:00.091 : :Chapter 2
00:10:00.016 : :Chapter 3
00:15:00.066 : :Chapter 4
00:20:00.074 : :Chapter 5
00:25:00.040 : :Chapter 6
00:30:00.048 : :Chapter 7
00:35:00.015 : :Chapter 8
00:40:00.064 : :Chapter 9
00:45:00.031 : :Chapter 10
00:50:00.080 : :Chapter 11
00:55:00.047 : :Chapter 12
01:00:00.055 : :Chapter 13
01:05:00.021 : :Chapter 14
01:10:00.029 : :Chapter 15
01:15:00.037 : :Chapter 16
01:20:00.045 : :Chapter 17
01:25:00.012 : :Chapter 18
01:30:00.103 : :Chapter 19
01:35:00.069 : :Chapter 20
01:40:00.119 : :Chapter 21
01:45:00.044 : :Chapter 22

x264 лог

x264 [info]: frame I:854   Avg QP: 9.69  size:101067
x264 [info]: frame P:37246 Avg QP:11.62 size: 35995
x264 [info]: frame B:117666 Avg QP:12.53 size: 11988
x264 [info]: consecutive B-frames: 3.1% 3.9% 10.6% 25.3% 14.2% 32.5% 4.7% 2.5% 1.8% 0.5% 0.3% 0.3% 0.3%
x264 [info]: mb I I16..4: 9.4% 73.1% 17.5%
x264 [info]: mb P I16..4: 3.9% 15.8% 1.6% P16..4: 34.5% 23.7% 15.9% 0.0% 0.0% skip: 4.6%
x264 [info]: mb B I16..4: 0.7% 0.9% 0.1% B16..8: 38.0% 17.6% 4.9% direct: 7.7% skip:30.1% L0:49.1% L1:42.5% BI: 8.3%
x264 [info]: 8x8 transform intra:69.9% inter:38.0%
x264 [info]: coded y,uvDC,uvAC intra: 74.1% 90.7% 85.8% inter: 28.4% 33.1% 20.1%
x264 [info]: i16 v,h,dc,p: 61% 16% 9% 14%
x264 [info]: i8 v,h,dc,ddl,ddr,vr,hd,vl,hu: 13% 11% 20% 8% 9% 9% 9% 9% 11%
x264 [info]: i4 v,h,dc,ddl,ddr,vr,hd,vl,hu: 13% 12% 10% 10% 13% 12% 11% 10% 11%
x264 [info]: i8c dc,h,v,p: 58% 16% 14% 12%
x264 [info]: Weighted P-Frames: Y:2.5% UV:1.4%
x264 [info]: ref P L0: 45.2% 4.1% 16.8% 7.3% 6.3% 4.7% 4.5% 2.4% 2.5% 2.0% 2.1% 1.9% 0.1% 0.0%
x264 [info]: ref B L0: 61.2% 12.8% 7.7% 4.5% 3.5% 3.1% 2.6% 1.7% 1.5% 1.0% 0.4%
x264 [info]: ref B L1: 93.3% 6.7%
x264 [info]: kb/s:3494.09
Скриншоты:
       

RazBoyNik

Post 16-Feb-2020 12:55

[Quote]

Ночь в баре Маккула / One Night at McCool's (2001) WEB-DLRip [H.264/1080p] - Производство: США, October Films
Жанр: Комедия, детектив, криминал
Режиссер: Харольд Цварт
Актеры: Лив Тайлер, Мэтт Диллон, Джон Гудман, Пол Райзер, Майкл Дуглас, Ричард Дженкинс, Риба МакИнтайр, Тим ДеЗарн, Андреа Бендеуолд, Сэнди Мартин ...
Описание:
Она могла заставить мертвого станцевать для нее чечетку. Но предпочитала живых. Их было трое: бармен Рэнди, сразу заглотивший наживку, адвокат Карл и детектив Делинг, занятый расследованием убийства. В умелых руках красота - страшная сила, и Джюел использовала свой дар на полную катушку. Все началось однажды ночью в баре Маккула, когда Рэнди впервые увидел ее. В последующие дни Джюел сумела сделать так, что один совсем потерял из-за нее голову, другой забыл о своей живой жене, а третий - даже не вспомнил о мертвой. И неудивительно: ведь она хотела больше, чем все они вместе взятые! Был еще четвертый, который считал себя хитрее остальных...

Возраст: 16+ (зрителям, достигшим 16 лет)
Рейтинг MPAA: R (лицам до 17 лет обязательно присутствие взрослого)
Продолжительность: 01:33:00
Качество видео: WEB-DLRip
Перевод: Многоголосый профессиональный
Субтитры: Русские
Видео: AVC/H.264, 1920х1080, ~11.1 Mbps
Аудио #1: Русский, AC3, 6 ch, 448 Kbps
Аудио #2: Английский, AC3, 6 ch, 448 Kbps

MediaInfo:

Полное имя: E:\One.Night.at.McCools.2001.WEB-DLRip.1080p.HDReactor.mkv
Формат : Matroska
Версия формата : Version 2
Размер файла : 7,76 Гбайт
Продолжительность : 1 ч. 33 м.
Общий поток : 11,9 Мбит/сек
Название фильма : ~V ad~
Дата кодирования : UTC 2019-04-11 18:32:44
Программа кодирования : mkvmerge v6.5.0 ('Isn't she lovely') built on Oct 20 2013 12:50:05
Библиотека кодирования : libebml v1.3.0 + libmatroska v1.4.1
Обложка : Yes
Attachments : cover.jpg
Видео
Идентификатор : 1
Формат : AVC
Формат/Информация : Advanced Video Codec
Профиль формата : [url=mailto:High@L4.1]High@L4.1[/url]
Настройки формата : CABAC / 4 Ref Frames
Параметр CABAC формата : Да
Параметр RefFrames формата : 4 кадра
Идентификатор кодека : V_MPEG4/ISO/AVC
Продолжительность : 1 ч. 33 м.
Битрейт : 11,1 Мбит/сек
Ширина : 1920 пикселей
Высота : 1080 пикселей
Соотношение сторон : 16:9
Режим частоты кадров : Постоянный
Частота кадров : 23,976 (24000/1001) кадра/сек
Цветовое пространство : YUV
Субдискретизация насыщенности : 4:2:0
Битовая глубина : 8 бит
Тип развёртки : Прогрессивная
Бит/(Пиксели*Кадры) : 0.222
Размер потока : 7,02 Гбайт (91%)
Библиотека кодирования : x264 core 157 r2935 545de2f
Настройки программы : cabac=1 / ref=4 / deblock=1:-3:-3 / analyse=0x3:0x133 / me=umh / subme=11 / psy=1 / psy_rd=1.00:0.00 / mixed_ref=1 / me_range=32 / chroma_me=1 / trellis=2 / 8x8dct=1 / cqm=0 / deadzone=21,11 / fast_pskip=0 / chroma_qp_offset=-2 / threads=12 / lookahead_threads=1 / sliced_threads=0 / nr=0 / decimate=0 / interlaced=0 / bluray_compat=0 / constrained_intra=0 / bframes=9 / b_pyramid=2 / b_adapt=2 / b_bias=0 / direct=3 / weightb=1 / open_gop=0 / weightp=2 / keyint=240 / keyint_min=23 / scenecut=40 / intra_refresh=0 / rc=2pass / mbtree=0 / bitrate=11050 / ratetol=1.0 / qcomp=0.70 / qpmin=0 / qpmax=69 / qpstep=4 / cplxblur=20.0 / qblur=0.5 / ip_ratio=1.30 / pb_ratio=1.30 / aq=3:1.00
Язык : Английский
Default : Да
Forced : Нет
Аудио #1
Идентификатор : 2
Формат : AC-3
Формат/Информация : Audio Coding 3
Коммерческое название : Dolby Digital
Идентификатор кодека : A_AC3
Продолжительность : 1 ч. 33 м.
Вид битрейта : Постоянный
Битрейт : 448 Кбит/сек
Каналы : 6 каналов
Channel layout : L R C LFE Ls Rs
Частота : 48,0 КГц
Частота кадров : 31,250 кадров/сек (1536 SPF)
Битовая глубина : 16 бит
Метод сжатия : С потерями
Размер потока : 298 Мбайт (4%)
Заголовок : MVO
Язык : Русский
Service Kind : Complete Main
Default : Да
Forced : Нет
Аудио #2
Идентификатор : 3
Формат : AC-3
Формат/Информация : Audio Coding 3
Коммерческое название : Dolby Digital
Идентификатор кодека : A_AC3
Продолжительность : 1 ч. 33 м.
Вид битрейта : Постоянный
Битрейт : 448 Кбит/сек
Каналы : 6 каналов
Channel layout : L R C LFE Ls Rs
Частота : 48,0 КГц
Частота кадров : 31,250 кадров/сек (1536 SPF)
Битовая глубина : 16 бит
Метод сжатия : С потерями
Размер потока : 298 Мбайт (4%)
Язык : Английский
Service Kind : Complete Main
Default : Нет
Forced : Нет
Текст
Идентификатор : 4
Формат : UTF-8
Идентификатор кодека : S_TEXT/UTF8
Идентификатор кодека/Информация : UTF-8 Plain Text
Язык : Русский
Default : Нет
Forced : Нет
Меню
00:00:00.000 : en:Chapter 01
00:05:05.032 : en:Chapter 02
00:07:28.175 : en:Chapter 03
00:10:14.633 : en:Chapter 04
00:13:21.153 : en:Chapter 05
00:16:02.189 : en:Chapter 06
00:21:14.501 : en:Chapter 07
00:24:03.128 : en:Chapter 08
00:27:30.251 : en:Chapter 09
00:31:34.245 : en:Chapter 10
00:35:50.709 : en:Chapter 11
00:38:52.349 : en:Chapter 12
00:42:14.051 : en:Chapter 13
00:45:42.489 : en:Chapter 14
00:48:55.525 : en:Chapter 15
00:53:23.136 : en:Chapter 16
00:58:59.545 : en:Chapter 17
01:08:21.033 : en:Chapter 18
01:12:46.173 : en:Chapter 19
01:14:56.845 : en:Chapter 20
01:19:20.358 : en:Chapter 21
01:26:28.703 : en:Chapter 22
01:29:18.956 : en:Chapter 23
01:32:59.935 : en:Chapter 24
Скриншоты:
       

Дополнительные скриншоты:

       
       

RazBoyNik

Post 16-Feb-2020 12:43

[Quote]

Чёрное Рождество / Black Christmas (2019) WEB-DL - Год: 2019
Производство: США, Новая Зеландия / Blumhouse Productions, Divide / Conquer, Universal Pictures
Жанр: ужасы, триллер, детектив
Режиссер: Софи Такал
Продюсер: Джейсон Блум, Бен Косгров, Грег Гилрет
Актеры: Софи Такал, Имоджен Путс, Ализ Шэннон, Лили Донохью, Бриттани О’Грэйди, Калеб Эберхардт, Кэри Элвес, Саймон Мид, Мадлен Адамс, Натали Моррис, Бен Блэк, Зои Робинс, Райан Макинтайр, Марк Нилсон, Люси Карри, Джонни Макбрайд и другие
Описание:
Во время рождественских каникул группа смелых девушек остается в колледже Готорн. На них начинает охоту таинственный серийный убийца, который не подозревает, что студентки могут постоять за себя

Возраст: 18+ (зрителям, достигшим 18 лет. запрещено для детей)
Рейтинг MPAA: PG-13 (детям до 13 лет просмотр нежелателен)
Дата мировой премьеры: 11 декабря 2019
Дата российской премьеры: 19 декабря 2019
Продолжительность: 01:32:09
Качество видео: WEB-DL
Перевод: Дублированный (iTunes)
Язык озвучки: Русский, Английский
Субтитры: Английские
Видео: AVC/H.264, 1916x804, ~4618 Kbps
Аудио 1: AC3, 6 ch, 384 Kbps - Русский (iTunes)
Аудио 2: AC3, 6 ch, 384 Kbps - Английский

MediaInfo:

General
Unique ID : 200156080951564446445861580806304977255 (0x9694A8B34770792581893DC610AE5167)
Complete name : H:\Фильмы\Chernoe.Rozhdestvo.2019.WEB-DL.1080p.ELEKTRI4KA.UNIONGANG.mkv
Format : Matroska
Format version : Version 4
File size : 3.47 GiB
Duration : 1 h 32 min
Overall bit rate : 5 389 kb/s
Movie name : ELEKTRI4KA.UNIONGANG
Encoded date : UTC 2020-02-15 19:36:42
Writing application : mkvmerge v8.3.0 ('Over the Horizon') 64bit
Writing library : libebml v1.3.1 + libmatroska v1.4.2
Video
ID : 1
Format : AVC
Format/Info : Advanced Video Codec
Format profile : High@L4
Format settings : CABAC / 5 Ref Frames
Format settings, CABAC : Yes
Format settings, Reference : 5 frames
Codec ID : V_MPEG4/ISO/AVC
Duration : 1 h 32 min
Bit rate : 4 618 kb/s
Width : 1 916 pixels
Height : 804 pixels
Display aspect ratio : 2.40:1
Frame rate mode : Constant
Frame rate : 23.976 FPS
Color space : YUV
Chroma subsampling : 4:2:0
Bit depth : 8 bits
Scan type : Progressive
Bits/(Pixel*Frame) : 0.125
Stream size : 2.97 GiB (86%)
Title : iTunes (ELEKTRI4KA.UNIONGANG)
Language : English
Default : Yes
Forced : No
Color range : Limited
Color primaries : BT.709
Transfer characteristics : BT.709
Matrix coefficients : BT.709
Audio #1
ID : 2
Format : AC-3
Format/Info : Audio Coding 3
Commercial name : Dolby Digital
Codec ID : A_AC3
Duration : 1 h 32 min
Bit rate mode : Constant
Bit rate : 384 kb/s
Channel(s) : 6 channels
Channel layout : L R C LFE Ls Rs
Sampling rate : 48.0 kHz
Frame rate : 31.250 FPS (1536 SPF)
Compression mode : Lossy
Stream size : 253 MiB (7%)
Title : iTunes (ELEKTRI4KA.UNIONGANG)
Language : Russian
Service kind : Complete Main
Default : Yes
Forced : No
Audio #2
ID : 3
Format : AC-3
Format/Info : Audio Coding 3
Commercial name : Dolby Digital
Codec ID : A_AC3
Duration : 1 h 32 min
Bit rate mode : Constant
Bit rate : 384 kb/s
Channel(s) : 6 channels
Channel layout : L R C LFE Ls Rs
Sampling rate : 48.0 kHz
Frame rate : 31.250 FPS (1536 SPF)
Compression mode : Lossy
Stream size : 253 MiB (7%)
Title : Original
Language : English
Service kind : Complete Main
Default : No
Forced : No
Text
ID : 4
Format : UTF-8
Codec ID : S_TEXT/UTF8
Codec ID/Info : UTF-8 Plain Text
Duration : 1 h 26 min
Bit rate : 59 b/s
Count of elements : 1266
Stream size : 37.5 KiB (0%)
Language : English
Default : Yes
Forced : No
Menu
00:00:00.000 : en:1
00:06:55.248 : en:2
00:11:32.692 : en:3
00:13:55.209 : en:4
00:18:02.080 : en:5
00:23:24.651 : en:6
00:28:22.114 : en:7
00:33:52.486 : en:8
00:37:08.514 : en:9
00:41:21.432 : en:10
00:47:06.652 : en:11
00:53:30.534 : en:12
00:58:14.150 : en:13
01:03:13.657 : en:14
01:06:29.436 : en:15
01:10:03.566 : en:16
01:14:35.045 : en:17
01:19:09.027 : en:18
01:21:27.498 : en:19
01:26:15.786 : en:20

Дополнительно:

Сохранены оригинальные чаптеры.
Скриншоты:
       

RazBoyNik

Post 15-Feb-2020 14:40

[Quote]

Ford против Ferrari / Ford v Ferrari (2019) BDRip [H.264/1080p-LQ]«They took the american dream for a ride»- Год: 2019
Производство: США, Франция, Chernin Entertainment, Twentieth Century Fo
Жанр: Драма, биография, спорт
Режиссер: Джеймс Мэнголд
Продюсер: Dani Bernfeld, Питер Чернин, Anthony Dixon,
Актеры: Кристиан Бэйл, Мэтт Дэймон, Катрина Балф, Трэйси Леттс, Джон Бернтал, Ноа Джуп, Джош Лукас, Ремо Джироне, Рэй МакКиннон, Джей Джей Филд
Описание:
Фильм рассказывает о взаимоотношениях американского автомобильного конструктора Кэрролла Шелби и отважного британского гонщика Кена Майлза, которые вместе бросили вызов корпорациям и собственным демонам, чтобы создать абсолютно новый спорткар, который смог конкурировать с Ferrari на чемпионате мира, прошедшем во Франции в середине 1960-х.

Возраст: 16+ (зрителям, достигшим 16 лет)
Рейтинг MPAA: PG-13 (детям до 13 лет просмотр нежелателен)
Дата мировой премьеры: 30 августа 2019
Дата российской премьеры: 14 ноября 2019, «Двадцатый Век Фокс СНГ»
Продолжительность: 02:32:35
Качество видео: BDRip
Перевод: Дублированный (iTunes), Многоголосый профессиональный
Субтитры: Русские (Forced, full), украинские (Forced, full), английские (Full, SDH)
Видео: AVC/H.264, 1920x804, ~7,5 Mbps, 23.976 fps
Аудио 1: AC3, 6 ch, 384 Kbps | Русский (DUB)
Аудио 2: AC3, 6 ch, 448 Kbps | Русский (MVO-HDRezka Studio)
Аудио 3: AC3, 6 ch, 384 Kbps | Английский (Оригинал)

h.264 log:

--[Information] [14.02.2020 17:44:31] Standard error stream
---[Information] [14.02.2020 17:44:42] y4m [info]: 1920x804p 1:1 @ 24000/1001 fps (cfr)
---[Information] [14.02.2020 17:44:42] x264 [info]: using SAR=1/1
---[Information] [14.02.2020 17:44:42] x264 [info]: using cpu capabilities: MMX2 SSE2Fast SSSE3 SSE4.2 AVX
---[Information] [14.02.2020 17:44:42] x264 [info]: profile High, level 4.1, 4:2:0, 8-bit
---[Information] [15.02.2020 3:01:32] x264 [info]: frame I:1820 Avg QP:18.20 size:190920
---[Information] [15.02.2020 3:01:32] x264 [info]: frame P:56381 Avg QP:19.57 size: 71922
---[Information] [15.02.2020 3:01:32] x264 [info]: frame B:161310 Avg QP:21.63 size: 25870

---[Information] [15.02.2020 3:01:32] x264 [info]: consecutive B-frames: 5.0% 5.0% 13.2% 17.7% 15.7% 38.0% 4.0% 0.8% 0.6%

MediaInfo:

General
Complete name : \Ford против Ferrari_Ford v Ferrari (2019) BDRip.H.264.1080p.LQ.NNMClub.mkv
Format : Matroska
Format version : Version 4
File size : 9.29 GiB
Duration : 2 h 32 min
Overall bit rate : 8 712 kb/s
Movie name : Ford против Ferrari_Ford v Ferrari (2019) BDRip.H.264.1080p.LQ.NNMClub
Encoded date : UTC 2020-02-15 10:35:26
Writing application : mkvmerge v40.0.0 ('Old Town Road + Pony') 64-bit
Writing library : libebml v1.3.9 + libmatroska v1.5.2
Video
ID : 1
Format : AVC
Format/Info : Advanced Video Codec
Format profile : [url=mailto:High@L4.1]High@L4.1[/url]
Format settings : CABAC / 5 Ref Frames
Format settings, CABAC : Yes
Format settings, Reference frames : 5 frames
Codec ID : V_MPEG4/ISO/AVC
Duration : 2 h 32 min
Bit rate : 7 500 kb/s
Width : 1 920 pixels
Height : 804 pixels
Display aspect ratio : 2.40:1
Frame rate mode : Constant
Frame rate : 23.976 (24000/1001) FPS
Color space : YUV
Chroma subsampling : 4:2:0
Bit depth : 8 bits
Scan type : Progressive
Bits/(Pixel*Frame) : 0.203
Stream size : 7.99 GiB (86%)
Title : Ford против Ferrari_Ford v Ferrari (2019) BDRip.H.264.1080p.LQ.NNMClub
Writing library : x264 core 158 r2984 3759fcb
Encoding settings : cabac=1 / ref=5 / deblock=1:-3:-3 / analyse=0x3:0x133 / me=umh / subme=10 / psy=1 / psy_rd=1.00:0.25 / mixed_ref=1 / me_range=24 / chroma_me=1 / trellis=2 / 8x8dct=1 / cqm=0 / deadzone=6,6 / fast_pskip=0 / chroma_qp_offset=-4 / threads=12 / lookahead_threads=2 / sliced_threads=0 / nr=0 / decimate=0 / interlaced=0 / bluray_compat=0 / constrained_intra=0 / bframes=8 / b_pyramid=2 / b_adapt=2 / b_bias=0 / direct=1 / weightb=1 / open_gop=0 / weightp=2 / keyint=240 / keyint_min=23 / scenecut=40 / intra_refresh=0 / rc_lookahead=40 / rc=2pass / mbtree=1 / bitrate=7500 / ratetol=1.0 / qcomp=0.60 / qpmin=0 / qpmax=69 / qpstep=4 / cplxblur=20.0 / qblur=0.5 / vbv_maxrate=50000 / vbv_bufsize=62500 / nal_hrd=none / filler=0 / ip_ratio=1.10 / aq=3:0.70
Language : English
Default : Yes
Forced : No
Audio #1
ID : 2
Format : AC-3
Format/Info : Audio Coding 3
Commercial name : Dolby Digital
Codec ID : A_AC3
Duration : 2 h 32 min
Bit rate mode : Constant
Bit rate : 384 kb/s
Channel(s) : 6 channels
Channel layout : L R C LFE Ls Rs
Sampling rate : 48.0 kHz
Frame rate : 31.250 FPS (1536 SPF)
Compression mode : Lossy
Stream size : 419 MiB (4%)
Title : Дублированный (iTunes)
Language : Russian
Service kind : Complete Main
Default : Yes
Forced : Yes
Audio #2
ID : 3
Format : AC-3
Format/Info : Audio Coding 3
Commercial name : Dolby Digital
Codec ID : A_AC3
Duration : 2 h 32 min
Bit rate mode : Constant
Bit rate : 448 kb/s
Channel(s) : 6 channels
Channel layout : L R C LFE Ls Rs
Sampling rate : 48.0 kHz
Frame rate : 31.250 FPS (1536 SPF)
Compression mode : Lossy
Stream size : 489 MiB (5%)
Title : MVO [HDRezka Studio]
Language : Russian
Service kind : Complete Main
Default : No
Forced : No
Audio #3
ID : 4
Format : AC-3
Format/Info : Audio Coding 3
Commercial name : Dolby Digital
Codec ID : A_AC3
Duration : 2 h 32 min
Bit rate mode : Constant
Bit rate : 384 kb/s
Channel(s) : 6 channels
Channel layout : L R C LFE Ls Rs
Sampling rate : 48.0 kHz
Frame rate : 31.250 FPS (1536 SPF)
Compression mode : Lossy
Stream size : 419 MiB (4%)
Title : Оригинал
Language : English
Service kind : Complete Main
Default : No
Forced : No
Text #1
ID : 5
Format : UTF-8
Codec ID : S_TEXT/UTF8
Codec ID/Info : UTF-8 Plain Text
Duration : 2 h 31 min
Bit rate : 0 b/s
Count of elements : 14
Stream size : 601 Bytes (0%)
Title : Forced [iTunes]
Language : Russian
Default : Yes
Forced : Yes
Text #2
ID : 6
Format : UTF-8
Codec ID : S_TEXT/UTF8
Codec ID/Info : UTF-8 Plain Text
Duration : 2 h 31 min
Bit rate : 85 b/s
Count of elements : 2067
Stream size : 94.8 KiB (0%)
Title : Full [iTunes]
Language : Russian
Default : No
Forced : No
Text #3
ID : 7
Format : UTF-8
Codec ID : S_TEXT/UTF8
Codec ID/Info : UTF-8 Plain Text
Duration : 2 h 25 min
Bit rate : 1 b/s
Count of elements : 19
Stream size : 1.21 KiB (0%)
Title : Forced [no name]
Language : Russian
Default : No
Forced : No
Text #4
ID : 8
Format : UTF-8
Codec ID : S_TEXT/UTF8
Codec ID/Info : UTF-8 Plain Text
Duration : 2 h 26 min
Bit rate : 82 b/s
Count of elements : 1652
Stream size : 87.8 KiB (0%)
Title : Full [blindAvocado]
Language : Russian
Default : No
Forced : No
Text #5
ID : 9
Format : UTF-8
Codec ID : S_TEXT/UTF8
Codec ID/Info : UTF-8 Plain Text
Duration : 2 h 31 min
Bit rate : 1 b/s
Count of elements : 31
Stream size : 1.54 KiB (0%)
Title : Forced
Language : Ukrainian
Default : No
Forced : No
Text #6
ID : 10
Format : UTF-8
Codec ID : S_TEXT/UTF8
Codec ID/Info : UTF-8 Plain Text
Duration : 2 h 31 min
Bit rate : 91 b/s
Count of elements : 2071
Stream size : 101 KiB (0%)
Title : Full
Language : Ukrainian
Default : No
Forced : No
Text #7
ID : 11
Format : UTF-8
Codec ID : S_TEXT/UTF8
Codec ID/Info : UTF-8 Plain Text
Duration : 1 h 24 min
Bit rate : 0 b/s
Count of elements : 9
Stream size : 304 Bytes (0%)
Title : Forced
Language : English
Default : No
Forced : No
Text #8
ID : 12
Format : UTF-8
Codec ID : S_TEXT/UTF8
Codec ID/Info : UTF-8 Plain Text
Duration : 2 h 24 min
Bit rate : 51 b/s
Count of elements : 1638
Stream size : 54.8 KiB (0%)
Title : Full
Language : English
Default : No
Forced : No
Text #9
ID : 13
Format : UTF-8
Codec ID : S_TEXT/UTF8
Codec ID/Info : UTF-8 Plain Text
Duration : 2 h 32 min
Bit rate : 66 b/s
Count of elements : 2489
Stream size : 73.8 KiB (0%)
Title : SDH
Language : English
Default : No
Forced : No
Menu
00:00:00.000 : en:Глава 01
00:04:45.619 : en:Глава 02
00:07:32.535 : en:Глава 03
00:10:02.811 : en:Глава 04
00:15:39.313 : en:Глава 05
00:20:15.172 : en:Глава 06
00:21:39.798 : en:Глава 07
00:26:00.893 : en:Глава 08
00:31:57.874 : en:Глава 09
00:34:09.756 : en:Глава 10
00:39:13.268 : en:Глава 11
00:42:06.899 : en:Глава 12
00:45:57.004 : en:Глава 13
00:48:38.666 : en:Глава 14
00:51:22.079 : en:Глава 15
00:55:03.675 : en:Глава 16
00:57:50.801 : en:Глава 17
01:00:27.040 : en:Глава 18
01:06:33.489 : en:Глава 19
01:11:59.815 : en:Глава 20
01:16:13.778 : en:Глава 21
01:19:30.516 : en:Глава 22
01:24:18.762 : en:Глава 23
01:29:24.985 : en:Глава 24
01:33:16.174 : en:Глава 25
01:38:11.302 : en:Глава 26
01:40:57.468 : en:Глава 27
01:43:23.322 : en:Глава 28
01:45:49.218 : en:Глава 29
01:50:38.966 : en:Глава 30
01:53:38.353 : en:Глава 31
01:57:47.602 : en:Глава 32
02:00:16.668 : en:Глава 33
02:05:22.890 : en:Глава 34
02:09:18.376 : en:Глава 35
02:12:01.497 : en:Глава 36
02:15:26.410 : en:Глава 37
02:18:23.128 : en:Глава 38
02:20:46.438 : en:Глава 39
02:26:27.612 : en:Глава 40
Скриншоты:
       

RazBoyNik

Post 15-Feb-2020 12:12

[Quote]

Прекрасный день по соседству / A Beautiful Day in the Neighborhood (2019) BDRemux [H.264/1080p] - Год: 2019
Производство: Китай, США / Big Beach Films, Tencent Pictures, TriStar Pictures
Жанр: Драма, биография
Режиссер: Мариэль Хеллер
Актеры: Том Хэнкс, Мэттью Риз, Крис Купер, Сьюзэн Келечи Уотсон, Марианн Планкетт, Энрико Колантони, Уэнди Маккена, Тэмми Бланчард, Ной Харпстер, Carmen Cusack
Описание:
1988 год. Журналист Ллойд Вогел, известный своими разоблачительными статьями, получает задание взять интервью у ведущего популярной детской передачи Фреда Роджерса. Сам Вогел с детства обижен на отца, цинично смотрит на мир, поэтому считает чересчур вежливого кумира детей неподходящим кандидатом для исследования. Но после личного знакомства неубиваемое стремление мистера Роджерса видеть в людях только хорошее и уважительно ко всем относиться начинает менять и самого журналиста.

Рейтинг MPAA: PG (рекомендуется присутствие родителей)
Дата мировой премьеры: 7 сентября 2019
Продолжительность: 01:48:45
Качество видео: BDRemux
Перевод: Двухголосый любительский (LakeFilms)
Субтитры: Русские StasSlender, английские, французские
Видео: AVC/H.264, 1920х1080, ~25.9 Mbps
Аудио 1: AC3, 2 ch, 384 Kbps - Русский (DVO, LakeFilms)
Аудио 2: DTS-HD MA, 8 ch, 5953 Kbps - Английский
Аудио 3: AC3, 2 ch, 192 Kbps - Английский (Commentary by director and cinematographer)

MediaInfo:

General
Unique ID : 104477865671253685173347238632685730594 (0x4E99B47B061490B3594AE0AF9F3A7B22)
Complete name : G:\A.Beautiful.Day.in.the.Neighborhood.2019.REMUX.mkv
Format : Matroska
Format version : Version 4
File size : 24.7 GiB
Duration : 1 h 48 min
Overall bit rate mode : Variable
Overall bit rate : 32.5 Mb/s
Encoded date : UTC 2020-02-15 06:04:30
Writing application : mkvmerge v20.0.0 ('I Am The Sun') 64-bit
Writing library : libebml v1.3.5 + libmatroska v1.4.8
Video
ID : 1
Format : AVC
Format/Info : Advanced Video Codec
Format profile : [url=mailto:High@L4.1]High@L4.1[/url]
Format settings : CABAC / 2 Ref Frames
Format settings, CABAC : Yes
Format settings, Reference frames : 2 frames
Format settings, GOP : M=1, N=10
Codec ID : V_MPEG4/ISO/AVC
Duration : 1 h 48 min
Bit rate mode : Variable
Bit rate : 25.9 Mb/s
Width : 1 920 pixels
Height : 1 080 pixels
Display aspect ratio : 16:9
Frame rate mode : Constant
Frame rate : 23.976 (24000/1001) FPS
Color space : YUV
Chroma subsampling : 4:2:0
Bit depth : 8 bits
Scan type : Progressive
Bits/(Pixel*Frame) : 0.522
Stream size : 19.7 GiB (80%)
Language : English
Default : Yes
Forced : No
Audio #1
ID : 2
Format : AC-3
Format/Info : Audio Coding 3
Commercial name : Dolby Digital
Codec ID : A_AC3
Duration : 1 h 48 min
Bit rate mode : Constant
Bit rate : 384 kb/s
Channel(s) : 2 channels
Channel layout : L R
Sampling rate : 48.0 kHz
Frame rate : 31.250 FPS (1536 SPF)
Compression mode : Lossy
Stream size : 299 MiB (1%)
Title : DVO LakeFilms
Language : Russian
Service kind : Complete Main
Default : Yes
Forced : No
Audio #2
ID : 3
Format : DTS XLL
Format/Info : Digital Theater Systems
Commercial name : DTS-HD Master Audio
Codec ID : A_DTS
Duration : 1 h 48 min
Bit rate mode : Variable
Bit rate : 5 953 kb/s
Channel(s) : 8 channels
Channel layout : C L R LFE Lb Rb Lss Rss
Sampling rate : 48.0 kHz
Frame rate : 93.750 FPS (512 SPF)
Bit depth : 24 bits
Compression mode : Lossless
Stream size : 4.52 GiB (18%)
Language : English
Default : No
Forced : No
Audio #3
ID : 4
Format : AC-3
Format/Info : Audio Coding 3
Commercial name : Dolby Digital
Codec ID : A_AC3
Duration : 1 h 48 min
Bit rate mode : Constant
Bit rate : 192 kb/s
Channel(s) : 2 channels
Channel layout : L R
Sampling rate : 48.0 kHz
Frame rate : 31.250 FPS (1536 SPF)
Compression mode : Lossy
Stream size : 149 MiB (1%)
Title : Commentary
Language : English
Service kind : Complete Main
Default : No
Forced : No
Text #1
ID : 5
Format : UTF-8
Codec ID : S_TEXT/UTF8
Codec ID/Info : UTF-8 Plain Text
Duration : 1 h 38 min
Bit rate : 92 b/s
Count of elements : 1296
Stream size : 67.2 KiB (0%)
Title : Notabenoid / StasSlender
Language : Russian
Default : No
Forced : No
Text #2
ID : 6
Format : UTF-8
Codec ID : S_TEXT/UTF8
Codec ID/Info : UTF-8 Plain Text
Duration : 1 h 43 min
Bit rate : 54 b/s
Count of elements : 1297
Stream size : 41.7 KiB (0%)
Language : English
Default : No
Forced : No
Text #3
ID : 7
Format : UTF-8
Codec ID : S_TEXT/UTF8
Codec ID/Info : UTF-8 Plain Text
Duration : 1 h 47 min
Bit rate : 46 b/s
Count of elements : 1259
Stream size : 37.1 KiB (0%)
Language : French
Default : No
Forced : No
Text #4
ID : 8
Format : UTF-8
Codec ID : S_TEXT/UTF8
Codec ID/Info : UTF-8 Plain Text
Duration : 1 h 45 min
Bit rate : 131 b/s
Count of elements : 2124
Stream size : 102 KiB (0%)
Title : Commentary
Language : English
Default : No
Forced : No
Menu
00:00:00.000 : en:Chapter 01
00:07:00.128 : en:Chapter 02
00:14:17.064 : en:Chapter 03
00:20:55.754 : en:Chapter 04
00:30:32.747 : en:Chapter 05
00:37:30.915 : en:Chapter 06
00:45:50.581 : en:Chapter 07
00:50:13.510 : en:Chapter 08
00:57:34.451 : en:Chapter 09
01:03:19.462 : en:Chapter 10
01:07:26.751 : en:Chapter 11
01:10:36.732 : en:Chapter 12
01:14:30.757 : en:Chapter 13
01:17:33.482 : en:Chapter 14
01:28:54.620 : en:Chapter 15
01:37:28.217 : en:Chapter 16
Скриншоты:
       

Дополнительные скриншоты:

       

RazBoyNik

Post 15-Feb-2020 11:47

[Quote]

Ты умеешь хранить секреты? / Can You Keep a Secret? (2019) BDRemux [H.264/1080p] - Год: 2019
Производство: США / BCDF Pictures, Big Indie Pictures
Жанр: Мелодрама, Комедия
Режиссер: Элиз Дюран
Актеры: Александра Даддарио, Тайлер Хэклин, Сунита Мани, Кимико Гленн, Лаверн Кокс, Джуда Фридландер, Кейт Кастонгуэй, Сэм Асгари, Эшлин Алесси, Бобби Тисдэйл, Ольга Н. Богданова, Дэвид Чарльз Эберт
Описание:
Эмма с треском провалила совещание и возвращается из командировки самолётом. Настроение — хуже некуда, вдобавок девушка боится летать, поэтому хорошенько принимает на грудь перед посадкой. Сочувствующая стюардесса предлагает ей свободное место в первом классе, где разносят шампанское, и при первой же турбулентности от страха Эмма начинает вываливать все свои секреты сидящему рядом мужчине. Она рассказывает ему всё — от нюансов личной жизни до офисных взаимоотношений. И каково же было удивление девушки, когда на следующий день выяснилось, что тот самый сосед по самолёту — её босс и основатель компании — пришёл в их офис проверить работу отделения.

Возраст: 16+ (зрителям, достигшим 16 лет)
Дата мировой премьеры: 16 августа 2019
Дата российской премьеры: 3 октября 2019, «Вольга»
Продолжительность: 01:34:24
Качество видео: BDRemux
Перевод: Дублированный
Субтитры: Русские (Full), Английские
Видео: AVC/H.264, 1920x1080, ~35,5 Mbps
Аудио 1: AC3, 6 ch, 384 Kbps - Русский (DUB, iTunes)
Аудио 2: DTS-HD MA, 6 ch, 3348 Kbps - Английский

MediaInfo:

General
Unique ID : 46229365228796704291661832696139288888 (0x22C773AE6F55B23CF838809E9CCB1138)
Complete name : E:\Video111\Can.You.Keep.a.Secret.BDREMUX.1080p.seleZen.mkv
Format : Matroska
Format version : Version 4
File size : 25.9 GiB
Duration : 1 h 34 min
Overall bit rate mode : Variable
Overall bit rate : 39.3 Mb/s
Movie name : Can You Keep a Secret? 2019 from селезень
Encoded date : UTC 2020-02-14 15:47:51
Writing application : mkvmerge v40.0.0 ('Old Town Road + Pony') 64-bit
Writing library : libebml v1.3.9 + libmatroska v1.5.2
Video
ID : 1
Format : AVC
Format/Info : Advanced Video Codec
Format profile : [url=mailto:High@L4.1]High@L4.1[/url]
Format settings : CABAC / 4 Ref Frames
Format settings, CABAC : Yes
Format settings, Reference : 4 frames
Codec ID : V_MPEG4/ISO/AVC
Duration : 1 h 34 min
Bit rate mode : Variable
Bit rate : 35.5 Mb/s
Maximum bit rate : 37.0 Mb/s
Width : 1 920 pixels
Height : 1 080 pixels
Display aspect ratio : 16:9
Frame rate mode : Constant
Frame rate : 24.000 FPS
Color space : YUV
Chroma subsampling : 4:2:0
Bit depth : 8 bits
Scan type : Progressive
Bits/(Pixel*Frame) : 0.714
Stream size : 23.4 GiB (90%)
Language : German
Default : Yes
Forced : No
Audio #1
ID : 2
Format : AC-3
Format/Info : Audio Coding 3
Commercial name : Dolby Digital
Codec ID : A_AC3
Duration : 1 h 34 min
Bit rate mode : Constant
Bit rate : 384 kb/s
Channel(s) : 6 channels
Channel layout : L R C LFE Ls Rs
Sampling rate : 48.0 kHz
Frame rate : 31.250 FPS (1536 SPF)
Compression mode : Lossy
Stream size : 259 MiB (1%)
Title : iTunes
Language : Russian
Service kind : Complete Main
Default : Yes
Forced : Yes
Audio #2
ID : 3
Format : DTS XLL
Format/Info : Digital Theater Systems
Commercial name : DTS-HD Master Audio
Codec ID : A_DTS
Duration : 1 h 34 min
Bit rate mode : Variable
Bit rate : 3 348 kb/s
Channel(s) : 6 channels
Channel layout : C L R Ls Rs LFE
Sampling rate : 48.0 kHz
Frame rate : 93.750 FPS (512 SPF)
Bit depth : 24 bits
Compression mode : Lossless
Stream size : 2.21 GiB (9%)
Title : Original
Language : English
Default : No
Forced : No
Text #1
ID : 4
Format : UTF-8
Codec ID : S_TEXT/UTF8
Codec ID/Info : UTF-8 Plain Text
Duration : 1 h 29 min
Bit rate : 131 b/s
Count of elements : 1647
Stream size : 86.6 KiB (0%)
Title : Full
Language : Russian
Default : No
Forced : No
Text #2
ID : 5
Format : UTF-8
Codec ID : S_TEXT/UTF8
Codec ID/Info : UTF-8 Plain Text
Duration : 1 h 32 min
Bit rate : 77 b/s
Count of elements : 1936
Stream size : 52.6 KiB (0%)
Title : Full
Language : English
Default : No
Forced : No
Text #3
ID : 6
Format : UTF-8
Codec ID : S_TEXT/UTF8
Codec ID/Info : UTF-8 Plain Text
Duration : 1 h 32 min
Bit rate : 89 b/s
Count of elements : 2165
Stream size : 60.7 KiB (0%)
Title : SDH
Language : English
Default : No
Forced : No
Menu
00:00:00.000 : de:Глава 01
00:06:06.250 : de:Глава 02
00:11:55.750 : de:Глава 03
00:20:55.833 : de:Глава 04
00:25:09.042 : de:Глава 05
00:31:29.708 : de:Глава 06
00:38:51.500 : de:Глава 07
00:46:20.667 : de:Глава 08
00:54:59.833 : de:Глава 09
01:01:09.458 : de:Глава 10
01:05:15.042 : de:Глава 11
01:12:42.583 : de:Глава 12
01:17:24.333 : de:Глава 13
01:21:49.917 : de:Глава 14
01:25:10.000 : de:Глава 15
01:30:27.208 : de:Глава 16
Скриншоты:
       

RazBoyNik

Post 15-Feb-2020 11:32

[Quote]

Ключ от всех дверей / The Skeleton Key (2005) BDRip - Год: 2005
Производство: США, Германия / Brick Dust Productions LLC, Daniel Bobker Productions, Double Feature Films, MFPV Film, ShadowCatcher Entertainment, Universal Pictures
Жанр: Ужасы, Триллер, Драма, Детектив
Режиссер: Иэн Софтли
Актеры: Кейт Хадсон, Джина Роулендс, Джон Хёрт, Питер Сарсгаард, Джой Брайант, Максин Барнетт, Фэнлони Р. Харрис, Мэрион Цинсер, Денин Тайлер, Энн Далримпл
Описание:
25-летняя Кэролайн Эллис устраивается работать сиделкой к пожилому инвалиду Бену Деверо, владельцу огромного особняка неподалеку от Луизианы. Его жена Вайолет вручает девушке универсальный ключ от всех дверей в доме.
Однажды Кэролайн обнаруживает на чердаке секретную комнату с массой мистических предметов. Хозяйка утверждает, что вещи принадлежат бывшим владельцам, которые занимались чёрной магией. Вскоре Кэролайн становится свидетельницей довольно странных и необъяснимых событий и решает во что бы то ни стало разгадать секрет таинственной комнаты.

Возраст: 16+ (зрителям, достигшим 16 лет)
Рейтинг MPAA: PG-13 (детям до 13 лет просмотр нежелателен)
Продолжительность: 01:43:57
Качество видео: BDRip
Перевод: Дублированный, Двуголосый профессиональный, Авторский x3
Субтитры: русские (полные), английские (для слабослышащих)
Видео: HEVC/H.265, 1920x816, ~4494 Kbps
Аудио 1: DTS, 6 ch, 768 Kbps (русский, дубляж - BD EUR)
Аудио 2: AC3, 6 ch, 448 Kbps (русский, двуголосый - Tycoon)
Аудио 3: DTS, 6 ch, 1509 Kbps (русский, одноголосый - А. Гаврилов)
Аудио 4: DTS, 6 ch, 1509 Kbps (русский, одноголосый - Ю. Немахов)
Аудио 5: AC3, 6 ch, 448 Kbps (русский, одноголосый - М. Яроцкий)
Аудио 6: DTS, 6 ch, 1509 Kbps (английский)

MediaInfo:

Общее
Уникальный идентификатор : 171578426448015341388341098430162537416 (0x8114CD8CDDE9EF3C279A54A738F80BC8)
Полное имя : M:\Фильмы\Иностранные\Ключ от всех дверей (The Skeleton Key).mkv
Формат : Matroska
Версия формата : Version 4
Размер файла : 7,76 Гбайт
Продолжительность : 1 ч. 43 м.
Общий поток : 10,7 Мбит/сек
Название фильма : Ключ от всех дверей / The Skeleton Key
Кодирование произвёл : Tigole
Дата выпуска : 2005
Дата кодирования : UTC 2020-02-13 13:15:38
Программа кодирования : mkvmerge v34.0.0 ('Sight and Seen') 64-bit
Библиотека кодирования : libebml v1.3.7 + libmatroska v1.5.0
Обложка : Yes
Attachments : cover.png
Released by : Buba5473 for NNM-Club
Видео
Идентификатор : 1
Формат : HEVC
Формат/Информация : High Efficiency Video Coding
Профиль формата : Main 10@L4@Main
Идентификатор кодека : V_MPEGH/ISO/HEVC
Продолжительность : 1 ч. 43 м.
Битрейт : 4494 Кбит/сек
Ширина : 1920 пикселей
Высота : 816 пикселей
Соотношение сторон : 2,35:1
Режим частоты кадров : Постоянный
Частота кадров : 23,976 (24000/1001) кадра/сек
Цветовое пространство : YUV
Субдискретизация насыщенности : 4:2:0
Битовая глубина : 10 бит
Бит/(Пиксели*Кадры) : 0.120
Размер потока : 3,26 Гбайт (42%)
Библиотека кодирования : x265 3.1+8-21db162c8622:[Windows][GCC 9.1.0][64 bit] 10bit
Настройки программы : cpuid=1111039 / frame-threads=3 / numa-pools=8 / wpp / no-pmode / no-pme / no-psnr / no-ssim / log-level=2 / input-csp=1 / input-res=1920x816 / interlace=0 / total-frames=149544 / level-idc=0 / high-tier=1 / uhd-bd=0 / ref=4 / no-allow-non-conformance / no-repeat-headers / annexb / no-aud / no-hrd / info / hash=0 / no-temporal-layers / open-gop / min-keyint=23 / keyint=250 / gop-lookahead=0 / bframes=8 / b-adapt=2 / b-pyramid / bframe-bias=0 / rc-lookahead=25 / lookahead-slices=4 / scenecut=40 / radl=0 / no-splice / no-intra-refresh / ctu=64 / min-cu-size=8 / rect / no-amp / max-tu-size=32 / tu-inter-depth=1 / tu-intra-depth=1 / limit-tu=0 / rdoq-level=2 / dynamic-rd=0.00 / no-ssim-rd / signhide / no-tskip / nr-intra=0 / nr-inter=0 / no-constrained-intra / strong-intra-smoothing / max-merge=3 / limit-refs=3 / limit-modes / me=3 / subme=3 / merange=57 / temporal-mvp / no-hme / weightp / no-weightb / no-analyze-src-pics / deblock=0:0 / no-sao / no-sao-non-deblock / rd=4 / no-early-skip / rskip / no-fast-intra / no-tskip-fast / no-cu-lossless / no-b-intra / no-splitrd-skip / rdpenalty=0 / psy-rd=2.00 / psy-rdoq=1.00 / no-rd-refine / no-lossless / cbqpoffs=0 / crqpoffs=0 / rc=crf / crf=18.0 / qcomp=0.60 / qpstep=4 / stats-write=0 / stats-read=0 / ipratio=1.40 / pbratio=1.30 / aq-mode=3 / aq-strength=1.00 / cutree / zone-count=0 / no-strict-cbr / qg-size=32 / no-rc-grain / qpmax=69 / qpmin=0 / no-const-vbv / sar=0 / overscan=0 / videoformat=5 / range=0 / colorprim=2 / transfer=2 / colormatrix=2 / chromaloc=0 / display-window=0cll=0,0 / min-luma=0 / max-luma=1023 / log2-max-poc-lsb=8 / vui-timing-info / vui-hrd-info / slices=1 / no-opt-qp-pps / no-opt-ref-list-length-pps / no-multi-pass-opt-rps / scenecut-bias=0.05 / no-opt-cu-delta-qp / aq-motion / no-hdr / no-hdr-opt / no-dhdr10-opt / no-idr-recovery-sei / analysis-reuse-level=5 / scale-factor=0 / refine-intra=0 / refine-inter=0 / refine-mv=0 / refine-ctu-distortion=0 / no-limit-sao / ctu-info=0 / no-lowpass-dct / refine-analysis-type=0 / copy-pic=1 / max-ausize-factor=1.0 / no-dynamic-refine / no-single-sei / no-hevc-aq / no-svt / no-field / qp-adaptation-range=1.00
Default : Да
Forced : Нет
Аудио #1
Идентификатор : 2
Формат : DTS
Формат/Информация : Digital Theater Systems
Идентификатор кодека : A_DTS
Продолжительность : 1 ч. 43 м.
Вид битрейта : Постоянный
Битрейт : 768 Кбит/сек
Каналы : 6 каналов
Channel layout : C L R Ls Rs LFE
Частота : 48,0 КГц
Частота кадров : 93,750 кадра/сек (512 SPF)
Битовая глубина : 24 бит
Метод сжатия : С потерями
Задержка видео : 9 мс.
Размер потока : 571 Мбайт (7%)
Заголовок : Перевод: Профессиональный (дублированный) Blu-ray EUR
Язык : Russian
Default : Да
Forced : Нет
Аудио #2
Идентификатор : 3
Формат : AC-3
Формат/Информация : Audio Coding 3
Коммерческое название : Dolby Digital
Идентификатор кодека : A_AC3
Продолжительность : 1 ч. 43 м.
Вид битрейта : Постоянный
Битрейт : 448 Кбит/сек
Каналы : 6 каналов
Channel layout : L R C LFE Ls Rs
Частота : 48,0 КГц
Частота кадров : 31,250 кадров/сек (1536 SPF)
Битовая глубина : 16 бит
Метод сжатия : С потерями
Задержка видео : 30 мс.
Размер потока : 333 Мбайт (4%)
Заголовок : Перевод: Профессиональный (двухголосый, закадровый) Tycoon-Studio
Язык : Russian
Service kind : Complete Main
Default : Нет
Forced : Нет
Аудио #3
Идентификатор : 4
Формат : DTS
Формат/Информация : Digital Theater Systems
Идентификатор кодека : A_DTS
Продолжительность : 1 ч. 43 м.
Вид битрейта : Постоянный
Битрейт : 1509 Кбит/сек
Каналы : 6 каналов
Channel layout : C L R Ls Rs LFE
Частота : 48,0 КГц
Частота кадров : 93,750 кадра/сек (512 SPF)
Битовая глубина : 24 бит
Метод сжатия : С потерями
Задержка видео : 9 мс.
Размер потока : 1,10 Гбайт (14%)
Заголовок : Перевод: Авторский (одноголосый, закадровый) А.Гаврилов
Язык : Russian
Default : Нет
Forced : Нет
Аудио #4
Идентификатор : 5
Формат : DTS
Формат/Информация : Digital Theater Systems
Идентификатор кодека : A_DTS
Продолжительность : 1 ч. 43 м.
Вид битрейта : Постоянный
Битрейт : 1509 Кбит/сек
Каналы : 6 каналов
Channel layout : C L R Ls Rs LFE
Частота : 48,0 КГц
Частота кадров : 93,750 кадра/сек (512 SPF)
Битовая глубина : 24 бит
Метод сжатия : С потерями
Задержка видео : 9 мс.
Размер потока : 1,10 Гбайт (14%)
Заголовок : Перевод: Авторский (одноголосый, закадровый) Ю.Немахов
Язык : Russian
Default : Нет
Forced : Нет
Аудио #5
Идентификатор : 6
Формат : AC-3
Формат/Информация : Audio Coding 3
Коммерческое название : Dolby Digital
Идентификатор кодека : A_AC3
Продолжительность : 1 ч. 43 м.
Вид битрейта : Постоянный
Битрейт : 448 Кбит/сек
Каналы : 6 каналов
Channel layout : L R C LFE Ls Rs
Частота : 48,0 КГц
Частота кадров : 31,250 кадров/сек (1536 SPF)
Битовая глубина : 16 бит
Метод сжатия : С потерями
Задержка видео : 30 мс.
Размер потока : 333 Мбайт (4%)
Заголовок : Перевод: Авторский (одноголосый, закадровый) М.Яроцкий
Язык : Russian
Service kind : Complete Main
Default : Нет
Forced : Нет
Аудио #6
Идентификатор : 7
Формат : DTS
Формат/Информация : Digital Theater Systems
Идентификатор кодека : A_DTS
Продолжительность : 1 ч. 43 м.
Вид битрейта : Постоянный
Битрейт : 1509 Кбит/сек
Каналы : 6 каналов
Channel layout : C L R Ls Rs LFE
Частота : 48,0 КГц
Частота кадров : 93,750 кадра/сек (512 SPF)
Битовая глубина : 24 бит
Метод сжатия : С потерями
Задержка видео : 9 мс.
Размер потока : 1,10 Гбайт (14%)
Язык : English
Default : Нет
Forced : Нет
Текст #1
Идентификатор : 8
Формат : UTF-8
Идентификатор кодека : S_TEXT/UTF8
Идентификатор кодека/Информация : UTF-8 Plain Text
Продолжительность : 1 ч. 37 м.
Битрейт : 70 бит/сек
Count of elements : 1024
Размер потока : 50,3 Кбайт (0%)
Язык : Russian
Default : Да
Forced : Нет
Текст #2
Идентификатор : 9
Формат : UTF-8
Идентификатор кодека : S_TEXT/UTF8
Идентификатор кодека/Информация : UTF-8 Plain Text
Продолжительность : 1 ч. 38 м.
Битрейт : 45 бит/сек
Count of elements : 1146
Размер потока : 33,2 Кбайт (0%)
Заголовок : SDH
Язык : English
Default : Нет
Forced : Нет
Меню
00:00:00.000 : en:Chapter 01
00:04:58.089 : en:Chapter 02
00:13:41.237 : en:Chapter 03
00:19:30.794 : en:Chapter 04
00:24:03.483 : en:Chapter 05
00:28:20.323 : en:Chapter 06
00:32:04.547 : en:Chapter 07
00:37:29.956 : en:Chapter 08
00:41:48.339 : en:Chapter 09
00:48:53.889 : en:Chapter 10
00:55:17.439 : en:Chapter 11
01:00:17.905 : en:Chapter 12
01:02:09.767 : en:Chapter 13
01:07:32.006 : en:Chapter 14
01:14:23.459 : en:Chapter 15
01:18:47.931 : en:Chapter 16
01:22:10.926 : en:Chapter 17
01:32:43.558 : en:Chapter 18
01:35:29.056 : en:Chapter 19
01:37:29.343 : en:Chapter 20

Внимание! HEVC/x265:

H.265/HEVC (High Efficiency Video Coding) - это новый стандарт кодирования видео.
*Рипы в фомате HEVC, в настоящее время поддерживается не всеми аппаратными проигрывателями.
*Для корректного воспроизведения может потребоваться обновление ПО.
*Стандарт H.265/HEVC является логическим продолжением стандарта H.264/AVC (Advanced Video Coding), и характеризуется более эффективными алгоритмами сжатия, а также поддержкой высокого разрешения вплоть до 8K UHD (8192x4320). Первая версия стандарта H.265 была опубликована в начале 2013 года.
Любителям решения из коробки - установить последнюю версию на выбор:
Media Player Classic - Black Edition (MPC-BE)
VLC media player
Daum Pot Player
GOM Media Player
Любителям WMP и других плееров, использующих по умолчанию для воспроизведения системные кодеки+сплитеры - установить K-Lite Codec Pack версии 10.1.0 и выше.
Любимые плееры, не использующии по умолчанию для воспроизведения системные кодеки+сплитеры, нужно перенастроить на использование оных.
Скриншоты:
       

RazBoyNik

Post 15-Feb-2020 11:27

[Quote]

Небоскреб / Skyscraper (2018) UHD BDRip [H.265/2160p-LQ] [4K,HDR,10-bit] - Год: 2018
Производство: Гонконг, США / 7 Bucks Productions, Flynn Picture Company, Legendary Pictures, The Third Floor
Жанр: боевик, триллер, приключения
Режиссер: Роусон Маршалл Тёрбер
Продюсер: Чу Чен Он, Бо Флинн, Дэни Гарсиа
Актеры: Дуэйн Джонсон, Нив Кэмпбелл, Чинь Хань, Роланд Мюллер, Ноа Тейлор, Байрон Манн, Пабло Шрайбер, МакКенна Робертс, Ной Коттрелл, Ханна Куинливан
Описание:
Самый высокий и технологичный небоскрёб в мире становится центром огненной катастрофы. Только бывший агент ФБР, а теперь эксперт по безопасности Уилл Сойер может спасти вертикальный город под небесами. Когда нельзя доверять никому, а жизнь семьи в опасности, каждая секунда на счету.

Возраст: 16+ (зрителям, достигшим 16 лет)
Рейтинг MPAA: PG-13 (детям до 13 лет просмотр нежелателен)
Продолжительность: 01:42:24
Качество видео: UHD BDRip
Перевод: Дублированный, Двуголосый профессиональный, Авторский
Субтитры: русские (форсированные, полные), английские (полные, для слабослышащих)
Видео: HEVC/H.265, 3840x1600, ~16,9 Mbps
Аудио 1: AC3, 6 ch, 448 Kbps (английский)
Аудио 2: AC3, 6 ch, 384 Kbps (русский, дубляж - iTunes Russia)
Аудио 3: AC3, 2 ch, 192 Kbps (русский, двуголосый - TV Play Baltics)
Аудио 4: AC3, 6 ch, 384 Kbps (русский, одноголосый - Ю. Живов)

MediaInfo:

Общее
Уникальный идентификатор : 89779575948221282975075513063996374720 (0x438AEAD8D890C05537FC08BFEA83BEC0)
Полное имя : M:\Фильмы\Иностранные\Небоскреб (Skyscraper).mkv
Формат : Matroska
Версия формата : Version 4
Размер файла : 13,1 Гбайт
Продолжительность : 1 ч. 42 м.
Общий поток : 18,3 Мбит/сек
Название фильма : Небоскрёб / Skyscraper
Кодирование произвёл : NAHOM
Дата выпуска : 2018
Дата кодирования : UTC 2020-02-15 05:40:48
Программа кодирования : mkvmerge v34.0.0 ('Sight and Seen') 64-bit
Библиотека кодирования : libebml v1.3.7 + libmatroska v1.5.0
Обложка : Yes
Attachments : cover_land.jpg / small_cover.jpg / small_cover_land.jpg / cover.jpg
Released by : Buba5473 for NNM-Club
Видео
Идентификатор : 1
Формат : HEVC
Формат/Информация : High Efficiency Video Coding
Профиль формата : Main [url=mailto:10@L5.1]10@L5.1[/url]@High
HDR format : SMPTE ST 2086, HDR10 compatible
Идентификатор кодека : V_MPEGH/ISO/HEVC
Продолжительность : 1 ч. 42 м.
Битрейт : 16,9 Мбит/сек
Ширина : 3840 пикселей
Высота : 1600 пикселей
Соотношение сторон : 2,40:1
Режим частоты кадров : Постоянный
Частота кадров : 23,976 (24000/1001) кадра/сек
Цветовое пространство : YUV
Субдискретизация насыщенности : 4:2:0 (Type 2)
Битовая глубина : 10 бит
Бит/(Пиксели*Кадры) : 0.115
Размер потока : 12,1 Гбайт (92%)
Заголовок : Skyscraper.2018.4K.HDR.2160p.BDRip Ita Eng x265-NAHOM
Библиотека кодирования : x265 2.8+54-79c76e42cb28:[Windows][GCC 7.3.1][64 bit] 10bit
Настройки программы : cpuid=1111039 / frame-threads=16 / numa-pools=24,24,24,24 / wpp / no-pmode / no-pme / no-psnr / no-ssim / log-level=2 / input-csp=1 / input-res=3840x1600 / interlace=0 / total-frames=0 / level-idc=51 / high-tier=1 / uhd-bd=0 / ref=3 / no-allow-non-conformance / repeat-headers / annexb / aud / hrd / info / hash=0 / no-temporal-layers / no-open-gop / min-keyint=1 / keyint=24 / gop-lookahead=0 / bframes=4 / b-adapt=2 / b-pyramid / bframe-bias=0 / rc-lookahead=25 / lookahead-slices=4 / scenecut=40 / radl=0 / no-intra-refresh / ctu=64 / min-cu-size=8 / no-rect / no-amp / max-tu-size=32 / tu-inter-depth=1 / tu-intra-depth=1 / limit-tu=0 / rdoq-level=0 / dynamic-rd=0.00 / no-ssim-rd / signhide / no-tskip / nr-intra=0 / nr-inter=0 / no-constrained-intra / strong-intra-smoothing / max-merge=2 / limit-refs=3 / no-limit-modes / me=1 / subme=2 / merange=57 / temporal-mvp / weightp / no-weightb / no-analyze-src-pics / deblock=0:0 / no-sao / no-sao-non-deblock / rd=3 / no-early-skip / rskip / no-fast-intra / no-tskip-fast / no-cu-lossless / no-b-intra / no-splitrd-skip / rdpenalty=0 / psy-rd=2.00 / psy-rdoq=0.00 / no-rd-refine / no-lossless / cbqpoffs=0 / crqpoffs=0 / rc=crf / crf=16.0 / qcomp=0.60 / qpstep=4 / stats-write=0 / stats-read=0 / vbv-maxrate=160000 / vbv-bufsize=160000 / vbv-init=0.9 / crf-max=0.0 / crf-min=0.0 / ipratio=1.40 / pbratio=1.30 / aq-mode=1 / aq-strength=1.00 / cutree / zone-count=0 / no-strict-cbr / qg-size=32 / no-rc-grain / qpmax=69 / qpmin=0 / no-const-vbv / sar=1 / overscan=0 / videoformat=5 / range=0 / colorprim=9 / transfer=16 / colormatrix=9 / chromaloc=1 / chromaloc-top=2 / chromaloc-bottom=2 / display-window=0 / master-display=G(13250,34500)B(7500,3000)R(34000,16000)WP(15635,16450)L(10000000,50) / max-cll=1000,986 / min-luma=0 / max-luma=1023 / log2-max-poc-lsb=8 / vui-timing-info / vui-hrd-info / slices=1 / opt-qp-pps / opt-ref-list-length-pps / no-multi-pass-opt-rps / scenecut-bias=0.05 / no-opt-cu-delta-qp / no-aq-motion / hdr / hdr-opt / no-dhdr10-opt / no-idr-recovery-sei / analysis-reuse-level=5 / scale-factor=0 / refine-intra=0 / refine-inter=0 / refine-mv=0 / no-limit-sao / ctu-info=0 / no-lowpass-dct / refine-mv-type=0 / copy-pic=1 / max-ausize-factor=1.0 / no-dynamic-refine / no-single-sei
Язык : English
Default : Да
Forced : Нет
Color range : Limited
Основные цвета : BT.2020
Характеристики трансфера : PQ
Коэффициенты матрицы : BT.2020 non-constant
Mastering display color primaries : Display P3
Mastering display luminance : min: 0.0050 cd/m2, max: 1000 cd/m2
Maximum Content Light Level : 1000 cd/m2
Maximum Frame-Average Light Level : 986 cd/m2
Аудио #1
Идентификатор : 2
Формат : AC-3
Формат/Информация : Audio Coding 3
Коммерческое название : Dolby Digital
Идентификатор кодека : A_AC3
Продолжительность : 1 ч. 42 м.
Вид битрейта : Постоянный
Битрейт : 448 Кбит/сек
Каналы : 6 каналов
Channel layout : L R C LFE Ls Rs
Частота : 48,0 КГц
Частота кадров : 31,250 кадров/сек (1536 SPF)
Битовая глубина : 16 бит
Метод сжатия : С потерями
Размер потока : 328 Мбайт (2%)
Язык : English
Service kind : Complete Main
Default : Нет
Forced : Нет
Аудио #2
Идентификатор : 5
Формат : AC-3
Формат/Информация : Audio Coding 3
Коммерческое название : Dolby Digital
Идентификатор кодека : A_AC3
Продолжительность : 1 ч. 42 м.
Вид битрейта : Постоянный
Битрейт : 384 Кбит/сек
Каналы : 6 каналов
Channel layout : L R C LFE Ls Rs
Частота : 48,0 КГц
Частота кадров : 31,250 кадров/сек (1536 SPF)
Битовая глубина : 16 бит
Метод сжатия : С потерями
Задержка видео : 26 мс.
Размер потока : 281 Мбайт (2%)
Заголовок : Перевод: Профессиональный (полное дублирование) iTunes Russia
Язык : Russian
Service kind : Complete Main
Default : Да
Forced : Нет
Аудио #3
Идентификатор : 6
Формат : AC-3
Формат/Информация : Audio Coding 3
Коммерческое название : Dolby Digital
Идентификатор кодека : A_AC3
Продолжительность : 1 ч. 42 м.
Вид битрейта : Постоянный
Битрейт : 192 Кбит/сек
Каналы : 2 канала
Channel layout : L R
Частота : 48,0 КГц
Частота кадров : 31,250 кадров/сек (1536 SPF)
Битовая глубина : 16 бит
Метод сжатия : С потерями
Задержка видео : 30 мс.
Размер потока : 141 Мбайт (1%)
Заголовок : Перевод: Профессиональный (двухголосый закадровый) TV Play Baltics
Язык : Russian
Service kind : Complete Main
Default : Нет
Forced : Нет
Аудио #4
Идентификатор : 7
Формат : AC-3
Формат/Информация : Audio Coding 3
Коммерческое название : Dolby Digital
Идентификатор кодека : A_AC3
Продолжительность : 1 ч. 42 м.
Вид битрейта : Постоянный
Битрейт : 384 Кбит/сек
Каналы : 6 каналов
Channel layout : L R C LFE Ls Rs
Частота : 48,0 КГц
Частота кадров : 31,250 кадров/сек (1536 SPF)
Битовая глубина : 16 бит
Метод сжатия : С потерями
Задержка видео : 29 мс.
Размер потока : 281 Мбайт (2%)
Заголовок : Перевод: Авторский (одноголосый закадровый) Юрий Живов
Язык : Russian
Service kind : Complete Main
Default : Нет
Forced : Нет
Текст #1
Идентификатор : 3
Формат : UTF-8
Идентификатор кодека : S_TEXT/UTF8
Идентификатор кодека/Информация : UTF-8 Plain Text
Продолжительность : 1 ч. 31 м.
Битрейт : 43 бит/сек
Count of elements : 988
Размер потока : 29,2 Кбайт (0%)
Заголовок : Full
Язык : English
Default : Нет
Forced : Нет
Текст #2
Идентификатор : 4
Формат : UTF-8
Идентификатор кодека : S_TEXT/UTF8
Идентификатор кодека/Информация : UTF-8 Plain Text
Продолжительность : 1 ч. 42 м.
Битрейт : 54 бит/сек
Count of elements : 1475
Размер потока : 40,5 Кбайт (0%)
Заголовок : SDH
Язык : English
Default : Нет
Forced : Нет
Текст #3
Идентификатор : 8
Формат : UTF-8
Идентификатор кодека : S_TEXT/UTF8
Идентификатор кодека/Информация : UTF-8 Plain Text
Продолжительность : 1 ч. 26 м.
Битрейт : 2 бит/сек
Count of elements : 32
Размер потока : 1,38 Кбайт (0%)
Заголовок : Форсированные
Язык : Russian
Default : Да
Forced : Нет
Текст #4
Идентификатор : 9
Формат : UTF-8
Идентификатор кодека : S_TEXT/UTF8
Идентификатор кодека/Информация : UTF-8 Plain Text
Продолжительность : 1 ч. 33 м.
Битрейт : 73 бит/сек
Count of elements : 949
Размер потока : 50,6 Кбайт (0%)
Заголовок : полные
Язык : Russian
Default : Нет
Forced : Нет
Меню
00:00:00.000 : en:Chapter 01
00:04:24.764 : en:Chapter 02
00:10:07.355 : en:Chapter 03
00:16:09.927 : en:Chapter 04
00:21:12.604 : en:Chapter 05
00:21:12.605 : en:Chapter 06
00:25:34.990 : en:Chapter 07
00:30:11.726 : en:Chapter 08
00:30:11.727 : en:Chapter 09
00:35:23.913 : en:Chapter 10
00:40:07.111 : en:Chapter 11 / en:Chapter 12
00:47:18.960 : en:Chapter 13 / en:Chapter 14
00:52:10.250 : en:Chapter 15 / en:Chapter 16
00:58:16.784 : en:Chapter 17
01:02:02.969 : en:Chapter 18
01:05:29.634 : en:Chapter 19
01:09:59.403 : en:Chapter 20 / en:Chapter 21
01:14:31.425 : en:Chapter 22
01:17:18.256 : en:Chapter 23
01:17:18.259 : en:Chapter 24
01:23:33.340 : en:Chapter 25
01:27:46.219 : en:Chapter 26
01:32:54.568 : en:Chapter 27
XMP
Xmp.video.FileName : M:\Фильмы\Иностранные\Небоскреб (Skyscraper).mkv
Xmp.video.FileSize : 1144.13
Xmp.video.MimeType : video/matroska
Xmp.video.EBMLVersion : 1
Xmp.video.EBMLReadVersion : 1
Xmp.video.DocType : matroska
Xmp.video.DocTypeVersion : 4
Xmp.video.DocTypeReadVersion : 2
Xmp.video.TimecodeScale : 0.001
Xmp.video.MuxingApp : libebml v1.3.7 + libmatroska v1.5.0
Xmp.video.WritingApp : mkvmerge v34.0.0 ('Sight and Seen') 64-bit
Xmp.video.Duration : 6144448
Xmp.video.DateUTC : 603438048
Xmp.video.Title : Небоскрёб / Skyscraper
Xmp.video.TotalStream : 45
Xmp.video.TrackLacing : No
Xmp.video.Codec : V_MPEGH/ISO/HEVC
Xmp.video.FrameRate : 23.976
Xmp.video.TrackName : полные
Xmp.video.Width : 3840
Xmp.video.Height : 1600
Xmp.audio.DefaultOn : No
Xmp.audio.Compressor : A_AC3
Xmp.audio.DefaultDuration : 32000
Xmp.audio.SampleRate : 48000
Xmp.video.SubTDefaultOn : No
Xmp.video.SubTTrackLacing : No
Xmp.video.SubTCodec : S_TEXT/UTF8
Xmp.audio.TrackLang : rus
Xmp.audio.ChannelType : Stereo
Xmp.video.SubTLang : rus
Xmp.video.AttachFileName : cover.jpg
Xmp.video.AttachFileMIME : image/jpeg
Xmp.video.AttachFileUID : -4886882672412524961
Xmp.video.AspectRatio : 2.4

Внимание! HEVC/x265:

H.265/HEVC (High Efficiency Video Coding) - это новый стандарт кодирования видео.
*Рипы в фомате HEVC, в настоящее время поддерживается не всеми аппаратными проигрывателями.
*Для корректного воспроизведения может потребоваться обновление ПО.
*Стандарт H.265/HEVC является логическим продолжением стандарта H.264/AVC (Advanced Video Coding), и характеризуется более эффективными алгоритмами сжатия, а также поддержкой высокого разрешения вплоть до 8K UHD (8192x4320). Первая версия стандарта H.265 была опубликована в начале 2013 года.
Любителям решения из коробки - установить последнюю версию на выбор:
Media Player Classic - Black Edition (MPC-BE)
VLC media player
Daum Pot Player
GOM Media Player
Любителям WMP и других плееров, использующих по умолчанию для воспроизведения системные кодеки+сплитеры - установить K-Lite Codec Pack версии 10.1.0 и выше.
Любимые плееры, не использующии по умолчанию для воспроизведения системные кодеки+сплитеры, нужно перенастроить на использование оных.
Скриншоты:
       

mayor

Post 13-Jan-2020 18:33

[Quote]

-Наследие / Heritage- Производство: США, Германия / Northwest Motion Pictures, von Tagen International
Жанр: Триллер
Режиссер: William von Tagen
Актеры: Беттина Циммерманн, Ральф Херфорт, Луиза Вицорек, Люка Призор, Трэвис Линкольн Кокс, Гиза Флаке, Петер Ломайер, Джулия Эфферц, Джейк Коеппл, Питер Флехтнер
Описание:
В попытке найти пропавшего коллегу бывший агент ЦРУ отправляется в горный район восточной Германии, где оказывается вовлечён в круговорот шпионских игр и, пытаясь найти сокровища, узнаёт мрачные секреты Штази тридцатилетней давности.

Дата мировой премьеры: 15 ноября 2019
Релиз от: LakeFilms
Продолжительность: 01:18:41
Качество видео: WEBRip [http://sendfile.su/1540707]
Перевод: Двуголосый любительский (LakeFilms)
Субтитры: отсутствуют
Реклама: присутствуют видео, аудио, текстовые вставки рекламы
Видео: AVC/H.264, 1920x1030, ~5 100 kbps
Аудио: AC3, 2 ch, 320 kbps

Доп.Информация:

General
Unique ID : 280990343572604747523463798103990946052 (0xD364C58C9FF0E5DA02EBE718A60D4904)
Complete name : E:Heritage.2019.1080p.LakeFilms.mkv
Format : Matroska
Format version : Version 4 / Version 2
File size : 2.95 GiB
Duration : 1 h 18 min
Overall bit rate : 5 369 kb/s
Writing application : XviD4PSP 8.0.96
Writing library : Lavf58.29.100
ErrorDetectionType : Per level 1
ENCODING_INFO : MATROSKA,WEBM > MKV 1080p
Video
ID : 1
Format : AVC
Format/Info : Advanced Video Codec
Format profile : High@L4
Format settings : CABAC / 4 Ref Frames
Format settings, CABAC : Yes
Format settings, RefFrames : 4 frames
Codec ID : V_MPEG4/ISO/AVC
Duration : 1 h 18 min
Bit rate : 5 100 kb/s
Width : 1 920 pixels
Height : 1 030 pixels
Display aspect ratio : 1.85:1
Frame rate mode : Constant
Frame rate : 23.976 (24000/1001) FPS
Color space : YUV
Chroma subsampling : 4:2:0
Bit depth : 8 bits
Scan type : Progressive
Bits/(Pixel*Frame) : 0.108
Stream size : 2.72 GiB (92%)
Writing library : x264 core 157 r2958 57baac4
Encoding settings : cabac=1 / ref=1 / deblock=1:-2:-2 / analyse=0x3:0x3 / me=dia / subme=2 / psy=1 / psy_rd=1.00:0.00 / mixed_ref=0 / me_range=8 / chroma_me=1 / trellis=0 / 8x8dct=1 / cqm=0 / deadzone=21,11 / fast_pskip=1 / chroma_qp_offset=0 / threads=5 / lookahead_threads=1 / sliced_threads=0 / nr=0 / decimate=1 / interlaced=0 / bluray_compat=0 / constrained_intra=0 / bframes=3 / b_pyramid=2 / b_adapt=1 / b_bias=0 / direct=1 / weightb=1 / open_gop=0 / weightp=1 / keyint=240 / keyint_min=24 / scenecut=40 / intra_refresh=0 / rc=abr / mbtree=0 / bitrate=5100 / ratetol=1.0 / qcomp=0.60 / qpmin=0 / qpmax=69 / qpstep=4 / ip_ratio=1.40 / pb_ratio=1.30 / aq=1:1.00
Default : Yes
Forced : No
ENCODING_INFO : H264 > X264 ABR 5100kbps Super Fast
Audio
ID : 2
Format : AC-3
Format/Info : Audio Coding 3
Codec ID : A_AC3
Duration : 1 h 18 min
Bit rate mode : Constant
Bit rate : 320 kb/s
Channel(s) : 2 channels
Channel positions : Front: L R
Sampling rate : 48.0 kHz
Frame rate : 31.250 FPS (1536 SPF)
Bit depth : 16 bits
Compression mode : Lossy
Stream size : 180 MiB (6%)
Service kind : Complete Main
Default : Yes
Forced : No
ENCODING_INFO : AAC-LC > AC3 CBR 320kbps
Скриншоты:
       

mayor

Post 13-Jan-2020 18:32

[Quote]

- Обратный отсчет / Countdown - Производство: США, Boies/Schiller Film Group, Wrigley Pictures
Жанр: Ужасы, триллер
Режиссер: Джастин Дек
Актеры: Элизабет Лэил, Чарли МакДермотт, Питер Фачинелли, Джордан Кэллоуэй, Талита Бейтман, Диллон Лэйн, Тичина Арнольд, Том Сегура, Лана МакКиссак, Энн Уинтерс
Описание:
В наш век гаджетов и высоких технологий для всего есть мобильное приложение. Хочешь узнать, сколько тебе осталось жить? Пожалуйста! Девушка видит на экране телефона неумолимый вердикт - ее жизнь оборвется через 3 дня. Сможет ли она избежать смерти, если обратный отсчет уже начался?

Возраст: 16+ (зрителям, достигшим 16 лет)
Рейтинг MPAA: PG-13 (детям до 13 лет просмотр нежелателен)
Дата мировой премьеры: 24 октября 2019
Дата российской премьеры: 21 ноября 2019
Релиз от: LakeFilms
Продолжительность: 01:31:12
Качество видео: WEBRip [http://sendfile.su/1540700]
Перевод: Двуголосый любительский (LakeFilms)
Субтитры: отсутствуют
Реклама: присутствуют видео, аудио, текстовые вставки рекламы
Видео: AVC/H.264, 1920x808, ~5 200 kbps
Аудио: AC3, 2 ch, 320 kbps

Доп.Информация:

General
Unique ID : 61248412766530102313773642779915299508 (0x2E1403E569E70CEA4D5F1E3546E9AAB4)
Complete name : E:Countdown.2019.1080p.LakeFilms.mkv
Format : Matroska
Format version : Version 4 / Version 2
File size : 3.44 GiB
Duration : 1 h 31 min
Overall bit rate : 5 392 kb/s
Writing application : XviD4PSP 8.0.96
Writing library : Lavf58.29.100
ErrorDetectionType : Per level 1
ENCODING_INFO : MATROSKA,WEBM > MKV 1080p
Video
ID : 1
Format : AVC
Format/Info : Advanced Video Codec
Format profile : High@L4
Format settings : CABAC / 4 Ref Frames
Format settings, CABAC : Yes
Format settings, RefFrames : 4 frames
Codec ID : V_MPEG4/ISO/AVC
Duration : 1 h 31 min
Bit rate : 5 200 kb/s
Width : 1 920 pixels
Height : 808 pixels
Display aspect ratio : 2.40:1
Frame rate mode : Constant
Frame rate : 23.976 (24000/1001) FPS
Color space : YUV
Chroma subsampling : 4:2:0
Bit depth : 8 bits
Scan type : Progressive
Bits/(Pixel*Frame) : 0.140
Stream size : 3.16 GiB (92%)
Writing library : x264 core 157 r2958 57baac4
Encoding settings : cabac=1 / ref=1 / deblock=1:-2:-2 / analyse=0x3:0x3 / me=dia / subme=2 / psy=1 / psy_rd=1.00:0.00 / mixed_ref=0 / me_range=8 / chroma_me=1 / trellis=0 / 8x8dct=1 / cqm=0 / deadzone=21,11 / fast_pskip=1 / chroma_qp_offset=0 / threads=5 / lookahead_threads=1 / sliced_threads=0 / nr=0 / decimate=1 / interlaced=0 / bluray_compat=0 / constrained_intra=0 / bframes=3 / b_pyramid=2 / b_adapt=1 / b_bias=0 / direct=1 / weightb=1 / open_gop=0 / weightp=1 / keyint=240 / keyint_min=24 / scenecut=40 / intra_refresh=0 / rc=abr / mbtree=0 / bitrate=5200 / ratetol=1.0 / qcomp=0.60 / qpmin=0 / qpmax=69 / qpstep=4 / ip_ratio=1.40 / pb_ratio=1.30 / aq=1:1.00
Default : Yes
Forced : No
ENCODING_INFO : H264 > X264 ABR 5200kbps Super Fast
Audio
ID : 2
Format : AC-3
Format/Info : Audio Coding 3
Codec ID : A_AC3
Duration : 1 h 31 min
Bit rate mode : Constant
Bit rate : 320 kb/s
Channel(s) : 2 channels
Channel positions : Front: L R
Sampling rate : 48.0 kHz
Frame rate : 31.250 FPS (1536 SPF)
Bit depth : 16 bits
Compression mode : Lossy
Stream size : 209 MiB (6%)
Service kind : Complete Main
Default : Yes
Forced : No
ENCODING_INFO : AAC-LC > AC3 CBR 320kbps
Скриншоты:
       

mayor

Post 13-Jan-2020 18:31

[Quote]

- Обезьяны / Monos - Производство: Колумбия, Аргентина, Нидерланды, Германия, Швеция, Уругвай, США, Швейцария, Дания / Stela Cine, Bord Cadre Films, CounterNarrative Films
Жанр: триллер, драма, приключения
Режиссер: Алехандро Ландес
Продюсер: Фернандо Эпштейн, Алехандро Ландес, Кристина Ландес
Актеры: Мойзес Ариас, Джулианна Николсон, Sofia Buenaventura, Джулиан Хиральдо, Карен Кинтеро, Лаура Кастрильон, Дейби Руэда, Пол Кубидес, Снейдер Кастро, Уилсон Салазар
Описание:
Действие разворачивается на севере Колумбии. Здесь творится нечто ужасное, и однажды участниками совершенно жутких событий стали несколько молодых людей. Оказавшись в очень непростой ситуации, они будут пытаться выжить. А началось все с того, что они решили взять в заложники человека и потребовать выкуп за его освобождение. Поначалу им казалось, что они затеяли забавную игру и не совершают ничего дурного. Но постепенно они чрезмерно увлекаются своей игрой, и начинают проявляться самые ужасные их качества. Теряя самообладание с каждой минутой, они начинают вести себя агрессивно и жестоко.

Рейтинг MPAA: R (лицам до 17 лет обязательно присутствие взрослого)
Мировая премьера: 27 января 2019
Продолжительность: 01:43:28
Качество видео: WEB-DL [http://sendfile.su/1540585]
Перевод: Одноголосый любительский (ZameZ)
Субтитры: Английские (вшитые, не отключаемые)
Видео: AVC/H.264, 1920x800, ~5000 Kbps
Аудио: AC3, 6 ch, 448 Kbps

Доп.Информация:

General
Unique ID : 87543232356227303090846766031464417657 (0x41DC36985C302200A79209EBDCD5C979)
Complete name : C:\Users\Admin\Desktop\Новая папка\Monos_2019.WEBDL.1080p.mkv
Format : Matroska
Format version : Version 4
File size : 3.88 GiB
Duration : 1 h 43 min
Overall bit rate : 5 364 kb/s
Movie name : Monos_2019
Encoded date : UTC 2020-01-10 03:25:43
Writing application : Lavf58.35.101
Writing library : Lavf58.35.101
ErrorDetectionType : Per level 1
Video
ID : 1
Format : AVC
Format/Info : Advanced Video Codec
Format profile : Main@L4
Format settings : CABAC / 2 Ref Frames
Format settings, CABAC : Yes
Format settings, Reference : 2 frames
Codec ID : V_MPEG4/ISO/AVC
Duration : 1 h 43 min
Bit rate : 5 000 kb/s
Width : 1 920 pixels
Height : 800 pixels
Display aspect ratio : 2.40:1
Frame rate mode : Constant
Frame rate : 23.976 (24000/1001) FPS
Color space : YUV
Chroma subsampling : 4:2:0
Bit depth : 8 bits
Scan type : Progressive
Bits/(Pixel*Frame) : 0.136
Stream size : 3.48 GiB (90%)
Writing library : x264 core 158 r2984
Encoding settings : cabac=1 / ref=2 / deblock=1:0:0 / analyse=0x1:0x131 / me=hex / subme=7 / psy=1 / psy_rd=1.00:0.00 / mixed_ref=0 / me_range=16 / chroma_me=1 / trellis=1 / 8x8dct=0 / cqm=0 / deadzone=21,11 / fast_pskip=1 / chroma_qp_offset=-2 / threads=9 / lookahead_threads=1 / sliced_threads=0 / nr=0 / decimate=1 / interlaced=0 / bluray_compat=0 / constrained_intra=0 / bframes=3 / b_pyramid=0 / b_adapt=1 / b_bias=0 / direct=0 / weightb=1 / open_gop=0 / weightp=2 / keyint=239 / keyint_min=23 / scenecut=40 / intra_refresh=0 / rc_lookahead=40 / rc=abr / mbtree=1 / bitrate=5000 / ratetol=1.0 / qcomp=0.60 / qpmin=10 / qpmax=69 / qpstep=4 / vbv_maxrate=9500 / vbv_bufsize=24000 / nal_hrd=none / filler=0 / ip_ratio=1.40 / aq=3:1.00
Language : Spanish
Default : Yes
Forced : No
Color range : Limited
Color primaries : BT.709
Transfer characteristics : BT.709
Matrix coefficients : BT.709
Audio
ID : 2
Format : AC-3
Format/Info : Audio Coding 3
Commercial name : Dolby Digital
Codec ID : A_AC3
Duration : 1 h 43 min
Bit rate mode : Constant
Bit rate : 448 kb/s
Channel(s) : 6 channels
Channel layout : L R C LFE Ls Rs
Sampling rate : 48.0 kHz
Frame rate : 31.250 FPS (1536 SPF)
Bit depth : 32 bits
Compression mode : Lossy
Stream size : 332 MiB (8%)
Title : VO [zamez]
Language : Russian
Service kind : Complete Main
Default : Yes
Forced : No
Menu
00:00:00.000 : :Глава 01
00:10:00.000 : :Глава 02
00:20:00.000 : :Глава 03
00:30:00.000 : :Глава 04
00:40:00.000 : :Глава 05
00:50:00.000 : :Глава 06
01:00:00.000 : :Глава 07
01:10:00.000 : :Глава 08
01:20:00.000 : :Глава 09
01:30:00.000 : :Глава 10
01:40:00.000 : :Глава 11
Скриншоты:
       
 

The time now is: Today 18:57

All times are GMT + 3 Hours