Today is a free download without charge Download

Search found 500 matches

Author Message

Kon912

Post Yesterday 21:05

[Quote]

Вирус: Нулевой пациент / Cabin Fever: Patient Zero- Год выхода: 2014
Страна: США, Доминикана
Жанр: Ужасы, фантастика
Продолжительность: 01:34:50
Перевод: Профессиональный (многоголосый закадровый) | iTunes-Режиссер:
Кааре Эндрюс-В ролях:
Митч Райан, Брандо Итон, Райан Доноху, Шон Эстин, Карри Грэм, Джиллиан Мюррэй, Сольи Дуран, Лидия Хёрст, Клодетт Лали и др.-О фильме:
Молодая компания отправляется на Карибские острова, чтобы оттянуться перед свадьбой одного из друзей. Но на берегу лазурного океана, посреди вечного лета и райского блаженства ребята обнаруживают очаг смертоносной болезни... Вскоре начинается отчет жертв... Удастся ли кому-нибудь выжить?- -Качество: BDRip 1080p
Формат: MKV
Видео: MPEG-4 AVC, 1920x802, 13138 kbps, 23,976 fps
Звук#1: русский, AC3, 5.1 ch, 48 kHz, 384 kbps | iTunes
Звук#2: английский, AC3, 5.1 ch, 48 kHz, 448 kbps | оригинал
Субтитры: русские (форс.), английские (полные)-

MI

Общее
Уникальный идентификатор : 241879194774671020762818164805560969215 (0xB5F83D08B489773AB01F96ACDE5827FF)
Полное имя : E:Torrent4VirusNulevojPacientBDRip1080p.mkv
Формат : Matroska
Версия формата : Version 4 / Version 2
Размер файла : 9,25 Гбайт
Продолжительность : 1 ч. 34 м.
Общий поток : 14,0 Мбит/сек
Дата кодирования : UTC 2020-07-03 23:46:49
Программа кодирования : mkvmerge v9.5.0 ('Quiet Fire') 64bit
Библиотека кодирования : libebml v1.3.4 + libmatroska v1.4.5
Видео
Идентификатор : 1
Формат : AVC
Формат/Информация : Advanced Video Codec
Профиль формата : High@L4.1
Настройки формата : CABAC / 5 Ref Frames
Параметр CABAC формата : Да
Параметр RefFrames формата : 5 кадров
Идентификатор кодека : V_MPEG4/ISO/AVC
Продолжительность : 1 ч. 34 м.
Битрейт : 13,1 Мбит/сек
Ширина : 1920 пикселей
Высота : 802 пикселя
Соотношение сторон : 2,40:1
Режим частоты кадров : Постоянный
Частота кадров : 23,976 (23976/1000) кадра/сек
Цветовое пространство : YUV
Субдискретизация насыщенности : 4:2:0
Битовая глубина : 8 бит
Тип развёртки : Прогрессивная
Бит/(Пиксели*Кадры) : 0.356
Размер потока : 8,70 Гбайт (94%)
Заголовок : Sisendrovich(R)
Библиотека кодирования : x264 core 159 r2991 1771b55
Настройки программы : cabac=1 / ref=5 / deblock=1:-1:-1 / analyse=0x3:0x133 / me=tesa / subme=11 / psy=1 / psy_rd=1.00:0.00 / mixed_ref=1 / me_range=32 / chroma_me=1 / trellis=2 / 8x8dct=1 / cqm=0 / deadzone=21,11 / fast_pskip=0 / chroma_qp_offset=-2 / threads=24 / lookahead_threads=6 / sliced_threads=0 / nr=0 / decimate=0 / interlaced=0 / bluray_compat=0 / constrained_intra=0 / bframes=10 / b_pyramid=2 / b_adapt=2 / b_bias=0 / direct=3 / weightb=1 / open_gop=0 / weightp=2 / keyint=240 / keyint_min=23 / scenecut=40 / intra_refresh=0 / rc_lookahead=60 / rc=2pass / mbtree=0 / bitrate=13138 / ratetol=1.0 / qcomp=0.70 / qpmin=0 / qpmax=69 / qpstep=4 / cplxblur=20.0 / qblur=0.5 / vbv_maxrate=50000 / vbv_bufsize=62500 / nal_hrd=none / filler=0 / ip_ratio=1.40 / pb_ratio=1.30 / aq=3:0.90
Язык : English
Default : Да
Forced : Нет
Аудио #1
Идентификатор : 2
Формат : AC-3
Формат/Информация : Audio Coding 3
Параметр Endianness формата : Big
Идентификатор кодека : A_AC3
Продолжительность : 1 ч. 34 м.
Вид битрейта : Постоянный
Битрейт : 384 Кбит/сек
Каналы : 6 каналов
Расположение каналов : Front: L C R, Side: L R, LFE
Частота : 48,0 КГц
Частота кадров : 31,250 кадров/сек (1536 SPF)
Битовая глубина : 16 бит
Метод сжатия : С потерями
Размер потока : 260 Мбайт (3%)
Заголовок : rus
Язык : Russian
Default : Да
Forced : Нет
Аудио #2
Идентификатор : 3
Формат : AC-3
Формат/Информация : Audio Coding 3
Параметр Endianness формата : Big
Идентификатор кодека : A_AC3
Продолжительность : 1 ч. 34 м.
Вид битрейта : Постоянный
Битрейт : 448 Кбит/сек
Каналы : 6 каналов
Расположение каналов : Front: L C R, Side: L R, LFE
Частота : 48,0 КГц
Частота кадров : 31,250 кадров/сек (1536 SPF)
Битовая глубина : 16 бит
Метод сжатия : С потерями
Размер потока : 304 Мбайт (3%)
Заголовок : eng
Язык : English
Default : Нет
Forced : Нет
Текст #1
Идентификатор : 4
Формат : UTF-8
Идентификатор кодека : S_TEXT/UTF8
Идентификатор кодека/Информация : UTF-8 Plain Text
Продолжительность : 1 ч. 26 м.
Битрейт : 1 бит/сек
ElementCount : 24
Размер потока : 1,26 Кбайт (0%)
Заголовок : rusForced
Язык : Russian
Default : Да
Forced : Нет
Текст #2
Идентификатор : 5
Формат : UTF-8
Идентификатор кодека : S_TEXT/UTF8
Идентификатор кодека/Информация : UTF-8 Plain Text
Продолжительность : 1 ч. 32 м.
Битрейт : 38 бит/сек
ElementCount : 788
Размер потока : 25,9 Кбайт (0%)
Заголовок : engFull
Язык : English
Default : Нет
Forced : Нет
Меню
00:00:00.000 : en:Chapter 1
00:06:05.948 : en:Chapter 2
00:13:14.001 : en:Chapter 3
00:19:10.941 : en:Chapter 4
00:31:37.020 : en:Chapter 5
00:44:44.973 : en:Chapter 6
00:51:47.979 : en:Chapter 7
01:01:09.582 : en:Chapter 8
01:11:24.363 : en:Chapter 9
01:18:23.907 : en:Chapter 10
01:27:55.937 : en:Chapter 11
01:31:44.957 : en:Chapter 12

Скриншоты

       

Kon912

Post Yesterday 21:05

[Quote]

Вирус: Нулевой пациент / Cabin Fever: Patient Zero- Год выхода: 2014
Страна: США, Доминикана
Жанр: Ужасы, фантастика
Продолжительность: 01:34:50
Перевод: Профессиональный (многоголосый закадровый) | iTunes-Режиссер:
Кааре Эндрюс-В ролях:
Митч Райан, Брандо Итон, Райан Доноху, Шон Эстин, Карри Грэм, Джиллиан Мюррэй, Сольи Дуран, Лидия Хёрст, Клодетт Лали и др.-О фильме:
Молодая компания отправляется на Карибские острова, чтобы оттянуться перед свадьбой одного из друзей. Но на берегу лазурного океана, посреди вечного лета и райского блаженства ребята обнаруживают очаг смертоносной болезни... Вскоре начинается отчет жертв... Удастся ли кому-нибудь выжить?- -Качество: BDRip 720p
Формат: MKV
Видео: MPEG-4 AVC, 1280x534, 5685 kbps, 23,976 fps
Звук#1: русский, AC3, 5.1 ch, 48 kHz, 384 kbps | iTunes
Звук#2: английский, AC3, 5.1 ch, 48 kHz, 448 kbps | оригинал
Субтитры: русские (форс.), английские (полные)-

MI

Общее
Уникальный идентификатор : 216473352252169816063907666738558289076 (0xA2DB4049D26D29549C599CE86ED044B4)
Полное имя : E:Torrent4VirusNulevojPacientBDRip720p.mkv
Формат : Matroska
Версия формата : Version 4 / Version 2
Размер файла : 4,32 Гбайт
Продолжительность : 1 ч. 34 м.
Общий поток : 6518 Кбит/сек
Дата кодирования : UTC 2020-07-03 23:50:38
Программа кодирования : mkvmerge v9.5.0 ('Quiet Fire') 64bit
Библиотека кодирования : libebml v1.3.4 + libmatroska v1.4.5
Видео
Идентификатор : 1
Формат : AVC
Формат/Информация : Advanced Video Codec
Профиль формата : High@L4.1
Настройки формата : CABAC / 12 Ref Frames
Параметр CABAC формата : Да
Параметр RefFrames формата : 12 кадров
Идентификатор кодека : V_MPEG4/ISO/AVC
Продолжительность : 1 ч. 34 м.
Битрейт : 5685 Кбит/сек
Ширина : 1280 пикселей
Высота : 534 пикселя
Соотношение сторон : 2,40:1
Режим частоты кадров : Постоянный
Частота кадров : 23,976 (23976/1000) кадра/сек
Цветовое пространство : YUV
Субдискретизация насыщенности : 4:2:0
Битовая глубина : 8 бит
Тип развёртки : Прогрессивная
Бит/(Пиксели*Кадры) : 0.347
Размер потока : 3,77 Гбайт (87%)
Заголовок : Sisendrovich(R)
Библиотека кодирования : x264 core 159 r2991 1771b55
Настройки программы : cabac=1 / ref=12 / deblock=1:-1:-1 / analyse=0x3:0x133 / me=tesa / subme=11 / psy=1 / psy_rd=1.00:0.00 / mixed_ref=1 / me_range=32 / chroma_me=1 / trellis=2 / 8x8dct=1 / cqm=0 / deadzone=21,11 / fast_pskip=0 / chroma_qp_offset=-2 / threads=17 / lookahead_threads=2 / sliced_threads=0 / nr=0 / decimate=0 / interlaced=0 / bluray_compat=0 / constrained_intra=0 / bframes=8 / b_pyramid=2 / b_adapt=2 / b_bias=0 / direct=3 / weightb=1 / open_gop=0 / weightp=2 / keyint=240 / keyint_min=23 / scenecut=40 / intra_refresh=0 / rc_lookahead=60 / rc=2pass / mbtree=0 / bitrate=5685 / ratetol=1.0 / qcomp=0.70 / qpmin=0 / qpmax=69 / qpstep=4 / cplxblur=20.0 / qblur=0.5 / vbv_maxrate=50000 / vbv_bufsize=62500 / nal_hrd=none / filler=0 / ip_ratio=1.40 / pb_ratio=1.30 / aq=3:0.90
Язык : English
Default : Да
Forced : Нет
Аудио #1
Идентификатор : 2
Формат : AC-3
Формат/Информация : Audio Coding 3
Параметр Endianness формата : Big
Идентификатор кодека : A_AC3
Продолжительность : 1 ч. 34 м.
Вид битрейта : Постоянный
Битрейт : 384 Кбит/сек
Каналы : 6 каналов
Расположение каналов : Front: L C R, Side: L R, LFE
Частота : 48,0 КГц
Частота кадров : 31,250 кадров/сек (1536 SPF)
Битовая глубина : 16 бит
Метод сжатия : С потерями
Размер потока : 260 Мбайт (6%)
Заголовок : rus
Язык : Russian
Default : Да
Forced : Нет
Аудио #2
Идентификатор : 3
Формат : AC-3
Формат/Информация : Audio Coding 3
Параметр Endianness формата : Big
Идентификатор кодека : A_AC3
Продолжительность : 1 ч. 34 м.
Вид битрейта : Постоянный
Битрейт : 448 Кбит/сек
Каналы : 6 каналов
Расположение каналов : Front: L C R, Side: L R, LFE
Частота : 48,0 КГц
Частота кадров : 31,250 кадров/сек (1536 SPF)
Битовая глубина : 16 бит
Метод сжатия : С потерями
Размер потока : 304 Мбайт (7%)
Заголовок : eng
Язык : English
Default : Нет
Forced : Нет
Текст #1
Идентификатор : 4
Формат : UTF-8
Идентификатор кодека : S_TEXT/UTF8
Идентификатор кодека/Информация : UTF-8 Plain Text
Продолжительность : 1 ч. 26 м.
Битрейт : 1 бит/сек
ElementCount : 24
Размер потока : 1,26 Кбайт (0%)
Заголовок : rusForced
Язык : Russian
Default : Да
Forced : Нет
Текст #2
Идентификатор : 5
Формат : UTF-8
Идентификатор кодека : S_TEXT/UTF8
Идентификатор кодека/Информация : UTF-8 Plain Text
Продолжительность : 1 ч. 32 м.
Битрейт : 38 бит/сек
ElementCount : 788
Размер потока : 25,9 Кбайт (0%)
Заголовок : engFull
Язык : English
Default : Нет
Forced : Нет
Меню
00:00:00.000 : en:Chapter 1
00:06:05.948 : en:Chapter 2
00:13:14.001 : en:Chapter 3
00:19:10.941 : en:Chapter 4
00:31:37.020 : en:Chapter 5
00:44:44.973 : en:Chapter 6
00:51:47.979 : en:Chapter 7
01:01:09.582 : en:Chapter 8
01:11:24.363 : en:Chapter 9
01:18:23.907 : en:Chapter 10
01:27:55.937 : en:Chapter 11
01:31:44.957 : en:Chapter 12

Скриншоты

       
Рип и релиз от:

Kon912

Post Yesterday 20:43

[Quote]

Карьер / The Quarry- Год выпуска: 2020
Страна: США
Студия: EFC Films, Metalwork Pictures, Prowess Pictures
Жанр: Триллер, криминал, детектив
Продолжительность: 01:43:01
Перевод: Любительский многоголосый (Mallorn Studio)-Режиссер:
Скотт Тимс-В ролях:
Ши Уигхэм, Майкл Шеннон, Каталина Сандино Морено, Бобби Сото, Бруно Бичир, Альваро Мартинес, Джимми Гонсалес, Абель Бесерра, Энтони Рейнольдс, Роуз Бьянко-О фильме:
Таинственный мужчина с темным прошлым находит убежище в глубинке Техаса. Он представляется новым пастором и быстро сплачивает вокруг себя прихожан, проникшихся его необычными проповедями. Одновременно его личностью заинтересовывается и начальник местной полиции, имеющий основания для подозрений.- -Качество: BDRemux 1080p
Формат: MKV
Видео: MPEG-4 AVC, 23600 Кбит/с, 1920x1080
Аудио 1: Русский (AC3, 6 ch, 640 Кбит/с) - Любительский многоголосый (Mallorn Studio)
Аудио 2: Английский (DTS-HD MA, 6 ch, 3072 Кбит/с) - Оригинал
Субтитры: Русские, английские-

Mediainfo

Общее
Уникальный идентификатор : 205059951954607942271676550883169474729 (0x9A451C352D0305B8893664740A6718A9)
Полное имя : I:\Хранимые раздачи Blu-Ray\Karer.2020.BD-Remux.(1080p).Agentx.mkv
Формат : Matroska
Версия формата : Version 4 / Version 2
Размер файла : 19,7 Гбайт
Продолжительность : 1 ч. 43 м.
Режим общего битрейта : Переменный
Общий поток : 27,4 Мбит/сек
Название фильма : Karer.2020.BD-Remux.(1080p).Agentx
Дата кодирования : UTC 2020-07-04 12:34:54
Программа кодирования : mkvmerge v8.3.0 ('Over the Horizon') 64bit
Библиотека кодирования : libebml v1.3.1 + libmatroska v1.4.2
Видео
Идентификатор : 1
Формат : AVC
Формат/Информация : Advanced Video Codec
Профиль формата : High@L4.1
Настройки формата : CABAC / 4 Ref Frames
Параметр CABAC формата : Да
Параметр RefFrames формата : 4 кадра
Идентификатор кодека : V_MPEG4/ISO/AVC
Продолжительность : 1 ч. 43 м.
Вид битрейта : Переменный
Битрейт : 23,6 Мбит/сек
Максимальный битрейт : 37,0 Мбит/сек
Ширина : 1920 пикселей
Высота : 1080 пикселей
Соотношение сторон : 16:9
Режим частоты кадров : Постоянный
Частота кадров : 23,976 (24000/1001) кадра/сек
Цветовое пространство : YUV
Субдискретизация насыщенности : 4:2:0
Битовая глубина : 8 бит
Тип развёртки : Прогрессивная
Бит/(Пиксели*Кадры) : 0.475
Размер потока : 17,0 Гбайт (86%)
Заголовок : Karer.2020.BD-Remux.(1080p).Agentx
Default : Нет
Forced : Нет
Аудио #1
Идентификатор : 2
Формат : AC-3
Формат/Информация : Audio Coding 3
Идентификатор кодека : A_AC3
Продолжительность : 1 ч. 43 м.
Вид битрейта : Постоянный
Битрейт : 640 Кбит/сек
Каналы : 6 каналов
Расположение каналов : Front: L C R, Side: L R, LFE
Частота : 48,0 КГц
Частота кадров : 31,250 кадров/сек (1536 SPF)
Битовая глубина : 16 бит
Метод сжатия : С потерями
Размер потока : 472 Мбайт (2%)
Заголовок : Многоголосый (Mallorn)
Язык : Russian
ServiceKind/String : Complete Main
Default : Да
Forced : Нет
Аудио #2
Идентификатор : 3
Формат : DTS
Формат/Информация : Digital Theater Systems
Профиль формата : MA / Core
Идентификатор кодека : A_DTS
Продолжительность : 1 ч. 43 м.
Вид битрейта : Переменный / Постоянный
Битрейт : 3072 Кбит/сек / 1509 Кбит/сек
Каналы : 6 каналов
Расположение каналов : Front: L C R, Side: L R, LFE
Частота : 48,0 КГц
Частота кадров : 93,750 кадра/сек (512 SPF)
Битовая глубина : 24 бит
Метод сжатия : Без потерь / Lossy
Размер потока : 2,23 Гбайт (11%)
Язык : English
Default : Нет
Forced : Нет
Текст #1
Идентификатор : 4
Формат : UTF-8
Идентификатор кодека : S_TEXT/UTF8
Идентификатор кодека/Информация : UTF-8 Plain Text
Продолжительность : 1 ч. 34 м.
Битрейт : 48 бит/сек
ElementCount : 763
Размер потока : 33,4 Кбайт (0%)
Язык : Russian
Default : Нет
Forced : Нет
Текст #2
Идентификатор : 5
Формат : PGS
Режим смешивания : zlib
Идентификатор кодека : S_HDMV/PGS
Идентификатор кодека/Информация : Picture based subtitle format used on BDs/HD-DVDs
Продолжительность : 1 ч. 32 м.
Битрейт : 919 бит/сек
ElementCount : 178
Размер потока : 621 Кбайт (0%)
Заголовок : Forced
Язык : English
Default : Нет
Forced : Нет
Текст #3
Идентификатор : 6
Формат : UTF-8
Идентификатор кодека : S_TEXT/UTF8
Идентификатор кодека/Информация : UTF-8 Plain Text
Продолжительность : 1 ч. 38 м.
Битрейт : 30 бит/сек
ElementCount : 813
Размер потока : 21,8 Кбайт (0%)
Язык : English
Default : Нет
Forced : Нет
Текст #4
Идентификатор : 7
Формат : PGS
Режим смешивания : zlib
Идентификатор кодека : S_HDMV/PGS
Идентификатор кодека/Информация : Picture based subtitle format used on BDs/HD-DVDs
Продолжительность : 1 ч. 40 м.
Битрейт : 11,1 Кбит/сек
ElementCount : 1936
Размер потока : 8,02 Мбайт (0%)
Язык : English
Default : Нет
Forced : Нет
Текст #5
Идентификатор : 8
Формат : PGS
Режим смешивания : zlib
Идентификатор кодека : S_HDMV/PGS
Идентификатор кодека/Информация : Picture based subtitle format used on BDs/HD-DVDs
Продолжительность : 1 ч. 32 м.
Битрейт : 919 бит/сек
ElementCount : 178
Размер потока : 621 Кбайт (0%)
Заголовок : Forced
Язык : English
Default : Нет
Forced : Нет
Меню
00:00:00.000 : en:Chapter 01
00:06:51.994 : en:Chapter 02
00:14:59.398 : en:Chapter 03
00:20:30.437 : en:Chapter 04
00:26:28.086 : en:Chapter 05
00:32:04.631 : en:Chapter 06
00:39:41.337 : en:Chapter 07
00:44:08.812 : en:Chapter 08
00:51:33.840 : en:Chapter 09
00:56:33.723 : en:Chapter 10
01:02:27.827 : en:Chapter 11
01:09:52.605 : en:Chapter 12
01:17:52.167 : en:Chapter 13
01:23:27.502 : en:Chapter 14
01:27:47.095 : en:Chapter 15
01:36:22.777 : en:Chapter 16

Скриншоты

       

Kon912

Post Yesterday 20:42

[Quote]

Карьер / The Quarry- Год выпуска: 2020
Страна: США
Студия: EFC Films, Metalwork Pictures, Prowess Pictures
Жанр: Триллер, криминал, детектив
Продолжительность: 01:43:01
Перевод: Любительский многоголосый (Mallorn Studio)-Режиссер:
Скотт Тимс-В ролях:
Ши Уигхэм, Майкл Шеннон, Каталина Сандино Морено, Бобби Сото, Бруно Бичир, Альваро Мартинес, Джимми Гонсалес, Абель Бесерра, Энтони Рейнольдс, Роуз Бьянко-О фильме:
Таинственный мужчина с темным прошлым находит убежище в глубинке Техаса. Он представляется новым пастором и быстро сплачивает вокруг себя прихожан, проникшихся его необычными проповедями. Одновременно его личностью заинтересовывается и начальник местной полиции, имеющий основания для подозрений.- -Качество: BDRip 1080p
Формат: MKV
Видео: MPEG-4 AVC, 12800 Кбит/с, 1920x800
Аудио 1: Русский (AC3, 6 ch, 640 Кбит/с) - Любительский многоголосый (Mallorn Studio)
Аудио 2: Английский (AC3, 6 ch, 640 Кбит/с) - Оригинал
Субтитры: Русские, английские-

Mediainfo

Общее
Уникальный идентификатор : 244197178249668040105691818390370491380 (0xB7B6AA7162194BC0B1DF79E3D4219BF4)
Полное имя : G:\Хранимые раздачи BDRip (1080p, 720p)\Karer.2020.BDRip.(1080p).Agentx.mkv
Формат : Matroska
Версия формата : Version 4 / Version 2
Размер файла : 10,2 Гбайт
Продолжительность : 1 ч. 43 м.
Общий поток : 14,1 Мбит/сек
Название фильма : Karer.2020.BDRip.(720p).Agentx
Дата кодирования : UTC 2020-07-04 12:48:02
Программа кодирования : mkvmerge v8.3.0 ('Over the Horizon') 64bit
Библиотека кодирования : libebml v1.3.1 + libmatroska v1.4.2
Видео
Идентификатор : 1
Формат : AVC
Формат/Информация : Advanced Video Codec
Профиль формата : High@L4.1
Настройки формата : CABAC / 5 Ref Frames
Параметр CABAC формата : Да
Параметр RefFrames формата : 5 кадров
Идентификатор кодека : V_MPEG4/ISO/AVC
Продолжительность : 1 ч. 43 м.
Битрейт : 12,8 Мбит/сек
Ширина : 1920 пикселей
Высота : 800 пикселей
Соотношение сторон : 2,40:1
Режим частоты кадров : Постоянный
Частота кадров : 23,976 (24000/1001) кадра/сек
Цветовое пространство : YUV
Субдискретизация насыщенности : 4:2:0
Битовая глубина : 8 бит
Тип развёртки : Прогрессивная
Бит/(Пиксели*Кадры) : 0.348
Размер потока : 9,23 Гбайт (91%)
Заголовок : Karer.2020.BDRip.(720p).Agentx
Библиотека кодирования : x264 core 160 r3000 33f9e14
Настройки программы : cabac=1 / ref=5 / deblock=1:-3:-3 / analyse=0x3:0x133 / me=umh / subme=9 / psy=1 / psy_rd=1.00:0.00 / mixed_ref=1 / me_range=16 / chroma_me=1 / trellis=2 / 8x8dct=1 / cqm=0 / deadzone=21,11 / fast_pskip=0 / chroma_qp_offset=-2 / threads=16 / lookahead_threads=2 / sliced_threads=0 / nr=0 / decimate=0 / interlaced=0 / bluray_compat=0 / constrained_intra=0 / bframes=8 / b_pyramid=2 / b_adapt=2 / b_bias=0 / direct=3 / weightb=1 / open_gop=0 / weightp=2 / keyint=250 / keyint_min=23 / scenecut=40 / intra_refresh=0 / rc=crf / mbtree=0 / crf=18.8 / qcomp=0.60 / qpmin=0 / qpmax=69 / qpstep=4 / ip_ratio=1.40 / pb_ratio=1.30 / aq=3:0.70
Default : Да
Forced : Нет
Цветовой диапазон : Limited
Коэффициенты матрицы : BT.709
Аудио #1
Идентификатор : 2
Формат : AC-3
Формат/Информация : Audio Coding 3
Идентификатор кодека : A_AC3
Продолжительность : 1 ч. 43 м.
Вид битрейта : Постоянный
Битрейт : 640 Кбит/сек
Каналы : 6 каналов
Расположение каналов : Front: L C R, Side: L R, LFE
Частота : 48,0 КГц
Частота кадров : 31,250 кадров/сек (1536 SPF)
Битовая глубина : 16 бит
Метод сжатия : С потерями
Размер потока : 472 Мбайт (5%)
Заголовок : Многоголосый (Mallorn)
Язык : Russian
ServiceKind/String : Complete Main
Default : Да
Forced : Нет
Аудио #2
Идентификатор : 3
Формат : AC-3
Формат/Информация : Audio Coding 3
Идентификатор кодека : A_AC3
Продолжительность : 1 ч. 43 м.
Вид битрейта : Постоянный
Битрейт : 640 Кбит/сек
Каналы : 6 каналов
Расположение каналов : Front: L C R, Side: L R, LFE
Частота : 48,0 КГц
Частота кадров : 31,250 кадров/сек (1536 SPF)
Битовая глубина : 16 бит
Метод сжатия : С потерями
Размер потока : 472 Мбайт (5%)
Язык : English
ServiceKind/String : Complete Main
Default : Нет
Forced : Нет
Текст #1
Идентификатор : 4
Формат : UTF-8
Идентификатор кодека : S_TEXT/UTF8
Идентификатор кодека/Информация : UTF-8 Plain Text
Продолжительность : 1 ч. 32 м.
Битрейт : 2 бит/сек
ElementCount : 89
Размер потока : 1,89 Кбайт (0%)
Заголовок : Forced
Язык : English
Default : Да
Forced : Да
Текст #2
Идентификатор : 5
Формат : UTF-8
Идентификатор кодека : S_TEXT/UTF8
Идентификатор кодека/Информация : UTF-8 Plain Text
Продолжительность : 1 ч. 34 м.
Битрейт : 48 бит/сек
ElementCount : 763
Размер потока : 33,4 Кбайт (0%)
Язык : Russian
Default : Нет
Forced : Нет
Текст #3
Идентификатор : 6
Формат : UTF-8
Идентификатор кодека : S_TEXT/UTF8
Идентификатор кодека/Информация : UTF-8 Plain Text
Продолжительность : 1 ч. 38 м.
Битрейт : 27 бит/сек
ElementCount : 733
Размер потока : 20,0 Кбайт (0%)
Язык : English
Default : Нет
Forced : Нет
Текст #4
Идентификатор : 7
Формат : UTF-8
Идентификатор кодека : S_TEXT/UTF8
Идентификатор кодека/Информация : UTF-8 Plain Text
Продолжительность : 1 ч. 40 м.
Битрейт : 31 бит/сек
ElementCount : 917
Размер потока : 23,2 Кбайт (0%)
Язык : English
Default : Нет
Forced : Нет
Текст #5
Идентификатор : 8
Формат : PGS
Режим смешивания : zlib
Идентификатор кодека : S_HDMV/PGS
Идентификатор кодека/Информация : Picture based subtitle format used on BDs/HD-DVDs
Продолжительность : 1 ч. 40 м.
Битрейт : 11,1 Кбит/сек
ElementCount : 1936
Размер потока : 8,02 Мбайт (0%)
Язык : English
Default : Нет
Forced : Нет
Текст #6
Идентификатор : 9
Формат : PGS
Режим смешивания : zlib
Идентификатор кодека : S_HDMV/PGS
Идентификатор кодека/Информация : Picture based subtitle format used on BDs/HD-DVDs
Продолжительность : 1 ч. 32 м.
Битрейт : 919 бит/сек
ElementCount : 178
Размер потока : 621 Кбайт (0%)
Язык : English
Default : Нет
Forced : Нет
Меню
00:00:00.000 : en:Chapter 01
00:06:51.995 : en:Chapter 02
00:14:59.398 : en:Chapter 03
00:20:30.438 : en:Chapter 04
00:26:28.086 : en:Chapter 05
00:32:04.631 : en:Chapter 06
00:39:41.337 : en:Chapter 07
00:44:08.813 : en:Chapter 08
00:51:33.841 : en:Chapter 09
00:56:33.724 : en:Chapter 10
01:02:27.827 : en:Chapter 11
01:09:52.605 : en:Chapter 12
01:17:52.167 : en:Chapter 13
01:23:27.502 : en:Chapter 14
01:27:47.095 : en:Chapter 15
01:36:22.777 : en:Chapter 16

Скриншоты

     

Kon912

Post Yesterday 20:42

[Quote]

Карьер / The Quarry- Год выпуска: 2020
Страна: США
Студия: EFC Films, Metalwork Pictures, Prowess Pictures
Жанр: Триллер, криминал, детектив
Продолжительность: 01:43:01
Перевод: Любительский многоголосый (Mallorn Studio)-Режиссер:
Скотт Тимс-В ролях:
Ши Уигхэм, Майкл Шеннон, Каталина Сандино Морено, Бобби Сото, Бруно Бичир, Альваро Мартинес, Джимми Гонсалес, Абель Бесерра, Энтони Рейнольдс, Роуз Бьянко-О фильме:
Таинственный мужчина с темным прошлым находит убежище в глубинке Техаса. Он представляется новым пастором и быстро сплачивает вокруг себя прихожан, проникшихся его необычными проповедями. Одновременно его личностью заинтересовывается и начальник местной полиции, имеющий основания для подозрений.- -Качество: BDRip 720p
Формат: MKV
Видео: MPEG-4 AVC, 6210 Кбит/с, 1280x534
Аудио 1: Русский (AC3, 6 ch, 640 Кбит/с) - Любительский многоголосый (Mallorn Studio)
Аудио 2: Английский (AC3, 6 ch, 640 Кбит/с) - Оригинал
Субтитры: Русские, английские-

Mediainfo

Общее
Уникальный идентификатор : 179436217360596405264361265979921861376 (0x86FE288DB4485A6FA7C62C75C8ED0B00)
Полное имя : G:\Хранимые раздачи BDRip (1080p, 720p)\Karer.2020.BDRip.(720p).Agentx.mkv
Формат : Matroska
Версия формата : Version 4 / Version 2
Размер файла : 5,40 Гбайт
Продолжительность : 1 ч. 43 м.
Общий поток : 7504 Кбит/сек
Название фильма : Karer.2020.BDRip.(720p).Agentx
Дата кодирования : UTC 2020-07-04 12:21:28
Программа кодирования : mkvmerge v8.3.0 ('Over the Horizon') 64bit
Библиотека кодирования : libebml v1.3.1 + libmatroska v1.4.2
Видео
Идентификатор : 1
Формат : AVC
Формат/Информация : Advanced Video Codec
Профиль формата : High@L4.1
Настройки формата : CABAC / 8 Ref Frames
Параметр CABAC формата : Да
Параметр RefFrames формата : 8 кадров
Идентификатор кодека : V_MPEG4/ISO/AVC
Продолжительность : 1 ч. 43 м.
Битрейт : 6210 Кбит/сек
Ширина : 1280 пикселей
Высота : 534 пикселя
Соотношение сторон : 2,40:1
Режим частоты кадров : Постоянный
Частота кадров : 23,976 (24000/1001) кадра/сек
Цветовое пространство : YUV
Субдискретизация насыщенности : 4:2:0
Битовая глубина : 8 бит
Тип развёртки : Прогрессивная
Бит/(Пиксели*Кадры) : 0.379
Размер потока : 4,47 Гбайт (83%)
Заголовок : Karer.2020.BDRip.(720p).Agentx
Библиотека кодирования : x264 core 160 r3000 33f9e14
Настройки программы : cabac=1 / ref=8 / deblock=1:-3:-3 / analyse=0x3:0x133 / me=umh / subme=9 / psy=1 / psy_rd=1.00:0.00 / mixed_ref=1 / me_range=16 / chroma_me=1 / trellis=2 / 8x8dct=1 / cqm=0 / deadzone=21,11 / fast_pskip=0 / chroma_qp_offset=-2 / threads=16 / lookahead_threads=2 / sliced_threads=0 / nr=0 / decimate=0 / interlaced=0 / bluray_compat=0 / constrained_intra=0 / bframes=8 / b_pyramid=2 / b_adapt=2 / b_bias=0 / direct=3 / weightb=1 / open_gop=0 / weightp=2 / keyint=250 / keyint_min=23 / scenecut=40 / intra_refresh=0 / rc=crf / mbtree=0 / crf=17.8 / qcomp=0.60 / qpmin=0 / qpmax=69 / qpstep=4 / ip_ratio=1.40 / pb_ratio=1.30 / aq=3:0.70
Default : Да
Forced : Нет
Цветовой диапазон : Limited
Коэффициенты матрицы : BT.709
Аудио #1
Идентификатор : 2
Формат : AC-3
Формат/Информация : Audio Coding 3
Идентификатор кодека : A_AC3
Продолжительность : 1 ч. 43 м.
Вид битрейта : Постоянный
Битрейт : 640 Кбит/сек
Каналы : 6 каналов
Расположение каналов : Front: L C R, Side: L R, LFE
Частота : 48,0 КГц
Частота кадров : 31,250 кадров/сек (1536 SPF)
Битовая глубина : 16 бит
Метод сжатия : С потерями
Размер потока : 472 Мбайт (9%)
Заголовок : Многоголосый (Mallorn)
Язык : Russian
ServiceKind/String : Complete Main
Default : Да
Forced : Нет
Аудио #2
Идентификатор : 3
Формат : AC-3
Формат/Информация : Audio Coding 3
Идентификатор кодека : A_AC3
Продолжительность : 1 ч. 43 м.
Вид битрейта : Постоянный
Битрейт : 640 Кбит/сек
Каналы : 6 каналов
Расположение каналов : Front: L C R, Side: L R, LFE
Частота : 48,0 КГц
Частота кадров : 31,250 кадров/сек (1536 SPF)
Битовая глубина : 16 бит
Метод сжатия : С потерями
Размер потока : 472 Мбайт (9%)
Язык : English
ServiceKind/String : Complete Main
Default : Нет
Forced : Нет
Текст #1
Идентификатор : 4
Формат : UTF-8
Идентификатор кодека : S_TEXT/UTF8
Идентификатор кодека/Информация : UTF-8 Plain Text
Продолжительность : 1 ч. 32 м.
Битрейт : 2 бит/сек
ElementCount : 89
Размер потока : 1,89 Кбайт (0%)
Заголовок : Forced
Язык : English
Default : Да
Forced : Да
Текст #2
Идентификатор : 5
Формат : UTF-8
Идентификатор кодека : S_TEXT/UTF8
Идентификатор кодека/Информация : UTF-8 Plain Text
Продолжительность : 1 ч. 34 м.
Битрейт : 48 бит/сек
ElementCount : 763
Размер потока : 33,4 Кбайт (0%)
Язык : Russian
Default : Нет
Forced : Нет
Текст #3
Идентификатор : 6
Формат : UTF-8
Идентификатор кодека : S_TEXT/UTF8
Идентификатор кодека/Информация : UTF-8 Plain Text
Продолжительность : 1 ч. 38 м.
Битрейт : 27 бит/сек
ElementCount : 733
Размер потока : 20,0 Кбайт (0%)
Язык : English
Default : Нет
Forced : Нет
Текст #4
Идентификатор : 7
Формат : UTF-8
Идентификатор кодека : S_TEXT/UTF8
Идентификатор кодека/Информация : UTF-8 Plain Text
Продолжительность : 1 ч. 40 м.
Битрейт : 31 бит/сек
ElementCount : 917
Размер потока : 23,2 Кбайт (0%)
Язык : English
Default : Нет
Forced : Нет
Текст #5
Идентификатор : 8
Формат : PGS
Режим смешивания : zlib
Идентификатор кодека : S_HDMV/PGS
Идентификатор кодека/Информация : Picture based subtitle format used on BDs/HD-DVDs
Продолжительность : 1 ч. 40 м.
Битрейт : 11,1 Кбит/сек
ElementCount : 1936
Размер потока : 8,02 Мбайт (0%)
Язык : English
Default : Нет
Forced : Нет
Текст #6
Идентификатор : 9
Формат : PGS
Режим смешивания : zlib
Идентификатор кодека : S_HDMV/PGS
Идентификатор кодека/Информация : Picture based subtitle format used on BDs/HD-DVDs
Продолжительность : 1 ч. 32 м.
Битрейт : 919 бит/сек
ElementCount : 178
Размер потока : 621 Кбайт (0%)
Язык : English
Default : Нет
Forced : Нет
Меню
00:00:00.000 : en:Chapter 01
00:06:51.995 : en:Chapter 02
00:14:59.398 : en:Chapter 03
00:20:30.438 : en:Chapter 04
00:26:28.086 : en:Chapter 05
00:32:04.631 : en:Chapter 06
00:39:41.337 : en:Chapter 07
00:44:08.813 : en:Chapter 08
00:51:33.841 : en:Chapter 09
00:56:33.724 : en:Chapter 10
01:02:27.827 : en:Chapter 11
01:09:52.605 : en:Chapter 12
01:17:52.167 : en:Chapter 13
01:23:27.502 : en:Chapter 14
01:27:47.095 : en:Chapter 15
01:36:22.777 : en:Chapter 16

Скриншоты

       

Kon912

Post Yesterday 20:36

[Quote]

Близость / Proximity- Год выхода: 2020
Страна: США
Студия: Demeusy Pictures, Shout!Studios, Instrum International
Жанр: Фантастика, драма
Продолжительность: 01:59:22
Перевод: Любительский двухголосый | LakeFilms-Режиссер:
Эрик Демьюзи-В ролях:
Раян Мэссон, Хидли Куан, Кристиан Прентис, Шоу Джонс, Дон Скрибнер, Кристофер Мюррэй, Сара Навратил, Памела Холт, Кайли Контреари, Дэрин Купер, Джефф Дэвис, Тайлер Рой Робертс, Макс Катлер, Джереми Лосон, Блейн Грэй, Рэнди Дэвисон-О фильме:
Молодой ученый из НАСА Айзек фиксирует странный сигнал с одного из спутников. Когда он идет на место проверить источник сигнала, его похищают инопланетные существа. Вернувшись, он пытается рассказать о своем исчезновении другим людям, но ему никто не верит. Стремясь доказать правду, Айзек становится одержим поиском доказательств, и это приводит его к неожиданным открытиям..- -Качество: BDRemux 1080p
Формат: MKV
Видео: MPEG-4 AVC, 36000 Кбит/с, 1920x1080
Аудио 1: Русский (AC3, 2 ch, 384 Кбит/с) - Любительский двухголосый (LakeFilms)
Аудио 2: Аудио 7: Английский (DTS-HD MA, 6 ch, 2652 Кбит/с) - Оригинал
Аудио 3: Аудио 7: Английский (DTS-HD MA, 2 ch, 1659 Кбит/с) - Оригинал-

Mediainfo

Общее
Уникальный идентификатор : 241162439313352880656395356349168481801 (0xB56E3242E9A19942A3ED03583E21F609)
Полное имя : I:\Хранимые раздачи Blu-Ray\Blisost.2020.BD-Remux.(1080p).Agentx.mkv
Формат : Matroska
Версия формата : Version 4 / Version 2
Размер файла : 32,7 Гбайт
Продолжительность : 1 ч. 59 м.
Общий поток : 39,2 Мбит/сек
Название фильма : Blisost.2020.BD-Remux.(1080p).Agentx
Дата кодирования : UTC 2020-07-04 10:33:34
Программа кодирования : mkvmerge v8.3.0 ('Over the Horizon') 64bit
Библиотека кодирования : libebml v1.3.1 + libmatroska v1.4.2
Видео
Идентификатор : 1
Формат : AVC
Формат/Информация : Advanced Video Codec
Профиль формата : High@L4.1
Настройки формата : CABAC / 4 Ref Frames
Параметр CABAC формата : Да
Параметр RefFrames формата : 4 кадра
Параметр GOP формата : M=3, N=12
Идентификатор кодека : V_MPEG4/ISO/AVC
Продолжительность : 1 ч. 59 м.
Вид битрейта : Постоянный
Битрейт : 36,0 Мбит/сек
Ширина : 1920 пикселей
Высота : 1080 пикселей
Соотношение сторон : 16:9
Режим частоты кадров : Постоянный
Частота кадров : 23,976 (24000/1001) кадра/сек
Цветовое пространство : YUV
Субдискретизация насыщенности : 4:2:0
Битовая глубина : 8 бит
Тип развёртки : Прогрессивная
Бит/(Пиксели*Кадры) : 0.724
Размер потока : 28,7 Гбайт (88%)
Заголовок : Blisost.2020.BD-Remux.(1080p).Agentx
Default : Нет
Forced : Нет
Аудио #1
Идентификатор : 2
Формат : AC-3
Формат/Информация : Audio Coding 3
Идентификатор кодека : A_AC3
Продолжительность : 1 ч. 59 м.
Вид битрейта : Постоянный
Битрейт : 384 Кбит/сек
Каналы : 2 канала
Расположение каналов : Front: L R
Частота : 48,0 КГц
Частота кадров : 31,250 кадров/сек (1536 SPF)
Битовая глубина : 16 бит
Метод сжатия : С потерями
Размер потока : 328 Мбайт (1%)
Заголовок : Двухголосый (LakeFilms)
Язык : Russian
ServiceKind/String : Complete Main
Default : Да
Forced : Нет
Аудио #2
Идентификатор : 3
Формат : DTS
Формат/Информация : Digital Theater Systems
Профиль формата : MA / Core
Идентификатор кодека : A_DTS
Продолжительность : 1 ч. 59 м.
Вид битрейта : Переменный / Постоянный
Битрейт : 2652 Кбит/сек / 1509 Кбит/сек
Каналы : 6 каналов
Расположение каналов : Front: L C R, Side: L R, LFE
Частота : 48,0 КГц
Частота кадров : 93,750 кадра/сек (512 SPF)
Битовая глубина : 24 бит
Метод сжатия : Без потерь / Lossy
Размер потока : 2,21 Гбайт (7%)
Язык : English
Default : Нет
Forced : Нет
Аудио #3
Идентификатор : 4
Формат : DTS
Формат/Информация : Digital Theater Systems
Профиль формата : MA / Core
Идентификатор кодека : A_DTS
Продолжительность : 1 ч. 59 м.
Вид битрейта : Переменный / Постоянный
Битрейт : 1659 Кбит/сек / 1509 Кбит/сек
Каналы : 2 канала
Расположение каналов : Front: L R
Частота : 48,0 КГц
Частота кадров : 93,750 кадра/сек (512 SPF)
Битовая глубина : 24 бит
Метод сжатия : Без потерь / Lossy
Размер потока : 1,38 Гбайт (4%)
Язык : English
Default : Нет
Forced : Нет
Текст #1
Идентификатор : 5
Формат : UTF-8
Идентификатор кодека : S_TEXT/UTF8
Идентификатор кодека/Информация : UTF-8 Plain Text
Продолжительность : 1 ч. 55 м.
Битрейт : 2 бит/сек
ElementCount : 42
Размер потока : 2,49 Кбайт (0%)
Заголовок : Forced
Язык : Russian
Default : Да
Forced : Нет
Текст #2
Идентификатор : 6
Формат : UTF-8
Идентификатор кодека : S_TEXT/UTF8
Идентификатор кодека/Информация : UTF-8 Plain Text
Продолжительность : 1 ч. 56 м.
Битрейт : 81 бит/сек
ElementCount : 1433
Размер потока : 69,2 Кбайт (0%)
Язык : Russian
Default : Нет
Forced : Нет
Текст #3
Идентификатор : 7
Формат : UTF-8
Идентификатор кодека : S_TEXT/UTF8
Идентификатор кодека/Информация : UTF-8 Plain Text
Продолжительность : 1 ч. 58 м.
Битрейт : 57 бит/сек
ElementCount : 1718
Размер потока : 49,4 Кбайт (0%)
Язык : English
Default : Нет
Forced : Нет
Текст #4
Идентификатор : 8
Формат : PGS
Режим смешивания : zlib
Идентификатор кодека : S_HDMV/PGS
Идентификатор кодека/Информация : Picture based subtitle format used on BDs/HD-DVDs
Продолжительность : 1 ч. 58 м.
Битрейт : 17,0 Кбит/сек
ElementCount : 2448
Размер потока : 14,4 Мбайт (0%)
Язык : English
Default : Нет
Forced : Нет
Меню
00:00:00.000 : en:Chapter 01
00:09:34.073 : en:Chapter 02
00:18:52.089 : en:Chapter 03
00:28:40.051 : en:Chapter 04
00:40:51.240 : en:Chapter 05
00:47:49.867 : en:Chapter 06
01:01:10.750 : en:Chapter 07
01:16:45.142 : en:Chapter 08
01:27:27.951 : en:Chapter 09
01:35:14.583 : en:Chapter 10
01:47:25.981 : en:Chapter 11
01:56:02.163 : en:Chapter 12
01:59:22.280 : en:Chapter 13

Скриншоты

       

Kon912

Post Yesterday 20:36

[Quote]

Близость / Proximity- Год выхода: 2020
Страна: США
Студия: Demeusy Pictures, Shout!Studios, Instrum International
Жанр: Фантастика, драма
Продолжительность: 01:59:22
Перевод: Любительский двухголосый | LakeFilms-Режиссер:
Эрик Демьюзи-В ролях:
Раян Мэссон, Хидли Куан, Кристиан Прентис, Шоу Джонс, Дон Скрибнер, Кристофер Мюррэй, Сара Навратил, Памела Холт, Кайли Контреари, Дэрин Купер, Джефф Дэвис, Тайлер Рой Робертс, Макс Катлер, Джереми Лосон, Блейн Грэй, Рэнди Дэвисон-О фильме:
Молодой ученый из НАСА Айзек фиксирует странный сигнал с одного из спутников. Когда он идет на место проверить источник сигнала, его похищают инопланетные существа. Вернувшись, он пытается рассказать о своем исчезновении другим людям, но ему никто не верит. Стремясь доказать правду, Айзек становится одержим поиском доказательств, и это приводит его к неожиданным открытиям..- -Качество: BDRip 1080p
Формат: MKV
Видео: MPEG-4 AVC, 14300 Кбит/с, 1920x812
Аудио 1: Русский (AC3, 2 ch, 384 Кбит/с) - Любительский двухголосый (LakeFilms)
Аудио 2: Английский (AC3, 6 ch, 640 Кбит/с) - Оригинал-

Mediainfo

Общее
Уникальный идентификатор : 253212539984664228660640328771686012563 (0xBE7EF61816FE91CBABB5A8C7FC1E9693)
Полное имя : G:\Хранимые раздачи BDRip (1080p, 720p)\Blisost.2020.BDRip.(720p).Agentx.mkv
Формат : Matroska
Версия формата : Version 4 / Version 2
Размер файла : 5,69 Гбайт
Продолжительность : 1 ч. 59 м.
Общий поток : 6827 Кбит/сек
Название фильма : Blisost.2020.BDRip.(720p).Agentx
Дата кодирования : UTC 2020-07-04 09:47:04
Программа кодирования : mkvmerge v8.3.0 ('Over the Horizon') 64bit
Библиотека кодирования : libebml v1.3.1 + libmatroska v1.4.2
Видео
Идентификатор : 1
Формат : AVC
Формат/Информация : Advanced Video Codec
Профиль формата : High@L4.1
Настройки формата : CABAC / 8 Ref Frames
Параметр CABAC формата : Да
Параметр RefFrames формата : 8 кадров
Идентификатор кодека : V_MPEG4/ISO/AVC
Продолжительность : 1 ч. 59 м.
Битрейт : 5784 Кбит/сек
Ширина : 1280 пикселей
Высота : 542 пикселя
Соотношение сторон : 2,35:1
Режим частоты кадров : Постоянный
Частота кадров : 23,976 (24000/1001) кадра/сек
Цветовое пространство : YUV
Субдискретизация насыщенности : 4:2:0
Битовая глубина : 8 бит
Тип развёртки : Прогрессивная
Бит/(Пиксели*Кадры) : 0.348
Размер потока : 4,82 Гбайт (85%)
Заголовок : Blisost.2020.BDRip.(720p).Agentx
Библиотека кодирования : x264 core 160 r3009 4c9b076
Настройки программы : cabac=1 / ref=8 / deblock=1:-3:-3 / analyse=0x3:0x133 / me=umh / subme=9 / psy=1 / psy_rd=1.00:0.00 / mixed_ref=1 / me_range=32 / chroma_me=1 / trellis=2 / 8x8dct=1 / cqm=0 / deadzone=21,11 / fast_pskip=0 / chroma_qp_offset=-2 / threads=17 / lookahead_threads=2 / sliced_threads=0 / nr=0 / decimate=0 / interlaced=0 / bluray_compat=0 / constrained_intra=0 / bframes=9 / b_pyramid=2 / b_adapt=2 / b_bias=0 / direct=3 / weightb=1 / open_gop=0 / weightp=2 / keyint=250 / keyint_min=23 / scenecut=40 / intra_refresh=0 / rc=crf / mbtree=0 / crf=15.5 / qcomp=0.60 / qpmin=0 / qpmax=69 / qpstep=4 / ip_ratio=1.35 / pb_ratio=1.25 / aq=3:0.88
Default : Да
Forced : Нет
Цветовой диапазон : Limited
Коэффициенты матрицы : BT.709
Аудио #1
Идентификатор : 2
Формат : AC-3
Формат/Информация : Audio Coding 3
Идентификатор кодека : A_AC3
Продолжительность : 1 ч. 59 м.
Вид битрейта : Постоянный
Битрейт : 384 Кбит/сек
Каналы : 2 канала
Расположение каналов : Front: L R
Частота : 48,0 КГц
Частота кадров : 31,250 кадров/сек (1536 SPF)
Битовая глубина : 16 бит
Метод сжатия : С потерями
Размер потока : 328 Мбайт (6%)
Заголовок : Двухголосый (LakeFilms)
Язык : Russian
ServiceKind/String : Complete Main
Default : Да
Forced : Нет
Аудио #2
Идентификатор : 3
Формат : AC-3
Формат/Информация : Audio Coding 3
Идентификатор кодека : A_AC3
Продолжительность : 1 ч. 59 м.
Вид битрейта : Постоянный
Битрейт : 640 Кбит/сек
Каналы : 6 каналов
Расположение каналов : Front: L C R, Side: L R, LFE
Частота : 48,0 КГц
Частота кадров : 31,250 кадров/сек (1536 SPF)
Битовая глубина : 16 бит
Метод сжатия : С потерями
Размер потока : 547 Мбайт (9%)
Язык : English
ServiceKind/String : Complete Main
Default : Нет
Forced : Нет
Текст #1
Идентификатор : 4
Формат : UTF-8
Идентификатор кодека : S_TEXT/UTF8
Идентификатор кодека/Информация : UTF-8 Plain Text
Продолжительность : 1 ч. 55 м.
Битрейт : 2 бит/сек
ElementCount : 42
Размер потока : 2,49 Кбайт (0%)
Заголовок : Forced
Язык : Russian
Default : Да
Forced : Нет
Текст #2
Идентификатор : 5
Формат : UTF-8
Идентификатор кодека : S_TEXT/UTF8
Идентификатор кодека/Информация : UTF-8 Plain Text
Продолжительность : 1 ч. 56 м.
Битрейт : 81 бит/сек
ElementCount : 1433
Размер потока : 69,2 Кбайт (0%)
Язык : Russian
Default : Нет
Forced : Нет
Текст #3
Идентификатор : 6
Формат : UTF-8
Идентификатор кодека : S_TEXT/UTF8
Идентификатор кодека/Информация : UTF-8 Plain Text
Продолжительность : 1 ч. 58 м.
Битрейт : 48 бит/сек
ElementCount : 1545
Размер потока : 42,0 Кбайт (0%)
Язык : English
Default : Нет
Forced : Нет
Текст #4
Идентификатор : 7
Формат : PGS
Режим смешивания : zlib
Идентификатор кодека : S_HDMV/PGS
Идентификатор кодека/Информация : Picture based subtitle format used on BDs/HD-DVDs
Продолжительность : 1 ч. 58 м.
Битрейт : 17,0 Кбит/сек
ElementCount : 2448
Размер потока : 14,4 Мбайт (0%)
Язык : English
Default : Нет
Forced : Нет
Меню
00:00:00.000 : en:Chapter 01
00:09:34.407 : en:Chapter 02
00:18:51.964 : en:Chapter 03
00:28:40.135 : en:Chapter 04
00:40:51.491 : en:Chapter 05
00:47:50.117 : en:Chapter 06
01:01:11.126 : en:Chapter 07
01:16:45.267 : en:Chapter 08
01:27:28.243 : en:Chapter 09
01:35:14.709 : en:Chapter 10
01:47:26.106 : en:Chapter 11
01:56:02.372 : en:Chapter 12

Скриншоты

       

Kon912

Post Yesterday 20:35

[Quote]

Близость / Proximity- Год выхода: 2020
Страна: США
Студия: Demeusy Pictures, Shout!Studios, Instrum International
Жанр: Фантастика, драма
Продолжительность: 01:59:22
Перевод: Любительский двухголосый | LakeFilms-Режиссер:
Эрик Демьюзи-В ролях:
Раян Мэссон, Хидли Куан, Кристиан Прентис, Шоу Джонс, Дон Скрибнер, Кристофер Мюррэй, Сара Навратил, Памела Холт, Кайли Контреари, Дэрин Купер, Джефф Дэвис, Тайлер Рой Робертс, Макс Катлер, Джереми Лосон, Блейн Грэй, Рэнди Дэвисон-О фильме:
Молодой ученый из НАСА Айзек фиксирует странный сигнал с одного из спутников. Когда он идет на место проверить источник сигнала, его похищают инопланетные существа. Вернувшись, он пытается рассказать о своем исчезновении другим людям, но ему никто не верит. Стремясь доказать правду, Айзек становится одержим поиском доказательств, и это приводит его к неожиданным открытиям..- -Качество: BDRip 720p
Формат: MKV
Видео: MPEG-4 AVC, 5784 Кбит/с, 1280x542
Аудио 1: Русский (AC3, 2 ch, 384 Кбит/с) - Любительский двухголосый (LakeFilms)
Аудио 2: Английский (AC3, 6 ch, 640 Кбит/с) - Оригинал-

Mediainfo

Общее
Уникальный идентификатор : 253212539984664228660640328771686012563 (0xBE7EF61816FE91CBABB5A8C7FC1E9693)
Полное имя : G:\Хранимые раздачи BDRip (1080p, 720p)\Blisost.2020.BDRip.(720p).Agentx.mkv
Формат : Matroska
Версия формата : Version 4 / Version 2
Размер файла : 5,69 Гбайт
Продолжительность : 1 ч. 59 м.
Общий поток : 6827 Кбит/сек
Название фильма : Blisost.2020.BDRip.(720p).Agentx
Дата кодирования : UTC 2020-07-04 09:47:04
Программа кодирования : mkvmerge v8.3.0 ('Over the Horizon') 64bit
Библиотека кодирования : libebml v1.3.1 + libmatroska v1.4.2
Видео
Идентификатор : 1
Формат : AVC
Формат/Информация : Advanced Video Codec
Профиль формата : High@L4.1
Настройки формата : CABAC / 8 Ref Frames
Параметр CABAC формата : Да
Параметр RefFrames формата : 8 кадров
Идентификатор кодека : V_MPEG4/ISO/AVC
Продолжительность : 1 ч. 59 м.
Битрейт : 5784 Кбит/сек
Ширина : 1280 пикселей
Высота : 542 пикселя
Соотношение сторон : 2,35:1
Режим частоты кадров : Постоянный
Частота кадров : 23,976 (24000/1001) кадра/сек
Цветовое пространство : YUV
Субдискретизация насыщенности : 4:2:0
Битовая глубина : 8 бит
Тип развёртки : Прогрессивная
Бит/(Пиксели*Кадры) : 0.348
Размер потока : 4,82 Гбайт (85%)
Заголовок : Blisost.2020.BDRip.(720p).Agentx
Библиотека кодирования : x264 core 160 r3009 4c9b076
Настройки программы : cabac=1 / ref=8 / deblock=1:-3:-3 / analyse=0x3:0x133 / me=umh / subme=9 / psy=1 / psy_rd=1.00:0.00 / mixed_ref=1 / me_range=32 / chroma_me=1 / trellis=2 / 8x8dct=1 / cqm=0 / deadzone=21,11 / fast_pskip=0 / chroma_qp_offset=-2 / threads=17 / lookahead_threads=2 / sliced_threads=0 / nr=0 / decimate=0 / interlaced=0 / bluray_compat=0 / constrained_intra=0 / bframes=9 / b_pyramid=2 / b_adapt=2 / b_bias=0 / direct=3 / weightb=1 / open_gop=0 / weightp=2 / keyint=250 / keyint_min=23 / scenecut=40 / intra_refresh=0 / rc=crf / mbtree=0 / crf=15.5 / qcomp=0.60 / qpmin=0 / qpmax=69 / qpstep=4 / ip_ratio=1.35 / pb_ratio=1.25 / aq=3:0.88
Default : Да
Forced : Нет
Цветовой диапазон : Limited
Коэффициенты матрицы : BT.709
Аудио #1
Идентификатор : 2
Формат : AC-3
Формат/Информация : Audio Coding 3
Идентификатор кодека : A_AC3
Продолжительность : 1 ч. 59 м.
Вид битрейта : Постоянный
Битрейт : 384 Кбит/сек
Каналы : 2 канала
Расположение каналов : Front: L R
Частота : 48,0 КГц
Частота кадров : 31,250 кадров/сек (1536 SPF)
Битовая глубина : 16 бит
Метод сжатия : С потерями
Размер потока : 328 Мбайт (6%)
Заголовок : Двухголосый (LakeFilms)
Язык : Russian
ServiceKind/String : Complete Main
Default : Да
Forced : Нет
Аудио #2
Идентификатор : 3
Формат : AC-3
Формат/Информация : Audio Coding 3
Идентификатор кодека : A_AC3
Продолжительность : 1 ч. 59 м.
Вид битрейта : Постоянный
Битрейт : 640 Кбит/сек
Каналы : 6 каналов
Расположение каналов : Front: L C R, Side: L R, LFE
Частота : 48,0 КГц
Частота кадров : 31,250 кадров/сек (1536 SPF)
Битовая глубина : 16 бит
Метод сжатия : С потерями
Размер потока : 547 Мбайт (9%)
Язык : English
ServiceKind/String : Complete Main
Default : Нет
Forced : Нет
Текст #1
Идентификатор : 4
Формат : UTF-8
Идентификатор кодека : S_TEXT/UTF8
Идентификатор кодека/Информация : UTF-8 Plain Text
Продолжительность : 1 ч. 55 м.
Битрейт : 2 бит/сек
ElementCount : 42
Размер потока : 2,49 Кбайт (0%)
Заголовок : Forced
Язык : Russian
Default : Да
Forced : Нет
Текст #2
Идентификатор : 5
Формат : UTF-8
Идентификатор кодека : S_TEXT/UTF8
Идентификатор кодека/Информация : UTF-8 Plain Text
Продолжительность : 1 ч. 56 м.
Битрейт : 81 бит/сек
ElementCount : 1433
Размер потока : 69,2 Кбайт (0%)
Язык : Russian
Default : Нет
Forced : Нет
Текст #3
Идентификатор : 6
Формат : UTF-8
Идентификатор кодека : S_TEXT/UTF8
Идентификатор кодека/Информация : UTF-8 Plain Text
Продолжительность : 1 ч. 58 м.
Битрейт : 48 бит/сек
ElementCount : 1545
Размер потока : 42,0 Кбайт (0%)
Язык : English
Default : Нет
Forced : Нет
Текст #4
Идентификатор : 7
Формат : PGS
Режим смешивания : zlib
Идентификатор кодека : S_HDMV/PGS
Идентификатор кодека/Информация : Picture based subtitle format used on BDs/HD-DVDs
Продолжительность : 1 ч. 58 м.
Битрейт : 17,0 Кбит/сек
ElementCount : 2448
Размер потока : 14,4 Мбайт (0%)
Язык : English
Default : Нет
Forced : Нет
Меню
00:00:00.000 : en:Chapter 01
00:09:34.407 : en:Chapter 02
00:18:51.964 : en:Chapter 03
00:28:40.135 : en:Chapter 04
00:40:51.491 : en:Chapter 05
00:47:50.117 : en:Chapter 06
01:01:11.126 : en:Chapter 07
01:16:45.267 : en:Chapter 08
01:27:28.243 : en:Chapter 09
01:35:14.709 : en:Chapter 10
01:47:26.106 : en:Chapter 11
01:56:02.372 : en:Chapter 12

Скриншоты

       

Kon912

Post 03-Jul-2020 23:53

[Quote]

Эма: Танец страсти / Ema- Год выхода: 2019
Страна: Чили
Студия: FABULA
Продолжительность: 01:46:59
Жанр: Драма, музыка
Перевод: Профессиональный многоголосый | iTunes-Режиссер:
Пабло Ларраин-В ролях:
Мариана Ди Джироламо, Гаэль Гарсиа Берналь, Сантьяго Кабрера, Хосефина Фьебелькорн, Джаннина Фруттеро, Паола Джаннини, Антония Гизен, Сусана Идальго, Паула Хофманн, Мариана Лойола-О фильме:
После того, как шокирующий инцидент разрушает ее брак с хореографом Гастоном, танцовщица Эма погружается в мир реггетона — уличного танцевального и музыкального стиля. Новый творческий путь становится для нее одиссеей страсти, желания, освобождения и обретения себя.- -Качество: BDRemux 1080p
Формат: MKV
Видео: MPEG-4 AVC, 1920x1080, 33.2 Mbit/s, 24.000 fps
Аудио #01: 48 kHz, AC3, 5.1, 384 Kbps | iTunes | RUS |
Аудио #02: 48 kHz, DTS-HD MA, 5.1, 3546 Kbps | Оригинал | SPA |
Субтитры: Английские, французские-

Скриншоты

     

MI

General
Unique ID : 101296753303936672999790940899155917459 (0x4C350B881DDF4462D286FADABFC03A93)
Complete name : E:Video111BackupEma.2019.BDREMUX.1080p.seleZen.mkv
Format : Matroska
Format version : Version 4
File size : 27.8 GiB
Duration : 1 h 46 min
Overall bit rate mode : Variable
Overall bit rate : 37.2 Mb/s
Movie name : Ema 2019 from селезень
Encoded date : UTC 2020-07-03 16:17:07
Writing application : mkvmerge v40.0.0 ('Old Town Road + Pony') 64-bit
Writing library : libebml v1.3.9 + libmatroska v1.5.2
Video
ID : 1
Format : AVC
Format/Info : Advanced Video Codec
Format profile : High@L4.1
Format settings : CABAC / 4 Ref Frames
Format settings, CABAC : Yes
Format settings, Reference frames : 4 frames
Format settings, GOP : M=3, N=24
Codec ID : V_MPEG4/ISO/AVC
Duration : 1 h 46 min
Bit rate mode : Constant
Bit rate : 33.2 Mb/s
Nominal bit rate : 35.0 Mb/s
Width : 1 920 pixels
Height : 1 080 pixels
Display aspect ratio : 16:9
Frame rate mode : Constant
Frame rate : 24.000 FPS
Standard : NTSC
Color space : YUV
Chroma subsampling : 4:2:0
Bit depth : 8 bits
Scan type : Progressive
Bits/(Pixel*Frame) : 0.668
Stream size : 24.8 GiB (89%)
Language : Spanish
Default : Yes
Forced : No
Color range : Limited
Color primaries : BT.709
Transfer characteristics : BT.709
Matrix coefficients : BT.709
Audio #1
ID : 2
Format : AC-3
Format/Info : Audio Coding 3
Commercial name : Dolby Digital
Codec ID : A_AC3
Duration : 1 h 46 min
Bit rate mode : Constant
Bit rate : 384 kb/s
Channel(s) : 6 channels
Channel layout : L R C LFE Ls Rs
Sampling rate : 48.0 kHz
Frame rate : 31.250 FPS (1536 SPF)
Compression mode : Lossy
Stream size : 294 MiB (1%)
Title : iTunes
Language : Russian
Service kind : Complete Main
Default : Yes
Forced : Yes
Audio #2
ID : 3
Format : DTS XLL
Format/Info : Digital Theater Systems
Commercial name : DTS-HD Master Audio
Codec ID : A_DTS
Duration : 1 h 46 min
Bit rate mode : Variable
Bit rate : 3 546 kb/s
Channel(s) : 6 channels
Channel layout : C L R Ls Rs LFE
Sampling rate : 48.0 kHz
Frame rate : 93.750 FPS (512 SPF)
Bit depth : 24 bits
Compression mode : Lossless
Stream size : 2.65 GiB (10%)
Title : Original
Language : Spanish
Default : No
Forced : No
Text #1
ID : 4
Format : UTF-8
Codec ID : S_TEXT/UTF8
Codec ID/Info : UTF-8 Plain Text
Duration : 1 h 37 min
Bit rate : 47 b/s
Count of elements : 1062
Stream size : 34.2 KiB (0%)
Title : Full
Language : English
Default : No
Forced : No
Text #2
ID : 5
Format : UTF-8
Codec ID : S_TEXT/UTF8
Codec ID/Info : UTF-8 Plain Text
Duration : 1 h 37 min
Bit rate : 50 b/s
Count of elements : 1056
Stream size : 36.0 KiB (0%)
Title : Full
Language : French
Default : No
Forced : No
Menu
00:00:00.000 : es:Глава 01
00:09:27.792 : es:Глава 02
00:19:21.750 : es:Глава 03
00:29:46.542 : es:Глава 04
00:38:21.042 : es:Глава 05
00:51:14.250 : es:Глава 06
00:59:43.625 : es:Глава 07
01:06:22.042 : es:Глава 08
01:14:13.167 : es:Глава 09
01:25:43.208 : es:Глава 10
01:34:45.708 : es:Глава 11
01:43:10.625 : es:Глава 12
Релиз от:

Kon912

Post 03-Jul-2020 23:53

[Quote]

Эма: Танец страсти / Ema- Год выхода: 2019
Страна: Чили
Студия: FABULA
Продолжительность: 01:46:59
Жанр: Драма, музыка
Перевод: Профессиональный многоголосый | iTunes-Режиссер:
Пабло Ларраин-В ролях:
Мариана Ди Джироламо, Гаэль Гарсиа Берналь, Сантьяго Кабрера, Хосефина Фьебелькорн, Джаннина Фруттеро, Паола Джаннини, Антония Гизен, Сусана Идальго, Паула Хофманн, Мариана Лойола-О фильме:
После того, как шокирующий инцидент разрушает ее брак с хореографом Гастоном, танцовщица Эма погружается в мир реггетона — уличного танцевального и музыкального стиля. Новый творческий путь становится для нее одиссеей страсти, желания, освобождения и обретения себя.- -Качество: BDRip 1080p
Формат: MKV
Видео: MPEG-4 AVC, 1920x806, 10.5 Mbit/s, 24.000 fps
Аудио #01: 48 kHz, AC3, 5.1, 384 Kbps | iTunes | RUS |
Аудио #02: 48 kHz, AC3, 5.1, 640 Kbps | Оригинал | SPA |
Субтитры: Английские, французские-

Скриншоты

     

MI

General
Unique ID : 134016561878896059583564660964797198847 (0x64D2A6A51823FAE544DE95D1D4E031FF)
Complete name : E:Video111Ema.2019.BDRip.1080p.seleZen.mkv
Format : Matroska
Format version : Version 4
File size : 8.58 GiB
Duration : 1 h 46 min
Overall bit rate : 11.5 Mb/s
Movie name : Ema 2019 from селезень
Encoded date : UTC 2020-07-03 18:46:35
Writing application : mkvmerge v40.0.0 ('Old Town Road + Pony') 64-bit
Writing library : libebml v1.3.9 + libmatroska v1.5.2
Video
ID : 1
Format : AVC
Format/Info : Advanced Video Codec
Format profile : High@L4.1
Format settings : CABAC / 5 Ref Frames
Format settings, CABAC : Yes
Format settings, Reference frames : 5 frames
Codec ID : V_MPEG4/ISO/AVC
Duration : 1 h 46 min
Bit rate : 10.5 Mb/s
Width : 1 920 pixels
Height : 806 pixels
Display aspect ratio : 2.40:1
Frame rate mode : Constant
Frame rate : 24.000 FPS
Color space : YUV
Chroma subsampling : 4:2:0
Bit depth : 8 bits
Scan type : Progressive
Bits/(Pixel*Frame) : 0.281
Stream size : 7.81 GiB (91%)
Title : Encoded by seleZen
Writing library : x264 core 142 r2431+42 c69a006 tMod [8-bit@all X86_64]
Encoding settings : cabac=1 / ref=5 / deblock=1:-2:-2 / analyse=0x3:0x133 / me=umh / subme=10 / psy=1 / fade_compensate=0.00 / psy_rd=1.00:0.00 / mixed_ref=1 / me_range=32 / chroma_me=1 / trellis=2 / 8x8dct=1 / cqm=0 / deadzone=21,11 / fast_pskip=0 / chroma_qp_offset=-2 / threads=24 / lookahead_threads=4 / sliced_threads=0 / nr=0 / decimate=0 / interlaced=0 / bluray_compat=0 / constrained_intra=0 / fgo=0 / bframes=9 / b_pyramid=2 / b_adapt=2 / b_bias=0 / direct=3 / weightb=1 / open_gop=0 / weightp=2 / keyint=240 / keyint_min=24 / scenecut=40 / intra_refresh=0 / rc_lookahead=50 / rc=crf / mbtree=0 / crf=16.8000 / qcomp=0.60 / qpmin=0:0:0 / qpmax=51:51:51 / qpstep=4 / vbv_maxrate=50000 / vbv_bufsize=62500 / crf_max=0.0 / nal_hrd=none / filler=0 / ip_ratio=1.40 / pb_ratio=1.30 / aq=3:0.80 / aq-sensitivity=10.00 / aq-factor=1.00:1.00:1.00 / aq2=0 / aq3=0
Language : English
Default : Yes
Forced : No
Audio #1
ID : 2
Format : AC-3
Format/Info : Audio Coding 3
Commercial name : Dolby Digital
Codec ID : A_AC3
Duration : 1 h 46 min
Bit rate mode : Constant
Bit rate : 384 kb/s
Channel(s) : 6 channels
Channel layout : L R C LFE Ls Rs
Sampling rate : 48.0 kHz
Frame rate : 31.250 FPS (1536 SPF)
Compression mode : Lossy
Stream size : 294 MiB (3%)
Title : iTunes
Language : Russian
Service kind : Complete Main
Default : Yes
Forced : Yes
Audio #2
ID : 3
Format : AC-3
Format/Info : Audio Coding 3
Commercial name : Dolby Digital
Codec ID : A_AC3
Duration : 1 h 46 min
Bit rate mode : Constant
Bit rate : 640 kb/s
Channel(s) : 6 channels
Channel layout : L R C LFE Ls Rs
Sampling rate : 48.0 kHz
Frame rate : 31.250 FPS (1536 SPF)
Compression mode : Lossy
Stream size : 490 MiB (6%)
Title : Original
Language : Spanish
Service kind : Complete Main
Default : No
Forced : No
Text #1
ID : 4
Format : UTF-8
Codec ID : S_TEXT/UTF8
Codec ID/Info : UTF-8 Plain Text
Duration : 1 h 37 min
Bit rate : 47 b/s
Count of elements : 1062
Stream size : 34.2 KiB (0%)
Title : Full
Language : English
Default : No
Forced : No
Text #2
ID : 5
Format : UTF-8
Codec ID : S_TEXT/UTF8
Codec ID/Info : UTF-8 Plain Text
Duration : 1 h 37 min
Bit rate : 50 b/s
Count of elements : 1056
Stream size : 36.0 KiB (0%)
Title : Full
Language : French
Default : No
Forced : No
Menu
00:00:00.000 : es:Глава 01
00:09:27.792 : es:Глава 02
00:19:21.750 : es:Глава 03
00:29:46.542 : es:Глава 04
00:38:21.042 : es:Глава 05
00:51:14.250 : es:Глава 06
00:59:43.625 : es:Глава 07
01:06:22.042 : es:Глава 08
01:14:13.167 : es:Глава 09
01:25:43.208 : es:Глава 10
01:34:45.708 : es:Глава 11
01:43:10.625 : es:Глава 12
Релиз от:

Kon912

Post 03-Jul-2020 23:52

[Quote]

Эма: Танец страсти / Ema- Год выхода: 2019
Страна: Чили
Студия: FABULA
Продолжительность: 01:46:59
Жанр: Драма, музыка
Перевод: Профессиональный многоголосый | iTunes-Режиссер:
Пабло Ларраин-В ролях:
Мариана Ди Джироламо, Гаэль Гарсиа Берналь, Сантьяго Кабрера, Хосефина Фьебелькорн, Джаннина Фруттеро, Паола Джаннини, Антония Гизен, Сусана Идальго, Паула Хофманн, Мариана Лойола-О фильме:
После того, как шокирующий инцидент разрушает ее брак с хореографом Гастоном, танцовщица Эма погружается в мир реггетона — уличного танцевального и музыкального стиля. Новый творческий путь становится для нее одиссеей страсти, желания, освобождения и обретения себя.- -Качество: BDRip 720p
Формат: MKV
Видео: MPEG-4 AVC, 1280x538, 3209 Кbit/s, 24.000 fps
Аудио #01: 48 kHz, AC3, 5.1, 384 Kbps | iTunes | RUS |
Аудио #02: 48 kHz, AC3, 5.1, 640 Kbps | Оригинал | SPA |
Субтитры: Английские, французские-

Скриншоты

     

MI

General
Unique ID : 80752132534831660903299742678416875130 (0x3CC04B85EB55542458DFE1C8B44BDE7A)
Complete name : E:Video111Ema.2019.BDRip.720p.seleZen.mkv
Format : Matroska
Format version : Version 4
File size : 3.17 GiB
Duration : 1 h 46 min
Overall bit rate : 4 236 kb/s
Movie name : Ema 2019 from селезень
Encoded date : UTC 2020-07-03 20:09:07
Writing application : mkvmerge v40.0.0 ('Old Town Road + Pony') 64-bit
Writing library : libebml v1.3.9 + libmatroska v1.5.2
Video
ID : 1
Format : AVC
Format/Info : Advanced Video Codec
Format profile : High@L4.1
Format settings : CABAC / 12 Ref Frames
Format settings, CABAC : Yes
Format settings, Reference frames : 12 frames
Codec ID : V_MPEG4/ISO/AVC
Duration : 1 h 46 min
Bit rate : 3 209 kb/s
Width : 1 280 pixels
Height : 538 pixels
Display aspect ratio : 2.40:1
Frame rate mode : Constant
Frame rate : 24.000 FPS
Color space : YUV
Chroma subsampling : 4:2:0
Bit depth : 8 bits
Scan type : Progressive
Bits/(Pixel*Frame) : 0.194
Stream size : 2.40 GiB (76%)
Title : Encoded by seleZen
Writing library : x264 core 142 r2431+42 c69a006 tMod [8-bit@all X86_64]
Encoding settings : cabac=1 / ref=12 / deblock=1:-2:-2 / analyse=0x3:0x133 / me=umh / subme=10 / psy=1 / fade_compensate=0.00 / psy_rd=1.00:0.00 / mixed_ref=1 / me_range=32 / chroma_me=1 / trellis=2 / 8x8dct=1 / cqm=0 / deadzone=21,11 / fast_pskip=0 / chroma_qp_offset=-2 / threads=24 / lookahead_threads=4 / sliced_threads=0 / nr=0 / decimate=0 / interlaced=0 / bluray_compat=0 / constrained_intra=0 / fgo=0 / bframes=9 / b_pyramid=2 / b_adapt=2 / b_bias=0 / direct=3 / weightb=1 / open_gop=0 / weightp=2 / keyint=240 / keyint_min=24 / scenecut=40 / intra_refresh=0 / rc_lookahead=50 / rc=crf / mbtree=0 / crf=16.8000 / qcomp=0.60 / qpmin=0:0:0 / qpmax=51:51:51 / qpstep=4 / vbv_maxrate=50000 / vbv_bufsize=62500 / crf_max=0.0 / nal_hrd=none / filler=0 / ip_ratio=1.40 / pb_ratio=1.30 / aq=3:0.80 / aq-sensitivity=10.00 / aq-factor=1.00:1.00:1.00 / aq2=0 / aq3=0
Language : English
Default : Yes
Forced : No
Audio #1
ID : 2
Format : AC-3
Format/Info : Audio Coding 3
Commercial name : Dolby Digital
Codec ID : A_AC3
Duration : 1 h 46 min
Bit rate mode : Constant
Bit rate : 384 kb/s
Channel(s) : 6 channels
Channel layout : L R C LFE Ls Rs
Sampling rate : 48.0 kHz
Frame rate : 31.250 FPS (1536 SPF)
Compression mode : Lossy
Stream size : 294 MiB (9%)
Title : iTunes
Language : Russian
Service kind : Complete Main
Default : Yes
Forced : Yes
Audio #2
ID : 3
Format : AC-3
Format/Info : Audio Coding 3
Commercial name : Dolby Digital
Codec ID : A_AC3
Duration : 1 h 46 min
Bit rate mode : Constant
Bit rate : 640 kb/s
Channel(s) : 6 channels
Channel layout : L R C LFE Ls Rs
Sampling rate : 48.0 kHz
Frame rate : 31.250 FPS (1536 SPF)
Compression mode : Lossy
Stream size : 490 MiB (15%)
Title : Original
Language : Spanish
Service kind : Complete Main
Default : No
Forced : No
Text #1
ID : 4
Format : UTF-8
Codec ID : S_TEXT/UTF8
Codec ID/Info : UTF-8 Plain Text
Duration : 1 h 37 min
Bit rate : 47 b/s
Count of elements : 1062
Stream size : 34.2 KiB (0%)
Title : Full
Language : English
Default : No
Forced : No
Text #2
ID : 5
Format : UTF-8
Codec ID : S_TEXT/UTF8
Codec ID/Info : UTF-8 Plain Text
Duration : 1 h 37 min
Bit rate : 50 b/s
Count of elements : 1056
Stream size : 36.0 KiB (0%)
Title : Full
Language : French
Default : No
Forced : No
Menu
00:00:00.000 : es:Глава 01
00:09:27.792 : es:Глава 02
00:19:21.750 : es:Глава 03
00:29:46.542 : es:Глава 04
00:38:21.042 : es:Глава 05
00:51:14.250 : es:Глава 06
00:59:43.625 : es:Глава 07
01:06:22.042 : es:Глава 08
01:14:13.167 : es:Глава 09
01:25:43.208 : es:Глава 10
01:34:45.708 : es:Глава 11
01:43:10.625 : es:Глава 12
Релиз от:

Kon912

Post 02-Jul-2020 19:34

[Quote]

Киллер / Killerman- Год выхода: 2019
Страна: США
Жанр: Боевик, триллер, драма, криминал, детектив
Продолжительность: 01:52:28
Перевод: Профессиональный (многоголосый закадровый) | Онлайн кинотеатр-Режиссер:
Малик Бейдер-В ролях:
Лиам Хемсворт, Эмори Коэн, Дайан Герреро, Златко Бурич, Сурадж Шарма, Никола Шкрели, Майк Мо, Джон Ченатьемпо, Сулейман Си Саване, Стиви Паскоски и др.-О фильме:
Двое друзей промышляют отмыванием денег. Однажды они проворачивают сделку с наркоторговцами, во время которой все идет не по плану: один из друзей теряет память. Пока он пытается всё вспомнить, за ним охотятся опасные преступники и продажные полицейские.- -Качество: BDRip 1080p | Killerman 2019 1080p Blu-ray Remux AVC TrueHD 5.1 - KRaLiMaRKo
Формат: MKV
Видео: x264, 1280x536, 7491 kbps, 23,976 fps
Звук#1: русский, AC3, 2.0 ch, 48 kHz, 192 kbps | Онлайн кинотеатр
Звук#2: английский, AC3, 5.1 ch, 48 kHz, 448 kbps | Оригинал
Субтитры: английские (SDH)-

Скриншоты

       

Kon912

Post 02-Jul-2020 19:31

[Quote]

Киллер / Killerman- Год выхода: 2019
Страна: США
Жанр: Боевик, триллер, драма, криминал, детектив
Продолжительность: 01:52:28
Перевод: Профессиональный (многоголосый закадровый) | Онлайн кинотеатр-Режиссер:
Малик Бейдер-В ролях:
Лиам Хемсворт, Эмори Коэн, Дайан Герреро, Златко Бурич, Сурадж Шарма, Никола Шкрели, Майк Мо, Джон Ченатьемпо, Сулейман Си Саване, Стиви Паскоски и др.-О фильме:
Двое друзей промышляют отмыванием денег. Однажды они проворачивают сделку с наркоторговцами, во время которой все идет не по плану: один из друзей теряет память. Пока он пытается всё вспомнить, за ним охотятся опасные преступники и продажные полицейские.- -Качество: BDRip 1080p | Killerman 2019 1080p Blu-ray Remux AVC TrueHD 5.1 - KRaLiMaRKo
Формат: MKV
Видео: x264, 1920x804, 16804 kbps, 23,976 fps
Звук#1: русский, AC3, 2.0 ch, 48 kHz, 192 kbps | Онлайн кинотеатр
Звук#2: английский, AC3, 5.1 ch, 48 kHz, 448 kbps | Оригинал
Субтитры: английские (SDH)-

MI

Общее
Уникальный идентификатор : 199080908706214303866538177388761558088 (0x95C5969DAAD3BA66A228A071F8EFAC48)
Полное имя : E:Torrent4KillerBDRip1080p.mkv
Формат : Matroska
Версия формата : Version 4 / Version 2
Размер файла : 13,7 Гбайт
Продолжительность : 1 ч. 52 м.
Общий поток : 17,4 Мбит/сек
Дата кодирования : UTC 2020-07-02 11:05:10
Программа кодирования : mkvmerge v9.5.0 ('Quiet Fire') 64bit
Библиотека кодирования : libebml v1.3.4 + libmatroska v1.4.5
Видео
Идентификатор : 1
Формат : AVC
Формат/Информация : Advanced Video Codec
Профиль формата : High@L4.1
Настройки формата : CABAC / 5 Ref Frames
Параметр CABAC формата : Да
Параметр RefFrames формата : 5 кадров
Идентификатор кодека : V_MPEG4/ISO/AVC
Продолжительность : 1 ч. 52 м.
Битрейт : 16,8 Мбит/сек
Ширина : 1920 пикселей
Высота : 804 пикселя
Соотношение сторон : 2,40:1
Режим частоты кадров : Постоянный
Частота кадров : 23,976 (23976/1000) кадра/сек
Цветовое пространство : YUV
Субдискретизация насыщенности : 4:2:0
Битовая глубина : 8 бит
Тип развёртки : Прогрессивная
Бит/(Пиксели*Кадры) : 0.454
Размер потока : 13,2 Гбайт (96%)
Заголовок : Sisendrovich(R)
Библиотека кодирования : x264 core 159 r2991 1771b55
Настройки программы : cabac=1 / ref=5 / deblock=1:-1:-1 / analyse=0x3:0x133 / me=tesa / subme=11 / psy=1 / psy_rd=1.00:0.00 / mixed_ref=1 / me_range=32 / chroma_me=1 / trellis=2 / 8x8dct=1 / cqm=0 / deadzone=21,11 / fast_pskip=0 / chroma_qp_offset=-2 / threads=24 / lookahead_threads=6 / sliced_threads=0 / nr=0 / decimate=0 / interlaced=0 / bluray_compat=0 / constrained_intra=0 / bframes=12 / b_pyramid=2 / b_adapt=2 / b_bias=0 / direct=3 / weightb=1 / open_gop=0 / weightp=2 / keyint=240 / keyint_min=23 / scenecut=40 / intra_refresh=0 / rc_lookahead=60 / rc=2pass / mbtree=0 / bitrate=16804 / ratetol=1.0 / qcomp=0.70 / qpmin=0 / qpmax=69 / qpstep=4 / cplxblur=20.0 / qblur=0.5 / vbv_maxrate=50000 / vbv_bufsize=62500 / nal_hrd=none / filler=0 / ip_ratio=1.40 / pb_ratio=1.30 / aq=3:0.90
Язык : English
Default : Да
Forced : Нет
Аудио #1
Идентификатор : 2
Формат : AC-3
Формат/Информация : Audio Coding 3
Параметр Endianness формата : Big
Идентификатор кодека : A_AC3
Продолжительность : 1 ч. 52 м.
Вид битрейта : Постоянный
Битрейт : 192 Кбит/сек
Каналы : 2 канала
Расположение каналов : Front: L R
Частота : 48,0 КГц
Частота кадров : 31,250 кадров/сек (1536 SPF)
Битовая глубина : 16 бит
Метод сжатия : С потерями
Размер потока : 155 Мбайт (1%)
Заголовок : rus
Язык : Russian
Default : Да
Forced : Нет
Аудио #2
Идентификатор : 3
Формат : AC-3
Формат/Информация : Audio Coding 3
Параметр Endianness формата : Big
Идентификатор кодека : A_AC3
Продолжительность : 1 ч. 52 м.
Вид битрейта : Постоянный
Битрейт : 448 Кбит/сек
Каналы : 6 каналов
Расположение каналов : Front: L C R, Side: L R, LFE
Частота : 48,0 КГц
Частота кадров : 31,250 кадров/сек (1536 SPF)
Битовая глубина : 16 бит
Метод сжатия : С потерями
Размер потока : 360 Мбайт (3%)
Заголовок : eng
Язык : English
Default : Нет
Forced : Нет
Текст
Идентификатор : 4
Формат : UTF-8
Идентификатор кодека : S_TEXT/UTF8
Идентификатор кодека/Информация : UTF-8 Plain Text
Продолжительность : 1 ч. 46 м.
Битрейт : 44 бит/сек
ElementCount : 1358
Размер потока : 34,3 Кбайт (0%)
Заголовок : engSDH
Язык : English
Default : Нет
Forced : Нет
Меню
00:00:00.000 : :Chapter 01
00:15:39.689 : :Chapter 02
00:29:56.962 : :Chapter 03
00:44:29.876 : :Chapter 04
00:59:33.528 : :Chapter 05
01:13:39.665 : :Chapter 06
01:28:43.109 : :Chapter 07
01:46:18.038 : :Chapter 08

Скриншоты

       

Kon912

Post 01-Jul-2020 23:26

[Quote]

Ночной портье / Ночной клерк / The Night Clerk- Год выхода: 2020
Страна: США
Студия: Highland Film Group (HFG), WulfPak Productions
Жанр: Драма, криминал
Продолжительность: 01:30:12
Перевод: Дублированный | iTunes-Режиссер:
Майкл Кристофер-В ролях:
Тай Шеридан, Ана де Армас, Хелен Хант, Джон Легуизамо, Джонатон Шек, Жак Грэй, Джои Миясима, Остин Арчер, Уолтер Платц-О фильме:
Ночной клерк Барт Бромли — парень с аутическим расстройством личности. Это сказывается на его вербальных и социальных навыках, поэтому он каждую рабочую смену наблюдает за постояльцами отеля через скрытые камеры, установленные им в номерах. Он тщательно копирует мимику и запоминает шаблонные фразы, чтобы затем использовать их в общении с клиентами. Когда в отеле происходит убийство девушки, Барта берет в оборот жесткий полицейский, пытающийся выбить из него признание вины.- -Качество: BDRemux 1080p
Формат: MKV
Видео: MPEG-4 AVC, 1920x1080, 29.0 Mbit/s, 23.976 fps
Аудио #01: 48 kHz, AC3, 5.1, 384 Kbps | iTunes | RUS |
Аудио #02: 48 kHz, DTS-HD MA, 5.1, 1678 Kbps | Оригинал | ENG |
Субтитры: Русские (Full), английские-

Скриншоты

       

MI

General
Unique ID : 109439133777871774664734838685864805626 (0x525535E237C4B7609AC5DA21A84FC4FA)
Complete name : E:Video111The.Night.Clerk.2020.BDREMUX.1080p.seleZen.mkv
Format : Matroska
Format version : Version 4
File size : 19.6 GiB
Duration : 1 h 30 min
Overall bit rate mode : Variable
Overall bit rate : 31.0 Mb/s
Movie name : The Night Clerk 2020 from селезень
Encoded date : UTC 2020-07-01 20:04:07
Writing application : mkvmerge v40.0.0 ('Old Town Road + Pony') 64-bit
Writing library : libebml v1.3.9 + libmatroska v1.5.2
Video
ID : 1
Format : AVC
Format/Info : Advanced Video Codec
Format profile : High@L4.1
Format settings : CABAC / 4 Ref Frames
Format settings, CABAC : Yes
Format settings, Reference frames : 4 frames
Codec ID : V_MPEG4/ISO/AVC
Duration : 1 h 30 min
Bit rate mode : Variable
Bit rate : 29.0 Mb/s
Maximum bit rate : 37.2 Mb/s
Width : 1 920 pixels
Height : 1 080 pixels
Display aspect ratio : 16:9
Frame rate mode : Constant
Frame rate : 23.976 (24000/1001) FPS
Standard : NTSC
Color space : YUV
Chroma subsampling : 4:2:0
Bit depth : 8 bits
Scan type : Progressive
Bits/(Pixel*Frame) : 0.583
Stream size : 18.3 GiB (93%)
Language : English
Default : No
Forced : No
Color range : Limited
Color primaries : BT.709
Transfer characteristics : BT.709
Matrix coefficients : BT.709
Audio #1
ID : 2
Format : AC-3
Format/Info : Audio Coding 3
Commercial name : Dolby Digital
Codec ID : A_AC3
Duration : 1 h 30 min
Bit rate mode : Constant
Bit rate : 384 kb/s
Channel(s) : 6 channels
Channel layout : L R C LFE Ls Rs
Sampling rate : 48.0 kHz
Frame rate : 31.250 FPS (1536 SPF)
Compression mode : Lossy
Stream size : 248 MiB (1%)
Title : iTunes
Language : Russian
Service kind : Complete Main
Default : Yes
Forced : Yes
Audio #2
ID : 3
Format : DTS XLL
Format/Info : Digital Theater Systems
Commercial name : DTS-HD Master Audio
Codec ID : A_DTS
Duration : 1 h 30 min
Bit rate mode : Variable
Bit rate : 1 678 kb/s
Channel(s) : 6 channels
Channel layout : C L R Ls Rs LFE
Sampling rate : 48.0 kHz
Frame rate : 93.750 FPS (512 SPF)
Bit depth : 16 bits
Compression mode : Lossless
Stream size : 1.06 GiB (5%)
Title : Original
Language : English
Default : No
Forced : No
Text #1
ID : 4
Format : UTF-8
Codec ID : S_TEXT/UTF8
Codec ID/Info : UTF-8 Plain Text
Duration : 1 h 24 min
Bit rate : 75 b/s
Count of elements : 1019
Stream size : 47.1 KiB (0%)
Title : Full
Language : Russian
Default : No
Forced : No
Text #2
ID : 5
Format : UTF-8
Codec ID : S_TEXT/UTF8
Codec ID/Info : UTF-8 Plain Text
Duration : 1 h 28 min
Bit rate : 44 b/s
Count of elements : 1082
Stream size : 28.5 KiB (0%)
Title : Full
Language : English
Default : No
Forced : No
Text #3
ID : 6
Format : UTF-8
Codec ID : S_TEXT/UTF8
Codec ID/Info : UTF-8 Plain Text
Duration : 1 h 29 min
Bit rate : 46 b/s
Count of elements : 1173
Stream size : 30.4 KiB (0%)
Title : SDH
Language : English
Default : No
Forced : No
Menu
00:00:00.000 : :Chapter 01
00:11:40.199 : :Chapter 02
00:23:18.272 : :Chapter 03
00:37:30.165 : :Chapter 04
00:50:22.102 : :Chapter 05
01:04:01.671 : :Chapter 06
01:17:13.879 : :Chapter 07
01:26:14.169 : :Chapter 08

Релиз от

Kon912

Post 01-Jul-2020 23:16

[Quote]

Ночной портье / Ночной клерк / The Night Clerk- Год выхода: 2020
Страна: США
Студия: Highland Film Group (HFG), WulfPak Productions
Жанр: Драма, криминал
Продолжительность: 01:30:12
Перевод: Дублированный | iTunes-Режиссер:
Майкл Кристофер-В ролях:
Тай Шеридан, Ана де Армас, Хелен Хант, Джон Легуизамо, Джонатон Шек, Жак Грэй, Джои Миясима, Остин Арчер, Уолтер Платц-О фильме:
Ночной клерк Барт Бромли — парень с аутическим расстройством личности. Это сказывается на его вербальных и социальных навыках, поэтому он каждую рабочую смену наблюдает за постояльцами отеля через скрытые камеры, установленные им в номерах. Он тщательно копирует мимику и запоминает шаблонные фразы, чтобы затем использовать их в общении с клиентами. Когда в отеле происходит убийство девушки, Барта берет в оборот жесткий полицейский, пытающийся выбить из него признание вины.- -Качество: BDRip 1080p
Формат: MKV
Видео: MPEG-4 AVC, 1920x1038, 16.5 Mbit/s, 23.976 fps
Аудио #01: 48 kHz, AC3, 5.1, 384 Kbps | iTunes | RUS |
Аудио #02: 48 kHz, AC3, 5.1, 640 Kbps | Оригинал | ENG |
Субтитры: Русские (Full), английские-

Скриншоты

       

MI

General
Unique ID : 193214577211989624914614056946629202279 (0x915BC6248063D70E426217E4DDB9D167)
Complete name : E:Video111The.Night.Clerk.2020.BDRip.1080p.seleZen.mkv
Format : Matroska
Format version : Version 4
File size : 11.0 GiB
Duration : 1 h 30 min
Overall bit rate : 17.5 Mb/s
Movie name : The Night Clerk 2020 from селезень
Encoded date : UTC 2020-07-01 19:05:09
Writing application : mkvmerge v40.0.0 ('Old Town Road + Pony') 64-bit
Writing library : libebml v1.3.9 + libmatroska v1.5.2
Video
ID : 1
Format : AVC
Format/Info : Advanced Video Codec
Format profile : High@L4.1
Format settings : CABAC / 4 Ref Frames
Format settings, CABAC : Yes
Format settings, Reference frames : 4 frames
Codec ID : V_MPEG4/ISO/AVC
Duration : 1 h 30 min
Bit rate : 16.5 Mb/s
Width : 1 920 pixels
Height : 1 038 pixels
Display aspect ratio : 1.85:1
Frame rate mode : Constant
Frame rate : 23.976 (24000/1001) FPS
Color space : YUV
Chroma subsampling : 4:2:0
Bit depth : 8 bits
Scan type : Progressive
Bits/(Pixel*Frame) : 0.345
Stream size : 10.4 GiB (94%)
Title : playHD
Writing library : x264 core 144 r2525 40bb568
Encoding settings : cabac=1 / ref=4 / deblock=1:-3:-3 / analyse=0x3:0x133 / me=umh / subme=10 / psy=1 / psy_rd=1.00:0.00 / mixed_ref=1 / me_range=32 / chroma_me=1 / trellis=2 / 8x8dct=1 / cqm=0 / deadzone=21, 11 / fast_pskip=0 / chroma_qp_offset=-2 / threads=12 / lookahead_threads=2 / sliced_threads=0 / nr=0 / decimate=0 / interlaced=0 / bluray_compat=0 / constrained_intra=0 / bframes=8 / b_pyramid=2 / b_adapt=2 / b_bias=0 / direct=3 / weightb=1 / open_gop=0 / weightp=2 / keyint=250 / keyint_min=23 / scenecut=40 / intra_refresh=0 / rc=crf / mbtree=0 / crf=17.9 / qcomp=0.60 / qpmin=0 / qpmax=69 / qpstep=4 / ip_ratio=1.30 / pb_ratio=1.20 / aq=3:0.85
Language : English
Default : Yes
Forced : No
Audio #1
ID : 2
Format : AC-3
Format/Info : Audio Coding 3
Commercial name : Dolby Digital
Codec ID : A_AC3
Duration : 1 h 30 min
Bit rate mode : Constant
Bit rate : 384 kb/s
Channel(s) : 6 channels
Channel layout : L R C LFE Ls Rs
Sampling rate : 48.0 kHz
Frame rate : 31.250 FPS (1536 SPF)
Compression mode : Lossy
Stream size : 248 MiB (2%)
Title : iTunes
Language : Russian
Service kind : Complete Main
Default : Yes
Forced : Yes
Audio #2
ID : 3
Format : AC-3
Format/Info : Audio Coding 3
Commercial name : Dolby Digital
Codec ID : A_AC3
Duration : 1 h 30 min
Bit rate mode : Constant
Bit rate : 640 kb/s
Channel(s) : 6 channels
Channel layout : L R C LFE Ls Rs
Sampling rate : 48.0 kHz
Frame rate : 31.250 FPS (1536 SPF)
Compression mode : Lossy
Stream size : 413 MiB (4%)
Title : Original
Language : English
Service kind : Complete Main
Default : No
Forced : No
Text #1
ID : 4
Format : UTF-8
Codec ID : S_TEXT/UTF8
Codec ID/Info : UTF-8 Plain Text
Duration : 1 h 24 min
Bit rate : 75 b/s
Count of elements : 1019
Stream size : 47.1 KiB (0%)
Title : Full
Language : Russian
Default : No
Forced : No
Text #2
ID : 5
Format : UTF-8
Codec ID : S_TEXT/UTF8
Codec ID/Info : UTF-8 Plain Text
Duration : 1 h 28 min
Bit rate : 44 b/s
Count of elements : 1082
Stream size : 28.5 KiB (0%)
Title : Full
Language : English
Default : No
Forced : No
Text #3
ID : 6
Format : UTF-8
Codec ID : S_TEXT/UTF8
Codec ID/Info : UTF-8 Plain Text
Duration : 1 h 29 min
Bit rate : 46 b/s
Count of elements : 1173
Stream size : 30.4 KiB (0%)
Title : SDH
Language : English
Default : No
Forced : No
Menu
00:00:00.000 : :Chapter 01
00:11:40.199 : :Chapter 02
00:23:18.272 : :Chapter 03
00:37:30.165 : :Chapter 04
00:50:22.102 : :Chapter 05
01:04:01.671 : :Chapter 06
01:17:13.879 : :Chapter 07
01:26:14.169 : :Chapter 08

Релиз от
 

The time now is: Today 02:35

All times are GMT + 3 Hours