Today is a free download without charge Download

Search found 1 matches

Author Message

XP1971

Post 31-Mar-2018 18:12

[Quote]

-Ведьмак XXX Пародия / The Bewitcher: A DP XXX Parody-- Страна: США
Год выпуска: 2018 г.
Жанр: Feature, Foreign, Straight, Oral, All Sex, Couples, Parody, Cosplay
Студия: Digital Playground
Режиссёр: Unknown
Релиз: Doctor-ZLO
Продолжительность: 02:18:01
Перевод: Не требуется
Оригинальный аудиопоток: английский-В ролях: Clea Gaultier, Ella Hughes, Olive Glass, Danny D.-Оригинальное описание: Famed monster hunter Gerald of Vulvia can’t stay out of trouble.
He’s always on the hunt for his three favorite things: money, combat, and – most important of all – the loving arms and willing pussy of every woman he meets.
When Gerald stumbles into seemingly abandoned village, he starts on a quest that brings him more than he bargained for!
Luckily for Gerald, he can fuck his way out of, or into, any tight spot.-Описание на русском: Знаменитый ведьмак теперь и в кино,охотник на монстров теперь ,охотится на знойных красоток.-Качество видео: WEB-DL
Контейнер: AVI
Стандарт разрешения: 480p
Видео кодек: MPEG4 AVC
Аудио кодек: AAC
Видео: MPEG4 Video (H264) 854x480 (16:9) 23.976fps 1478kbps
Аудио: AAC 48000Hz stereo 128kbps
Cубтитры: отсутствуют

Media Info

Код:
General
Complete name : D:\Download\Update\The Bewitcher\Episode 1.mp4
Format : MPEG-4
Format profile : Base Media
Codec ID : isom (isom/iso2/avc1/mp41)
File size : 391 MiB
Duration : 33mn 56s
Overall bit rate : 1 610 Kbps
Writing application : Lavf58.10.100
IsTruncated : Yes
Video
ID : 1
Format : AVC
Format/Info : Advanced Video Codec
Format profile : [email protected]
Format settings, CABAC : Yes
Format settings, ReFrames : 5 frames
Codec ID : avc1
Codec ID/Info : Advanced Video Coding
Duration : 33mn 56s
Bit rate : 1 500 Kbps
Width : 854 pixels
Height : 480 pixels
Display aspect ratio : 16:9
Original display aspect rat : 16:9
Frame rate mode : Constant
Frame rate : 23.976 (24000/1001) fps
Color space : YUV
Chroma subsampling : 4:2:0
Bit depth : 8 bits
Scan type : Progressive
Bits/(Pixel*Frame) : 0.153
Stream size : 359 MiB (92%)
Writing library : x264 core 155 r2901 7d0ff22
Encoding settings : cabac=1 / ref=5 / deblock=1:0:0 / analyse=0x3:0x113 / me=hex / subme=8 / psy=1 / psy_rd=1.00:0.00 / mixed_ref=1 / me_range=16 / chroma_me=1 / trellis=2 / 8x8dct=1 / cqm=0 / deadzone=21,11 / fast_pskip=1 / chroma_qp_offset=-2 / threads=20 / lookahead_threads=3 / sliced_threads=0 / nr=0 / decimate=1 / interlaced=0 / bluray_compat=0 / constrained_intra=0 / bframes=3 / b_pyramid=2 / b_adapt=1 / b_bias=0 / direct=3 / weightb=1 / open_gop=0 / weightp=2 / keyint=60 / keyint_min=6 / scenecut=40 / intra_refresh=0 / rc_lookahead=50 / rc=abr / mbtree=1 / bitrate=1500 / ratetol=1.0 / qcomp=0.60 / qpmin=0 / qpmax=69 / qpstep=4 / ip_ratio=1.40 / aq=1:1.00
Tagged date : UTC 2018-03-01 23:13:49
Audio
ID : 2
Format : AAC
Format/Info : Advanced Audio Codec
Format profile : LC
Codec ID : 40
Duration : 33mn 56s
Source duration : 33mn 56s
Bit rate mode : Constant
Bit rate : 128 Kbps
Channel(s) : 2 channels
Channel positions : Front: L R
Sampling rate : 48.0 KHz
Frame rate : 46.875 fps (1024 spf)
Compression mode : Lossy
Stream size : 31.2 MiB (8%)
Source stream size : 31.2 MiB (8%)
Default : Yes
Alternate group : 1
Tagged date : UTC 2018-03-01 23:13:49

Скринлист

     

Скриншоты

         
 

The time now is: Today 10:06

All times are GMT + 3 Hours