Today is a free download without charge Download

Search found 3 matches

Author Message

Theseus

Post 24-Jun-2020 22:28

[Quote]

Потерянная пуля / Lost Bullet / Balle perdue- Год выхода: 2020
Страна: Франция
Жанр: Боевик, триллер, криминал
Продолжительность: 01:33:06
Перевод: Любительский (многоголосый,закадровый) [MUZOBOZ]
Субтитры: Русские, английские и др.-Режиссер: Гийом Пьерре-В ролях: Альбан Ленуар, Николя Дювошель, Рамзи Бедиа, Стефи Сельма, Род Парадо, Себастьян Лаланн, Arthur Aspaturian, Патрик Медиони, Александр Филип, Стивен Скардиккьо-О фильме: Пытаясь на пару с младшим братом ограбить магазин, Лино на малолитражке пробил четыре бетонные стены. Брату удалось сбежать, но ремень заклинило, и сам Лино присел. Вскоре комиссар Чара предлагает ему работать механиком и переоборудовать полицейские машины в настоящие тараны, чтобы эффективно бороться с уходящими от преследования преступниками. Парень соглашается, и за такую работу ему уже светит условно-досрочное, когда коррумпированные полицейские убивают комиссара Чару и пытаются свалить вину на Лино.- -Качество: WEB-DL 1080p
Формат: MKV
Видео кодек: x.264
Аудио кодек: AC3, E-AC3
Видео: AVC, 1920x1080 (16:9), 25.000 fps, 5 360 kb/s
Аудио 1: AC3, 48.0 kHz, 2 ch, 192 kb/s | RUS
Аудио 2: E-AC3, 48.0 kHz, 6 ch, 640 kb/s | FRE-Рекламы нет-Сэмпл-

MI

Код:
Общее
Уникальный идентификатор                 : 182906744645114510283330318894751045438 (0x899A8EC26DAA08FEA614C2E8A888573E)
Полное имя                               : Lost.Bullet.(2020).WEB-DL.1080p.L.mkv
Формат                                   : Matroska
Версия формата                           : Version 4
Размер файла                             : 3,93 Гбайт
Продолжительность                        : 1 ч. 33 м.
Режим общего битрейта                    : Переменный
Общий поток                              : 6042 Кбит/сек
Дата кодирования                         : UTC 2020-06-21 08:50:52
Программа кодирования                    : mkvmerge v8.3.0 ('Over the Horizon') 64bit
Библиотека кодирования                   : libebml v1.3.1 + libmatroska v1.4.2
Видео
Идентификатор                            : 1
Формат                                   : AVC
Формат/Информация                        : Advanced Video Codec
Профиль формата                          : Main@L4
Настройки формата                        : CABAC / 3 Ref Frames
Параметр CABAC формата                   : Да
Параметр RefFrames формата               : 3 кадра
Идентификатор кодека                     : V_MPEG4/ISO/AVC
Продолжительность                        : 1 ч. 33 м.
Вид битрейта                             : Переменный
Битрейт                                  : 5360 Кбит/сек
Максимальный битрейт                     : 8040 Кбит/сек
Ширина                                   : 1920 пикселей
Высота                                   : 1080 пикселей
Соотношение сторон                       : 16:9
Режим частоты кадров                     : Постоянный
Частота кадров                           : 25,000 кадров/сек
Цветовое пространство                    : YUV
Субдискретизация насыщенности            : 4:2:0
Битовая глубина                          : 8 бит
Тип развёртки                            : Прогрессивная
Бит/(Пиксели*Кадры)                      : 0.103
Размер потока                            : 3,39 Гбайт (86%)
Библиотека кодирования                   : x264 core 148 r2717 0d2410d
Настройки программы                      : cabac=1 / ref=3 / deblock=1:0:0 / analyse=0x1:0x111 / me=umh / subme=10 / psy=1 / psy_rd=1.00:0.00 / mixed_ref=1 / me_range=24 / chroma_me=1 / trellis=2 / 8x8dct=0 / cqm=0 / deadzone=21,11 / fast_pskip=1 / chroma_qp_offset=-2 / threads=8 / lookahead_threads=1 / sliced_threads=0 / nr=0 / decimate=1 / interlaced=0 / bluray_compat=0 / stitchable=1 / constrained_intra=0 / bframes=2 / b_pyramid=0 / b_adapt=2 / b_bias=0 / direct=3 / weightb=1 / open_gop=0 / weightp=2 / keyint=250 / keyint_min=25 / scenecut=0 / intra_refresh=0 / rc_lookahead=50 / rc=2pass / mbtree=1 / bitrate=5360 / ratetol=1.0 / qcomp=0.50 / qpmin=6 / qpmax=51 / qpstep=4 / cplxblur=20.0 / qblur=0.5 / vbv_maxrate=8040 / vbv_bufsize=10720 / nal_hrd=vbr / filler=0 / ip_ratio=1.40 / aq=1:1.00
Default                                  : Да
Forced                                   : Нет
Аудио #1
Идентификатор                            : 2
Формат                                   : AC-3
Формат/Информация                        : Audio Coding 3
Коммерческое название                    : Dolby Digital
Идентификатор кодека                     : A_AC3
Продолжительность                        : 1 ч. 33 м.
Вид битрейта                             : Постоянный
Битрейт                                  : 192 Кбит/сек
Каналы                                   : 2 канала
Channel layout                           : L R
Частота                                  : 48,0 КГц
Частота кадров                           : 31,250 кадров/сек (1536 SPF)
Битовая глубина                          : 16 бит
Метод сжатия                             : С потерями
Размер потока                            : 128 Мбайт (3%)
Заголовок                                : MUZOBOZ
Язык                                     : Russian
ServiceKind/String                       : Complete Main
Default                                  : Да
Forced                                   : Нет
Аудио #2
Идентификатор                            : 3
Формат                                   : E-AC-3
Формат/Информация                        : Enhanced AC-3
Коммерческое название                    : Dolby Digital Plus
Идентификатор кодека                     : A_EAC3
Продолжительность                        : 1 ч. 33 м.
Вид битрейта                             : Постоянный
Битрейт                                  : 640 Кбит/сек
Каналы                                   : 6 каналов
Channel layout                           : L R C LFE Ls Rs
Частота                                  : 48,0 КГц
Частота кадров                           : 31,250 кадров/сек (1536 SPF)
Метод сжатия                             : С потерями
Размер потока                            : 426 Мбайт (11%)
Заголовок                                : French
Язык                                     : French
ServiceKind/String                       : Complete Main
Default                                  : Нет
Forced                                   : Нет
Текст #1
Идентификатор                            : 4
Формат                                   : UTF-8
Идентификатор кодека                     : S_TEXT/UTF8
Идентификатор кодека/Информация          : UTF-8 Plain Text
Продолжительность                        : 1 ч. 25 м.
Битрейт                                  : 44 бит/сек
ElementCount                             : 669
Размер потока                            : 27,6 Кбайт (0%)
Заголовок                                : Russian
Язык                                     : Russian
Default                                  : Нет
Forced                                   : Нет
Текст #2
Идентификатор                            : 5
Формат                                   : UTF-8
Идентификатор кодека                     : S_TEXT/UTF8
Идентификатор кодека/Информация          : UTF-8 Plain Text
Продолжительность                        : 1 ч. 25 м.
Битрейт                                  : 27 бит/сек
ElementCount                             : 668
Размер потока                            : 17,3 Кбайт (0%)
Заголовок                                : English
Язык                                     : English
Default                                  : Нет
Forced                                   : Нет
Текст #3
Идентификатор                            : 6
Формат                                   : UTF-8
Идентификатор кодека                     : S_TEXT/UTF8
Идентификатор кодека/Информация          : UTF-8 Plain Text
Продолжительность                        : 1 ч. 25 м.
Битрейт                                  : 47 бит/сек
ElementCount                             : 665
Размер потока                            : 29,8 Кбайт (0%)
Заголовок                                : Arabic
Язык                                     : Arabic
Default                                  : Нет
Forced                                   : Нет
Текст #4
Идентификатор                            : 7
Формат                                   : UTF-8
Идентификатор кодека                     : S_TEXT/UTF8
Идентификатор кодека/Информация          : UTF-8 Plain Text
Продолжительность                        : 1 ч. 25 м.
Битрейт                                  : 31 бит/сек
ElementCount                             : 669
Размер потока                            : 19,6 Кбайт (0%)
Заголовок                                : Chinese Simplified
Язык                                     : Chinese
Default                                  : Нет
Forced                                   : Нет
Текст #5
Идентификатор                            : 8
Формат                                   : UTF-8
Идентификатор кодека                     : S_TEXT/UTF8
Идентификатор кодека/Информация          : UTF-8 Plain Text
Продолжительность                        : 1 ч. 25 м.
Битрейт                                  : 31 бит/сек
ElementCount                             : 684
Размер потока                            : 19,4 Кбайт (0%)
Заголовок                                : Chinese Traditional
Язык                                     : Chinese
Default                                  : Нет
Forced                                   : Нет
Текст #6
Идентификатор                            : 9
Формат                                   : UTF-8
Идентификатор кодека                     : S_TEXT/UTF8
Идентификатор кодека/Информация          : UTF-8 Plain Text
Продолжительность                        : 1 ч. 25 м.
Битрейт                                  : 24 бит/сек
ElementCount                             : 661
Размер потока                            : 15,6 Кбайт (0%)
Заголовок                                : Czech
Язык                                     : Czech
Default                                  : Нет
Forced                                   : Нет
Текст #7
Идентификатор                            : 10
Формат                                   : UTF-8
Идентификатор кодека                     : S_TEXT/UTF8
Идентификатор кодека/Информация          : UTF-8 Plain Text
Продолжительность                        : 1 ч. 25 м.
Битрейт                                  : 26 бит/сек
ElementCount                             : 644
Размер потока                            : 16,6 Кбайт (0%)
Заголовок                                : Danish
Язык                                     : Danish
Default                                  : Нет
Forced                                   : Нет
Текст #8
Идентификатор                            : 11
Формат                                   : UTF-8
Идентификатор кодека                     : S_TEXT/UTF8
Идентификатор кодека/Информация          : UTF-8 Plain Text
Продолжительность                        : 1 ч. 25 м.
Битрейт                                  : 22 бит/сек
ElementCount                             : 621
Размер потока                            : 14,3 Кбайт (0%)
Заголовок                                : Dutch
Язык                                     : Dutch
Default                                  : Нет
Forced                                   : Нет
Текст #9
Идентификатор                            : 12
Формат                                   : UTF-8
Идентификатор кодека                     : S_TEXT/UTF8
Идентификатор кодека/Информация          : UTF-8 Plain Text
Продолжительность                        : 1 ч. 25 м.
Битрейт                                  : 24 бит/сек
ElementCount                             : 608
Размер потока                            : 15,4 Кбайт (0%)
Заголовок                                : Finnish
Язык                                     : Finnish
Default                                  : Нет
Forced                                   : Нет
Текст #10
Идентификатор                            : 13
Формат                                   : UTF-8
Идентификатор кодека                     : S_TEXT/UTF8
Идентификатор кодека/Информация          : UTF-8 Plain Text
Продолжительность                        : 1 ч. 30 м.
Битрейт                                  : 48 бит/сек
ElementCount                             : 1069
Размер потока                            : 32,1 Кбайт (0%)
Заголовок                                : French
Язык                                     : French
Default                                  : Нет
Forced                                   : Нет
Текст #11
Идентификатор                            : 14
Формат                                   : UTF-8
Идентификатор кодека                     : S_TEXT/UTF8
Идентификатор кодека/Информация          : UTF-8 Plain Text
Продолжительность                        : 1 ч. 25 м.
Битрейт                                  : 30 бит/сек
ElementCount                             : 668
Размер потока                            : 19,0 Кбайт (0%)
Заголовок                                : German
Язык                                     : German
Default                                  : Нет
Forced                                   : Нет
Текст #12
Идентификатор                            : 15
Формат                                   : UTF-8
Идентификатор кодека                     : S_TEXT/UTF8
Идентификатор кодека/Информация          : UTF-8 Plain Text
Продолжительность                        : 1 ч. 25 м.
Битрейт                                  : 43 бит/сек
ElementCount                             : 678
Размер потока                            : 27,3 Кбайт (0%)
Заголовок                                : Greek
Язык                                     : Greek
Default                                  : Нет
Forced                                   : Нет
Текст #13
Идентификатор                            : 16
Формат                                   : UTF-8
Идентификатор кодека                     : S_TEXT/UTF8
Идентификатор кодека/Информация          : UTF-8 Plain Text
Продолжительность                        : 1 ч. 25 м.
Битрейт                                  : 46 бит/сек
ElementCount                             : 660
Размер потока                            : 29,3 Кбайт (0%)
Заголовок                                : Hebrew
Язык                                     : Hebrew
Default                                  : Нет
Forced                                   : Нет
Текст #14
Идентификатор                            : 17
Формат                                   : UTF-8
Идентификатор кодека                     : S_TEXT/UTF8
Идентификатор кодека/Информация          : UTF-8 Plain Text
Продолжительность                        : 1 ч. 31 м.
Битрейт                                  : 25 бит/сек
ElementCount                             : 685
Размер потока                            : 17,2 Кбайт (0%)
Заголовок                                : Hungarian
Язык                                     : Hungarian
Default                                  : Нет
Forced                                   : Нет
Текст #15
Идентификатор                            : 18
Формат                                   : UTF-8
Идентификатор кодека                     : S_TEXT/UTF8
Идентификатор кодека/Информация          : UTF-8 Plain Text
Продолжительность                        : 1 ч. 25 м.
Битрейт                                  : 25 бит/сек
ElementCount                             : 651
Размер потока                            : 16,1 Кбайт (0%)
Заголовок                                : Indonesian
Язык                                     : Indonesian
Default                                  : Нет
Forced                                   : Нет
Текст #16
Идентификатор                            : 19
Формат                                   : UTF-8
Идентификатор кодека                     : S_TEXT/UTF8
Идентификатор кодека/Информация          : UTF-8 Plain Text
Продолжительность                        : 1 ч. 25 м.
Битрейт                                  : 24 бит/сек
ElementCount                             : 641
Размер потока                            : 15,5 Кбайт (0%)
Заголовок                                : Italian
Язык                                     : Italian
Default                                  : Нет
Forced                                   : Нет
Текст #17
Идентификатор                            : 20
Формат                                   : UTF-8
Идентификатор кодека                     : S_TEXT/UTF8
Идентификатор кодека/Информация          : UTF-8 Plain Text
Продолжительность                        : 1 ч. 25 м.
Битрейт                                  : 22 бит/сек
ElementCount                             : 686
Размер потока                            : 14,0 Кбайт (0%)
Заголовок                                : Japanese
Язык                                     : Japanese
Default                                  : Нет
Forced                                   : Нет
Текст #18
Идентификатор                            : 21
Формат                                   : UTF-8
Идентификатор кодека                     : S_TEXT/UTF8
Идентификатор кодека/Информация          : UTF-8 Plain Text
Продолжительность                        : 1 ч. 25 м.
Битрейт                                  : 32 бит/сек
ElementCount                             : 669
Размер потока                            : 20,7 Кбайт (0%)
Заголовок                                : Korean
Язык                                     : Korean
Default                                  : Нет
Forced                                   : Нет
Текст #19
Идентификатор                            : 22
Формат                                   : UTF-8
Идентификатор кодека                     : S_TEXT/UTF8
Идентификатор кодека/Информация          : UTF-8 Plain Text
Продолжительность                        : 1 ч. 25 м.
Битрейт                                  : 25 бит/сек
ElementCount                             : 640
Размер потока                            : 16,2 Кбайт (0%)
Заголовок                                : Norwegian Bokmal
Язык                                     : Norwegian Bokmal
Default                                  : Нет
Forced                                   : Нет
Текст #20
Идентификатор                            : 23
Формат                                   : UTF-8
Идентификатор кодека                     : S_TEXT/UTF8
Идентификатор кодека/Информация          : UTF-8 Plain Text
Продолжительность                        : 1 ч. 25 м.
Битрейт                                  : 22 бит/сек
ElementCount                             : 580
Размер потока                            : 14,3 Кбайт (0%)
Заголовок                                : Polish
Язык                                     : Polish
Default                                  : Нет
Forced                                   : Нет
Текст #21
Идентификатор                            : 24
Формат                                   : UTF-8
Идентификатор кодека                     : S_TEXT/UTF8
Идентификатор кодека/Информация          : UTF-8 Plain Text
Продолжительность                        : 1 ч. 25 м.
Битрейт                                  : 27 бит/сек
ElementCount                             : 668
Размер потока                            : 17,3 Кбайт (0%)
Заголовок                                : Portuguese
Язык                                     : Portuguese
Default                                  : Нет
Forced                                   : Нет
Текст #22
Идентификатор                            : 25
Формат                                   : UTF-8
Идентификатор кодека                     : S_TEXT/UTF8
Идентификатор кодека/Информация          : UTF-8 Plain Text
Продолжительность                        : 1 ч. 25 м.
Битрейт                                  : 27 бит/сек
ElementCount                             : 659
Размер потока                            : 17,0 Кбайт (0%)
Заголовок                                : Brazilian Portuguese
Язык                                     : Portuguese
Default                                  : Нет
Forced                                   : Нет
Текст #23
Идентификатор                            : 26
Формат                                   : UTF-8
Идентификатор кодека                     : S_TEXT/UTF8
Идентификатор кодека/Информация          : UTF-8 Plain Text
Продолжительность                        : 1 ч. 25 м.
Битрейт                                  : 31 бит/сек
ElementCount                             : 605
Размер потока                            : 19,7 Кбайт (0%)
Заголовок                                : Romanian
Язык                                     : Romanian
Default                                  : Нет
Forced                                   : Нет
Текст #24
Идентификатор                            : 27
Формат                                   : UTF-8
Идентификатор кодека                     : S_TEXT/UTF8
Идентификатор кодека/Информация          : UTF-8 Plain Text
Продолжительность                        : 1 ч. 25 м.
Битрейт                                  : 23 бит/сек
ElementCount                             : 654
Размер потока                            : 14,8 Кбайт (0%)
Заголовок                                : Spanish
Язык                                     : Spanish
Default                                  : Нет
Forced                                   : Нет
Текст #25
Идентификатор                            : 28
Формат                                   : UTF-8
Идентификатор кодека                     : S_TEXT/UTF8
Идентификатор кодека/Информация          : UTF-8 Plain Text
Продолжительность                        : 1 ч. 25 м.
Битрейт                                  : 26 бит/сек
ElementCount                             : 651
Размер потока                            : 16,4 Кбайт (0%)
Заголовок                                : European Spanish
Язык                                     : Spanish
Default                                  : Нет
Forced                                   : Нет
Текст #26
Идентификатор                            : 29
Формат                                   : UTF-8
Идентификатор кодека                     : S_TEXT/UTF8
Идентификатор кодека/Информация          : UTF-8 Plain Text
Продолжительность                        : 1 ч. 25 м.
Битрейт                                  : 24 бит/сек
ElementCount                             : 614
Размер потока                            : 15,5 Кбайт (0%)
Заголовок                                : Swedish
Язык                                     : Swedish
Default                                  : Нет
Forced                                   : Нет
Текст #27
Идентификатор                            : 30
Формат                                   : UTF-8
Идентификатор кодека                     : S_TEXT/UTF8
Идентификатор кодека/Информация          : UTF-8 Plain Text
Продолжительность                        : 1 ч. 25 м.
Битрейт                                  : 71 бит/сек
ElementCount                             : 684
Размер потока                            : 44,8 Кбайт (0%)
Заголовок                                : Thai
Язык                                     : Thai
Default                                  : Нет
Forced                                   : Нет
Текст #28
Идентификатор                            : 31
Формат                                   : UTF-8
Идентификатор кодека                     : S_TEXT/UTF8
Идентификатор кодека/Информация          : UTF-8 Plain Text
Продолжительность                        : 1 ч. 25 м.
Битрейт                                  : 27 бит/сек
ElementCount                             : 620
Размер потока                            : 17,0 Кбайт (0%)
Заголовок                                : Turkish
Язык                                     : Turkish
Default                                  : Нет
Forced                                   : Нет
Текст #29
Идентификатор                            : 32
Формат                                   : UTF-8
Идентификатор кодека                     : S_TEXT/UTF8
Идентификатор кодека/Информация          : UTF-8 Plain Text
Продолжительность                        : 1 ч. 25 м.
Битрейт                                  : 34 бит/сек
ElementCount                             : 653
Размер потока                            : 21,3 Кбайт (0%)
Заголовок                                : Vietnamese
Язык                                     : Vietnamese
Default                                  : Нет
Forced                                   : Нет

Трейлер (fre)

-     - - -Сборка релиза - Theseus

DED

Post 02-May-2020 13:34

[Quote]

--Шугалей-«Русских не сломить»-- Год выхода: 2020
Страна: Россия
Студия: «Триикс Медиа»
Жанр: детектив, приключения
Продолжительность: 01:40:52
Язык: Русский
Режиссер: Денис Нейманд
В ролях: Кирилл Полухин, Олег Абалян, Сергей Яценюк, Олег Метелев, Вячеслав Аркунов, Мохамед Али Бен Джема, Халед Хуисса, ...-Описание: Российские социологи, Максим Шугалей и его спутник и переводчик Самер Суэйфан, отправляются в страну, разрываемую на части воинствующими группировками, по официальному приглашению. Их задача — проведение исследования, которое должно было бы положить конец боевым действиям. Однако в ходе работы в их руки попадает информация, которая может дорого стоить «марионеточному» правительству и не должна просочиться за пределы Ливии. В результате похищения русские специалисты оказываются в частной тюрьме и больше года, переживая пытки и унижения, ждут хотя бы официального обвинения. Дипломатические попытки мирно решить вопрос заходят в тупик, и российская сторона начинает готовить спасательную операцию.- -Качество видео: HDTVRip 720p
Формат видео: MKV
Видеокодек: H.264
Аудиокодек: AC3
Видео: 1280х536 (2.40:1), 25.000 fps, MPEG-4 AVC, ~3500 kbps avg
Аудио: 48.0 kHz, AC3 Dolby Digital, 2/0 (L,R) ch, ~192.00 kbps avg
Cубтитры: нет
-

Скриншоты:

       
- -

DED

Post 02-May-2020 13:13

[Quote]

--Шугалей-«Русских не сломить»-- Год выхода: 2020
Страна: Россия
Студия: «Триикс Медиа»
Жанр: детектив, приключения
Продолжительность: 01:40:52
Язык: Русский
Режиссер: Денис Нейманд
В ролях: Кирилл Полухин, Олег Абалян, Сергей Яценюк, Олег Метелев, Вячеслав Аркунов, Мохамед Али Бен Джема, Халед Хуисса, ...-Описание: Российские социологи, Максим Шугалей и его спутник и переводчик Самер Суэйфан, отправляются в страну, разрываемую на части воинствующими группировками, по официальному приглашению. Их задача — проведение исследования, которое должно было бы положить конец боевым действиям. Однако в ходе работы в их руки попадает информация, которая может дорого стоить «марионеточному» правительству и не должна просочиться за пределы Ливии. В результате похищения русские специалисты оказываются в частной тюрьме и больше года, переживая пытки и унижения, ждут хотя бы официального обвинения. Дипломатические попытки мирно решить вопрос заходят в тупик, и российская сторона начинает готовить спасательную операцию.- -Качество видео: HDTV 1080p
Формат видео: MKV
Видеокодек: H.264
Аудиокодек: AAC
Видео: 1920x1080 (1.78:1), 25.000 fps, MPEG-4 AVC, ~3310 kbps avg
Аудио: 44.1 kHz, AAC LC, 2/0 (L,R) ch, ~128.00 kbps avg
Cубтитры: нет
-

MediaInfo:

Общее
Уникальный идентификатор : 233195309414912231333658626371162710784 (0xAF6FC86E0DAFEBD3999619688C4FA300)
Полное имя : E:\Downloads\Шугалей.2020.HDTV.1080p.mkv
Формат : Matroska
Версия формата : Version 4
Размер файла : 2,42 Гбайт
Продолжительность : 1 ч. 40 м.
Общий поток : 3 440 Кбит/сек
Название фильма : Шугалей.2020.HDTV.1080p
Дата кодирования : UTC 2020-05-01 20:22:28
Программа кодирования : mkvmerge v8.0.0 ('Til The Day That I Die') 64bit
Библиотека кодирования : libebml v1.3.1 + libmatroska v1.4.2
Видео
Идентификатор : 1
Формат : AVC
Формат/Информация : Advanced Video Codec
Профиль формата : High@L4
Настройки формата : CABAC / 2 Ref Frames
Параметр CABAC формата : Да
Параметр RefFrames формата : 2 кадра
Идентификатор кодека : V_MPEG4/ISO/AVC
Продолжительность : 1 ч. 40 м.
Битрейт : 3 310 Кбит/сек
Ширина : 1 920 пикселей
Высота : 1 080 пикселей
Соотношение сторон : 16:9
Режим частоты кадров : Постоянный
Частота кадров : 25,000 кадров/сек
Цветовое пространство : YUV
Субдискретизация насыщенности : 4:2:0
Битовая глубина : 8 бит
Тип развёртки : Прогрессивная
Бит/(Пиксели*Кадры) : 0.064
Размер потока : 2,33 Гбайт (96%)
Заголовок : Шугалей.2020
Язык : Russian
Default : Нет
Forced : Нет
Аудио
Идентификатор : 2
Формат : AAC LC
Формат/Информация : Advanced Audio Codec Low Complexity
Идентификатор кодека : A_AAC-2
Продолжительность : 1 ч. 40 м.
Битрейт : 128 Кбит/сек
Каналы : 2 канала
Channel layout : L R
Частота : 44,1 КГц
Частота кадров : 43,066 кадра/сек (1024 SPF)
Метод сжатия : С потерями
Размер потока : 92,4 Мбайт (4%)
Заголовок : Шугалей.2020
Язык : Russian
Default : Да
Forced : Нет
-

Скриншоты:

       
- -
 

The time now is: Today 23:44

All times are GMT + 3 Hours