Today is a free download without charge Download

Search found 493 matches

Author Message

Орлов Владимир

Post Yesterday 06:58

[Quote]

-Девушки бывают разные--
Информация о фильме
Год выпуска: 2019
Жанр: комедия
Страна: Россия
Режиссёр: Сарик Андреасян
Перевод: Оригинал
Субтитры: нет
Продолжительность: 01:22:39-- В ролях: Дмитрий Нагиев, Роман Попов, Артем Сучков, Дмитрий Власкин, Владимир Яглыч, Зоя Бербер, Елизавета Моряк, Алена Чехова-- Описание:
Это история о трёх друзьях, решивших покататься на серфе в Мексике. Все как полагается: океан, девушки и золотой песок. История не предвещает неожиданностей. Но не для наших героев, которые первым делом как следует отметили свой приезд. С трудом проснувшись наутро, парни обнаруживают себя посреди пляжа, они в замешательстве - не помнят, что же произошло накануне. Но вскоре появляются люди, которые освежают им память: оказывается, прошлой ночью парни страшно навредили международному криминальному авторитету Хуану, который по какой-то причине хочет их убить. Скрываясь от преследования, без денег и документов, они находят спасение - переодеваются в девушек и участвуют в женском турнире по сёрфингу. Победа поможет выиграть сто тысяч долларов и выбраться из страны. Но они еще не знают, что их неидеальному плану помешают любовь, секретные спецслужбы, мафия и даже бойцовые петухи.-- --Файлы
Качество: WEB-DL 1080p
Формат: MKV
Видео: MPEG-4 AVC, 5097 Кбит/с, 1920x800
Аудио: AC3, 6 ch, 384 Кбит/с

Скриншоты

       

Орлов Владимир

Post Yesterday 05:56

[Quote]

--Дора и Затерянный город / Dora and the Lost City of Gold--
Информация о фильме
Название: Дора и Затерянный город
Оригинальное название: Dora and the Lost City of Gold
Год выхода: 2019
Жанр: Приключения, семейный
Режиссер: Джеймс Бобин--В ролях: Изабела Монер, Эухенио Дербес, Майкл Пенья, Ева Лонгория, Джеффри Уолберг, Николас Кумбе, Мадлен Мэдден, Темуэра Моррисон, Бенисио Дель Торо, Дэнни Трехо, Мэдлин Миранда--О фильме: Практически все детство Дора провела в джунглях, где работали ее родители-исследователи. Но никакие прежние приключения не могли подготовить девушку к опасностям старшей школы - непониманию, соперничеству, зависти. Вдобавок таинственным образом исчезают родители Доры. Но она не была бы собой, если бы опустила руки. Первая любовь, а также старые и новые друзья вдохновляют смелую девушку отправиться на поиски родных. На пути к цели их ждет масса испытаний, а также леденящая кровь загадка потерянной цивилизации...-- --Страна: Австралия, США, Мексика
Студия: Paramount Players, Walden Media, Screen Queensland
Продолжительность: 01:42:27
Перевод: Дублированный iTunes--Качество: BDRip 1080p
Видео: MPEG-4 AVC, 1920x1080, 17.1 Mbit/s, 23.976 fps
Аудио #01: 48 kHz, AC3, 2.0, 160 Kbps | iTunes | RUS |
Аудио #02: 48 kHz, AC3, 5.1, 384 Kbps | iTunes | UKR |
Аудио #03: 48 kHz, AC3, 5.1, 640 Kbps | Оригинал | ENG |
Субтитры: Русские (Forced, full), украинские (Forced, full), английские

Скриншоты

           

Тех.данные видеофайла

General
Unique ID : 101719816705754578563033771998232414501 (0x4C86862AF777C51AB3E7A9FEF62B8925)
Complete name : F:Video111Dora.and.the.Lost.City.of.Gold.2019.BDRip.1080p.seleZen.mkv
Format : Matroska
Format version : Version 4
File size : 13.1 GiB
Duration : 1 h 42 min
Overall bit rate : 18.3 Mb/s
Movie name : Dora and the Lost City of Gold 2019 from селезень
Encoded date : UTC 2019-11-21 01:15:04
Writing application : mkvmerge v40.0.0 ('Old Town Road + Pony') 64-bit
Writing library : libebml v1.3.9 + libmatroska v1.5.2
Video
ID : 1
Format : AVC
Format/Info : Advanced Video Codec
Format profile : High@L4.1
Format settings : CABAC / 4 Ref Frames
Format settings, CABAC : Yes
Format settings, Reference : 4 frames
Codec ID : V_MPEG4/ISO/AVC
Duration : 1 h 42 min
Bit rate : 17.1 Mb/s
Width : 1 920 pixels
Height : 1 080 pixels
Display aspect ratio : 16:9
Frame rate mode : Constant
Frame rate : 23.976 (24000/1001) FPS
Color space : YUV
Chroma subsampling : 4:2:0
Bit depth : 8 bits
Scan type : Progressive
Bits/(Pixel*Frame) : 0.344
Stream size : 12.2 GiB (94%)
Title : iFT
Writing library : x264 core 155 r2867+74 66b5600 t_mod_Custom_2 [8-bit@all X86_64]
Encoding settings : cabac=1 / ref=4 / deblock=1:-3:-3 / analyse=0x3:0x113 / me=umh / subme=11 / psy=1 / fade_compensate=0.00 / psy_rd=1.00:0.00 / mixed_ref=1 / me_range=32 / chroma_me=1 / trellis=2 / 8x8dct=1 / cqm=0 / deadzone=21,11 / fast_pskip=0 / chroma_qp_offset=-2 / threads=34 / lookahead_threads=5 / sliced_threads=0 / nr=0 / decimate=0 / interlaced=0 / bluray_compat=0 / constrained_intra=0 / fgo=0 / bframes=9 / b_pyramid=2 / b_adapt=2 / b_bias=0 / direct=3 / weightb=1 / open_gop=0 / weightp=2 / keyint=250 / keyint_min=23 / scenecut=40 / intra_refresh=0 / rc_lookahead=60 / rc=crf / mbtree=0 / crf=16.5000 / qcomp=0.60 / qpmin=0:0:0 / qpmax=69:69:69 / qpstep=4 / vbv_maxrate=62500 / vbv_bufsize=78125 / crf_max=0.0 / nal_hrd=none / filler=0 / ip_ratio=1.30 / pb_ratio=1.20 / aq=3:0.80 / aq-sensitivity=10.00 / aq-factor=1.00:1.00:1.00 / aq2=0 / aq3=0
Language : English
Default : Yes
Forced : No
Color range : Limited
Color primaries : BT.709
Transfer characteristics : BT.709
Matrix coefficients : BT.709
Audio #1
ID : 2
Format : AC-3
Format/Info : Audio Coding 3
Commercial name : Dolby Digital
Codec ID : A_AC3
Duration : 1 h 42 min
Bit rate mode : Constant
Bit rate : 160 kb/s
Channel(s) : 2 channels
Channel layout : L R
Sampling rate : 48.0 kHz
Frame rate : 31.250 FPS (1536 SPF)
Bit depth : 16 bits
Compression mode : Lossy
Stream size : 117 MiB (1%)
Title : iTunes
Language : Russian
Service kind : Complete Main
Default : Yes
Forced : Yes
Audio #2
ID : 3
Format : AC-3
Format/Info : Audio Coding 3
Commercial name : Dolby Digital
Codec ID : A_AC3
Duration : 1 h 42 min
Bit rate mode : Constant
Bit rate : 384 kb/s
Channel(s) : 6 channels
Channel layout : L R C LFE Ls Rs
Sampling rate : 48.0 kHz
Frame rate : 31.250 FPS (1536 SPF)
Bit depth : 16 bits
Compression mode : Lossy
Stream size : 281 MiB (2%)
Title : iTunes
Language : Ukrainian
Service kind : Complete Main
Default : No
Forced : No
Audio #3
ID : 4
Format : AC-3
Format/Info : Audio Coding 3
Commercial name : Dolby Digital
Codec ID : A_AC3
Duration : 1 h 42 min
Bit rate mode : Constant
Bit rate : 640 kb/s
Channel(s) : 6 channels
Channel layout : L R C LFE Ls Rs
Sampling rate : 48.0 kHz
Frame rate : 31.250 FPS (1536 SPF)
Bit depth : 16 bits
Compression mode : Lossy
Stream size : 469 MiB (3%)
Title : Original
Language : English
Service kind : Complete Main
Default : No
Forced : No
Text #1
ID : 5
Format : UTF-8
Codec ID : S_TEXT/UTF8
Codec ID/Info : UTF-8 Plain Text
Duration : 1 h 37 min
Bit rate : 1 b/s
Count of elements : 29
Stream size : 1.12 KiB (0%)
Title : Forced
Language : Russian
Default : Yes
Forced : Yes
Text #2
ID : 6
Format : UTF-8
Codec ID : S_TEXT/UTF8
Codec ID/Info : UTF-8 Plain Text
Duration : 1 h 41 min
Bit rate : 88 b/s
Count of elements : 1414
Stream size : 65.7 KiB (0%)
Title : Full
Language : Russian
Default : No
Forced : No
Text #3
ID : 7
Format : UTF-8
Codec ID : S_TEXT/UTF8
Codec ID/Info : UTF-8 Plain Text
Duration : 1 h 40 min
Bit rate : 1 b/s
Count of elements : 30
Stream size : 1.10 KiB (0%)
Title : Forced
Language : Ukrainian
Default : No
Forced : No
Text #4
ID : 8
Format : UTF-8
Codec ID : S_TEXT/UTF8
Codec ID/Info : UTF-8 Plain Text
Duration : 1 h 41 min
Bit rate : 80 b/s
Count of elements : 1414
Stream size : 60.0 KiB (0%)
Title : Full
Language : Ukrainian
Default : No
Forced : No
Text #5
ID : 9
Format : UTF-8
Codec ID : S_TEXT/UTF8
Codec ID/Info : UTF-8 Plain Text
Duration : 1 h 32 min
Bit rate : 0 b/s
Count of elements : 24
Stream size : 554 Bytes (0%)
Title : Forced
Language : English
Default : No
Forced : No
Text #6
ID : 10
Format : UTF-8
Codec ID : S_TEXT/UTF8
Codec ID/Info : UTF-8 Plain Text
Duration : 1 h 37 min
Bit rate : 59 b/s
Count of elements : 1399
Stream size : 42.6 KiB (0%)
Title : Full
Language : English
Default : No
Forced : No
Menu
00:00:00.000 : en:Chapter 01
00:04:52.417 : en:Chapter 02
00:09:49.088 : en:Chapter 03
00:15:35.643 : en:Chapter 04
00:20:26.767 : en:Chapter 05
00:25:47.838 : en:Chapter 06
00:35:15.780 : en:Chapter 07
00:42:53.738 : en:Chapter 08
00:47:13.664 : en:Chapter 09
00:52:57.883 : en:Chapter 10
00:55:41.463 : en:Chapter 11
01:01:02.659 : en:Chapter 12
01:06:11.301 : en:Chapter 13
01:10:23.136 : en:Chapter 14
01:13:52.136 : en:Chapter 15
01:18:26.327 : en:Chapter 16
01:22:39.496 : en:Chapter 17
01:32:57.322 : en:Chapter 18
01:38:30.238 : en:Chapter 19

Орлов Владимир

Post Yesterday 05:27

[Quote]

--Дора и Затерянный город / Dora and the Lost City of Gold--
Информация о фильме
Название: Дора и Затерянный город
Оригинальное название: Dora and the Lost City of Gold
Год выхода: 2019
Жанр: Приключения, семейный
Режиссер: Джеймс Бобин--В ролях: Изабела Монер, Эухенио Дербес, Майкл Пенья, Ева Лонгория, Джеффри Уолберг, Николас Кумбе, Мадлен Мэдден, Темуэра Моррисон, Бенисио Дель Торо, Дэнни Трехо, Мэдлин Миранда--О фильме: Практически все детство Дора провела в джунглях, где работали ее родители-исследователи. Но никакие прежние приключения не могли подготовить девушку к опасностям старшей школы - непониманию, соперничеству, зависти. Вдобавок таинственным образом исчезают родители Доры. Но она не была бы собой, если бы опустила руки. Первая любовь, а также старые и новые друзья вдохновляют смелую девушку отправиться на поиски родных. На пути к цели их ждет масса испытаний, а также леденящая кровь загадка потерянной цивилизации...-- --Страна: Австралия, США, Мексика
Студия: Paramount Players, Walden Media, Screen Queensland
Продолжительность: 01:42:27
Перевод: Дублированный iTunes--Качество: BDRip 720p
Видео: MPEG-4 AVC, 1280x720, 8207 Kbit/s, 23.976 fps
Аудио #01: 48 kHz, AC3, 2.0, 160 Kbps | iTunes | RUS |
Аудио #02: 48 kHz, AC3, 5.1, 384 Kbps | iTunes | UKR |
Аудио #03: 48 kHz, AC3, 5.1, 640 Kbps | Оригинал | ENG |
Субтитры: Русские (Forced, full), украинские (Forced, full), английские--

Скриншоты

         

Тех.данные видеофайла

General
Unique ID : 81149494940081220808630860265945646844 (0x3D0CD3009629343D667362E2BCB946FC)
Complete name : F:Video111Dora.and.the.Lost.City.of.Gold.2019.BDRip.720p.seleZen.mkv
Format : Matroska
Format version : Version 4
File size : 6.72 GiB
Duration : 1 h 42 min
Overall bit rate : 9 394 kb/s
Movie name : Dora and the Lost City of Gold 2019 from селезень
Encoded date : UTC 2019-11-21 01:53:34
Writing application : mkvmerge v40.0.0 ('Old Town Road + Pony') 64-bit
Writing library : libebml v1.3.9 + libmatroska v1.5.2
Video
ID : 1
Format : AVC
Format/Info : Advanced Video Codec
Format profile : High@L4.1
Format settings : CABAC / 9 Ref Frames
Format settings, CABAC : Yes
Format settings, Reference : 9 frames
Codec ID : V_MPEG4/ISO/AVC
Duration : 1 h 42 min
Bit rate : 8 207 kb/s
Width : 1 280 pixels
Height : 720 pixels
Display aspect ratio : 16:9
Frame rate mode : Constant
Frame rate : 23.976 (24000/1001) FPS
Color space : YUV
Chroma subsampling : 4:2:0
Bit depth : 8 bits
Scan type : Progressive
Bits/(Pixel*Frame) : 0.371
Stream size : 5.87 GiB (87%)
Title : playHD
Writing library : x264 core 146 r2538 121396c
Encoding settings : cabac=1 / ref=9 / deblock=1:-3:-3 / analyse=0x3:0x133 / me=umh / subme=10 / psy=1 / psy_rd=1.00:0.00 / mixed_ref=1 / me_range=32 / chroma_me=1 / trellis=2 / 8x8dct=1 / cqm=0 / deadzone=21,11 / fast_pskip=0 / chroma_qp_offset=-2 / threads=6 / lookahead_threads=1 / sliced_threads=0 / nr=0 / decimate=0 / interlaced=0 / bluray_compat=0 / constrained_intra=0 / bframes=9 / b_pyramid=2 / b_adapt=2 / b_bias=0 / direct=3 / weightb=1 / open_gop=0 / weightp=2 / keyint=250 / keyint_min=23 / scenecut=40 / intra_refresh=0 / rc=crf / mbtree=0 / crf=14.4 / qcomp=0.60 / qpmin=0 / qpmax=69 / qpstep=4 / ip_ratio=1.40 / pb_ratio=1.30 / aq=3:0.80
Language : English
Default : Yes
Forced : No
Audio #1
ID : 2
Format : AC-3
Format/Info : Audio Coding 3
Commercial name : Dolby Digital
Codec ID : A_AC3
Duration : 1 h 42 min
Bit rate mode : Constant
Bit rate : 160 kb/s
Channel(s) : 2 channels
Channel layout : L R
Sampling rate : 48.0 kHz
Frame rate : 31.250 FPS (1536 SPF)
Bit depth : 16 bits
Compression mode : Lossy
Stream size : 117 MiB (2%)
Title : iTunes
Language : Russian
Service kind : Complete Main
Default : Yes
Forced : Yes
Audio #2
ID : 3
Format : AC-3
Format/Info : Audio Coding 3
Commercial name : Dolby Digital
Codec ID : A_AC3
Duration : 1 h 42 min
Bit rate mode : Constant
Bit rate : 384 kb/s
Channel(s) : 6 channels
Channel layout : L R C LFE Ls Rs
Sampling rate : 48.0 kHz
Frame rate : 31.250 FPS (1536 SPF)
Bit depth : 16 bits
Compression mode : Lossy
Stream size : 281 MiB (4%)
Title : iTunes
Language : Ukrainian
Service kind : Complete Main
Default : No
Forced : No
Audio #3
ID : 4
Format : AC-3
Format/Info : Audio Coding 3
Commercial name : Dolby Digital
Codec ID : A_AC3
Duration : 1 h 42 min
Bit rate mode : Constant
Bit rate : 640 kb/s
Channel(s) : 6 channels
Channel layout : L R C LFE Ls Rs
Sampling rate : 48.0 kHz
Frame rate : 31.250 FPS (1536 SPF)
Bit depth : 16 bits
Compression mode : Lossy
Stream size : 469 MiB (7%)
Title : Original
Language : English
Service kind : Complete Main
Default : No
Forced : No
Text #1
ID : 5
Format : UTF-8
Codec ID : S_TEXT/UTF8
Codec ID/Info : UTF-8 Plain Text
Duration : 1 h 37 min
Bit rate : 1 b/s
Count of elements : 29
Stream size : 1.12 KiB (0%)
Title : Forced
Language : Russian
Default : Yes
Forced : Yes
Text #2
ID : 6
Format : UTF-8
Codec ID : S_TEXT/UTF8
Codec ID/Info : UTF-8 Plain Text
Duration : 1 h 41 min
Bit rate : 88 b/s
Count of elements : 1414
Stream size : 65.7 KiB (0%)
Title : Full
Language : Russian
Default : No
Forced : No
Text #3
ID : 7
Format : UTF-8
Codec ID : S_TEXT/UTF8
Codec ID/Info : UTF-8 Plain Text
Duration : 1 h 40 min
Bit rate : 1 b/s
Count of elements : 30
Stream size : 1.10 KiB (0%)
Title : Forced
Language : Ukrainian
Default : No
Forced : No
Text #4
ID : 8
Format : UTF-8
Codec ID : S_TEXT/UTF8
Codec ID/Info : UTF-8 Plain Text
Duration : 1 h 41 min
Bit rate : 80 b/s
Count of elements : 1414
Stream size : 60.0 KiB (0%)
Title : Full
Language : Ukrainian
Default : No
Forced : No
Text #5
ID : 9
Format : UTF-8
Codec ID : S_TEXT/UTF8
Codec ID/Info : UTF-8 Plain Text
Duration : 1 h 32 min
Bit rate : 0 b/s
Count of elements : 24
Stream size : 554 Bytes (0%)
Title : Forced
Language : English
Default : No
Forced : No
Text #6
ID : 10
Format : UTF-8
Codec ID : S_TEXT/UTF8
Codec ID/Info : UTF-8 Plain Text
Duration : 1 h 37 min
Bit rate : 59 b/s
Count of elements : 1399
Stream size : 42.6 KiB (0%)
Title : Full
Language : English
Default : No
Forced : No
Menu
00:00:00.000 : en:Chapter 01
00:04:52.417 : en:Chapter 02
00:09:49.088 : en:Chapter 03
00:15:35.643 : en:Chapter 04
00:20:26.767 : en:Chapter 05
00:25:47.838 : en:Chapter 06
00:35:15.780 : en:Chapter 07
00:42:53.738 : en:Chapter 08
00:47:13.664 : en:Chapter 09
00:52:57.883 : en:Chapter 10
00:55:41.463 : en:Chapter 11
01:01:02.659 : en:Chapter 12
01:06:11.301 : en:Chapter 13
01:10:23.136 : en:Chapter 14
01:13:52.136 : en:Chapter 15
01:18:26.327 : en:Chapter 16
01:22:39.496 : en:Chapter 17
01:32:57.322 : en:Chapter 18
01:38:30.238 : en:Chapter 19

Орлов Владимир

Post Yesterday 03:49

[Quote]

--В прямом эфире / Late Night --
Информация о фильме
Название: В прямом эфире
Оригинальное название: Late Night
Год выхода: 2019
Жанр: Драма, комедия
Страна: США
Перевод: Профессиональный (многоголосый закадровый) iTunes
Продолжительность: 01:41:41
Режиссер: Ниша Ганатра--В ролях: Эмма Томпсон, Минди Кейлинг, Джон Литгоу, Хью Дэнси, Рейд Скотт, Дэнис О’Хэр, Макс Казелла, Пол Уолтер Хаузер, Джон Ерли, Иа Пател и др.--О фильме: Кэтрин Ньюбери является пионером и легендарным ведущим ночных ток-шоу. Когда ее обвиняют в том, что она «женщина, которая ненавидит женщин», она нанимает Молли. В мужском отделе сценаристов Молли становится первой женщиной. Но таких «косметических» изменений слишком мало для начальства. Грозная Кэтрин также сталкивается с реальностью низких рейтингов и её хотят заменить. Молли, в свою очередь, полна решимости помочь Кэтрин, оживив ее шоу.-- --Файл
Качество: BDRip 1080p
Видео: MPEG-4 AVC, 1920x1040, 11792 kbps, 23,976 fps
Звук#1: русский, AC3, 5.1 ch, 48 kHz, 384 kbps | iTunes
Звук#2: английский, AC3, 5.1 ch, 48 kHz, 448 kbps | Оригинал
Субтитры: русские (форс., полные), украинские (полные), английские (полные)--

Тех.данные видеофайла

Общее
Уникальный идентификатор: 234860987222639508749963917791463581755 (0xB0B094AFB46FC139958B20B924F1A83B)
Полное имя: G:Torrent2LateNightBDRip1080p.mkv
Формат: Matroska
Версия формата: Version 4 / Version 2
Размер файла: 8,96 Гбайт
Продолжительность: 1 ч. 41 м.
Общий поток: 12,6 Мбит/сек
Дата кодирования: UTC 2019-11-20 19:01:05
Программа кодирования: mkvmerge v9.5.0 ('Quiet Fire') 64bit
Библиотека кодирования: libebml v1.3.4 + libmatroska v1.4.5
Видео
Идентификатор: 1
Формат: AVC
Формат/Информация: Advanced Video Codec
Профиль формата: High@L4.1
Настройки формата: CABAC / 4 Ref Frames
Параметр CABAC формата: Да
Параметр RefFrames формата: 4 кадра
Идентификатор кодека: V_MPEG4/ISO/AVC
Продолжительность: 1 ч. 41 м.
Битрейт: 11,8 Мбит/сек
Ширина: 1920 пикселей
Высота: 1040 пикселей
Соотношение сторон: 1,85:1
Режим частоты кадров: Постоянный
Частота кадров: 23,976 (23976/1000) кадра/сек
Цветовое пространство: YUV
Субдискретизация насыщенности: 4:2:0
Битовая глубина: 8 бит
Тип развёртки: Прогрессивная
Бит/(Пиксели*Кадры): 0.246
Размер потока: 8,36 Гбайт (93%)
Заголовок: Sisendrovich(R)
Библиотека кодирования: x264 core 152 r2851 ba24899
Настройки программы: cabac=1 / ref=4 / deblock=1:-1:-1 / analyse=0x3:0x133 / me=tesa / subme=11 / psy=1 / psy_rd=1.00:0.00 / mixed_ref=1 / me_range=32 / chroma_me=1 / trellis=2 / 8x8dct=1 / cqm=0 / deadzone=21,11 / fast_pskip=0 / chroma_qp_offset=-2 / threads=24 / lookahead_threads=6 / sliced_threads=0 / nr=0 / decimate=0 / interlaced=0 / bluray_compat=0 / constrained_intra=0 / bframes=12 / b_pyramid=2 / b_adapt=2 / b_bias=0 / direct=3 / weightb=1 / open_gop=0 / weightp=2 / keyint=240 / keyint_min=23 / scenecut=40 / intra_refresh=0 / rc_lookahead=60 / rc=2pass / mbtree=0 / bitrate=11792 / ratetol=1.0 / qcomp=0.70 / qpmin=0 / qpmax=69 / qpstep=4 / cplxblur=20.0 / qblur=0.5 / vbv_maxrate=50000 / vbv_bufsize=62500 / nal_hrd=none / filler=0 / ip_ratio=1.40 / pb_ratio=1.30 / aq=3:0.80
Язык: English
Default: Да
Forced: Нет
Аудио #1
Идентификатор: 2
Формат: AC-3
Формат/Информация: Audio Coding 3
Параметр Endianness формата: Big
Идентификатор кодека: A_AC3
Продолжительность: 1 ч. 41 м.
Вид битрейта: Постоянный
Битрейт: 384 Кбит/сек
Каналы: 6 каналов
Расположение каналов: Front: L C R, Side: L R, LFE
Частота: 48,0 КГц
Частота кадров: 31,250 кадров/сек (1536 SPF)
Битовая глубина: 16 бит
Метод сжатия: С потерями
Размер потока: 279 Мбайт (3%)
Заголовок: rus
Язык: Russian
Default: Да
Forced: Нет
Аудио #2
Идентификатор: 3
Формат: AC-3
Формат/Информация: Audio Coding 3
Параметр Endianness формата: Big
Идентификатор кодека: A_AC3
Продолжительность: 1 ч. 41 м.
Вид битрейта: Постоянный
Битрейт: 448 Кбит/сек
Каналы: 6 каналов
Расположение каналов: Front: L C R, Side: L R, LFE
Частота: 48,0 КГц
Частота кадров: 31,250 кадров/сек (1536 SPF)
Битовая глубина: 16 бит
Метод сжатия: С потерями
Размер потока: 326 Мбайт (4%)
Заголовок: eng
Язык: English
Default: Нет
Forced: Нет
Текст #1
Идентификатор: 4
Формат: UTF-8
Идентификатор кодека: S_TEXT/UTF8
Идентификатор кодека/Информация: UTF-8 Plain Text
Продолжительность: 1 ч. 32 м.
Битрейт: 1 бит/сек
ElementCount: 16
Размер потока: 736 байт (0%)
Заголовок: rusForced
Язык: Russian
Default: Да
Forced: Да
Текст #2
Идентификатор: 5
Формат: UTF-8
Идентификатор кодека: S_TEXT/UTF8
Идентификатор кодека/Информация: UTF-8 Plain Text
Продолжительность: 1 ч. 41 м.
Битрейт: 149 бит/сек
ElementCount: 1722
Размер потока: 111 Кбайт (0%)
Заголовок: rusFull
Язык: Russian
Default: Нет
Forced: Нет
Текст #3
Идентификатор: 6
Формат: UTF-8
Идентификатор кодека: S_TEXT/UTF8
Идентификатор кодека/Информация: UTF-8 Plain Text
Продолжительность: 1 ч. 41 м.
Битрейт: 134 бит/сек
ElementCount: 1710
Размер потока: 99,3 Кбайт (0%)
Заголовок: ukrFull
Язык: Ukrainian
Default: Нет
Forced: Нет
Текст #4
Идентификатор: 7
Формат: UTF-8
Идентификатор кодека: S_TEXT/UTF8
Идентификатор кодека/Информация: UTF-8 Plain Text
Продолжительность: 1 ч. 35 м.
Битрейт: 96 бит/сек
ElementCount: 1697
Размер потока: 67,5 Кбайт (0%)
Заголовок: engFull
Язык: English
Default: Нет
Forced: Нет
Меню
00: 00:00.000: en:Chapter 01
00: 09:51.507: en:Chapter 02
00: 16:43.836: en:Chapter 03
00: 24:45.692: en:Chapter 04
00: 33:04.899: en:Chapter 05
00: 40:45.192: en:Chapter 06
00: 51:39.346: en:Chapter 07
01: 02:18.735: en:Chapter 08
01: 10:30.392: en:Chapter 09
01: 19:15.959: en:Chapter 10
01: 26:10.206: en:Chapter 11
01: 36:31.660: en:Chapter 12

Скриншоты

       

Орлов Владимир

Post Yesterday 03:45

[Quote]

--В прямом эфире / Late Night--
Информация о фильме
Название: В прямом эфире
Оригинальное название: Late Night
Год выхода: 2019
Жанр: Драма, комедия
Страна: США
Перевод: Профессиональный (многоголосый закадровый) iTunes
Продолжительность: 01:41:41
Режиссер: Ниша Ганатра--В ролях: Эмма Томпсон, Минди Кейлинг, Джон Литгоу, Хью Дэнси, Рейд Скотт, Дэнис О’Хэр, Макс Казелла, Пол Уолтер Хаузер, Джон Ерли, Иа Пател и др.--О фильме: Кэтрин Ньюбери является пионером и легендарным ведущим ночных ток-шоу. Когда ее обвиняют в том, что она «женщина, которая ненавидит женщин», она нанимает Молли. В мужском отделе сценаристов Молли становится первой женщиной. Но таких «косметических» изменений слишком мало для начальства. Грозная Кэтрин также сталкивается с реальностью низких рейтингов и её хотят заменить. Молли, в свою очередь, полна решимости помочь Кэтрин, оживив ее шоу.-- --Файл
Качество: BDRip 720p
Видео: MPEG-4 AVC, 1280x694, 5495 kbps, 23,976 fps
Звук#1: русский, AC3, 5.1 ch, 48 kHz, 384 kbps | iTunes
Звук#2: английский, AC3, 5.1 ch, 48 kHz, 448 kbps | Оригинал
Субтитры: русские (форс., полные), украинские (полные), английские (полные)--

Тех.данные видеофайла

Общее
Уникальный идентификатор: 252942321526846185939006536035479878770 (0xBE4AEB4BA76981A7B8708D2734707C72)
Полное имя: G:Torrent2LateNightBDRip720p.mkv
Формат: Matroska
Версия формата: Version 4 / Version 2
Размер файла: 4,49 Гбайт
Продолжительность: 1 ч. 41 м.
Общий поток: 6321 Кбит/сек
Дата кодирования: UTC 2019-11-20 19:05:02
Программа кодирования: mkvmerge v9.5.0 ('Quiet Fire') 64bit
Библиотека кодирования: libebml v1.3.4 + libmatroska v1.4.5
Видео
Идентификатор: 1
Формат: AVC
Формат/Информация: Advanced Video Codec
Профиль формата: High@L4.1
Настройки формата: CABAC / 9 Ref Frames
Параметр CABAC формата: Да
Параметр RefFrames формата: 9 кадров
Идентификатор кодека: V_MPEG4/ISO/AVC
Продолжительность: 1 ч. 41 м.
Битрейт: 5495 Кбит/сек
Ширина: 1280 пикселей
Высота: 694 пикселя
Соотношение сторон: 1,85:1
Режим частоты кадров: Постоянный
Частота кадров: 23,976 (23976/1000) кадра/сек
Цветовое пространство: YUV
Субдискретизация насыщенности: 4:2:0
Битовая глубина: 8 бит
Тип развёртки: Прогрессивная
Бит/(Пиксели*Кадры): 0.258
Размер потока: 3,90 Гбайт (87%)
Заголовок: Sisendrovich(R)
Библиотека кодирования: x264 core 152 r2851 ba24899
Настройки программы: cabac=1 / ref=9 / deblock=1:-1:-1 / analyse=0x3:0x133 / me=tesa / subme=11 / psy=1 / psy_rd=1.00:0.00 / mixed_ref=1 / me_range=32 / chroma_me=1 / trellis=2 / 8x8dct=1 / cqm=0 / deadzone=21,11 / fast_pskip=0 / chroma_qp_offset=-2 / threads=22 / lookahead_threads=5 / sliced_threads=0 / nr=0 / decimate=0 / interlaced=0 / bluray_compat=0 / constrained_intra=0 / bframes=12 / b_pyramid=2 / b_adapt=2 / b_bias=0 / direct=3 / weightb=1 / open_gop=0 / weightp=2 / keyint=240 / keyint_min=23 / scenecut=40 / intra_refresh=0 / rc_lookahead=60 / rc=2pass / mbtree=0 / bitrate=5495 / ratetol=1.0 / qcomp=0.70 / qpmin=0 / qpmax=69 / qpstep=4 / cplxblur=20.0 / qblur=0.5 / vbv_maxrate=50000 / vbv_bufsize=62500 / nal_hrd=none / filler=0 / ip_ratio=1.40 / pb_ratio=1.30 / aq=3:0.80
Язык: English
Default: Да
Forced: Нет
Аудио #1
Идентификатор: 2
Формат: AC-3
Формат/Информация: Audio Coding 3
Параметр Endianness формата: Big
Идентификатор кодека: A_AC3
Продолжительность: 1 ч. 41 м.
Вид битрейта: Постоянный
Битрейт: 384 Кбит/сек
Каналы: 6 каналов
Расположение каналов: Front: L C R, Side: L R, LFE
Частота: 48,0 КГц
Частота кадров: 31,250 кадров/сек (1536 SPF)
Битовая глубина: 16 бит
Метод сжатия: С потерями
Размер потока: 279 Мбайт (6%)
Заголовок: rus
Язык: Russian
Default: Да
Forced: Нет
Аудио #2
Идентификатор: 3
Формат: AC-3
Формат/Информация: Audio Coding 3
Параметр Endianness формата: Big
Идентификатор кодека: A_AC3
Продолжительность: 1 ч. 41 м.
Вид битрейта: Постоянный
Битрейт: 448 Кбит/сек
Каналы: 6 каналов
Расположение каналов: Front: L C R, Side: L R, LFE
Частота: 48,0 КГц
Частота кадров: 31,250 кадров/сек (1536 SPF)
Битовая глубина: 16 бит
Метод сжатия: С потерями
Размер потока: 326 Мбайт (7%)
Заголовок: eng
Язык: English
Default: Нет
Forced: Нет
Текст #1
Идентификатор: 4
Формат: UTF-8
Идентификатор кодека: S_TEXT/UTF8
Идентификатор кодека/Информация: UTF-8 Plain Text
Продолжительность: 1 ч. 32 м.
Битрейт: 1 бит/сек
ElementCount: 16
Размер потока: 736 байт (0%)
Заголовок: rusForced
Язык: Russian
Default: Да
Forced: Да
Текст #2
Идентификатор: 5
Формат: UTF-8
Идентификатор кодека: S_TEXT/UTF8
Идентификатор кодека/Информация: UTF-8 Plain Text
Продолжительность: 1 ч. 41 м.
Битрейт: 149 бит/сек
ElementCount: 1722
Размер потока: 111 Кбайт (0%)
Заголовок: rusFull
Язык: Russian
Default: Нет
Forced: Нет
Текст #3
Идентификатор: 6
Формат: UTF-8
Идентификатор кодека: S_TEXT/UTF8
Идентификатор кодека/Информация: UTF-8 Plain Text
Продолжительность: 1 ч. 41 м.
Битрейт: 134 бит/сек
ElementCount: 1710
Размер потока: 99,3 Кбайт (0%)
Заголовок: ukrFull
Язык: Ukrainian
Default: Нет
Forced: Нет
Текст #4
Идентификатор: 7
Формат: UTF-8
Идентификатор кодека: S_TEXT/UTF8
Идентификатор кодека/Информация: UTF-8 Plain Text
Продолжительность: 1 ч. 35 м.
Битрейт: 96 бит/сек
ElementCount: 1697
Размер потока: 67,5 Кбайт (0%)
Заголовок: engFull
Язык: English
Default: Нет
Forced: Нет
Меню
00: 00:00.000: en:Chapter 01
00: 09:51.507: en:Chapter 02
00: 16:43.836: en:Chapter 03
00: 24:45.692: en:Chapter 04
00: 33:04.899: en:Chapter 05
00: 40:45.192: en:Chapter 06
00: 51:39.346: en:Chapter 07
01: 02:18.735: en:Chapter 08
01: 10:30.392: en:Chapter 09
01: 19:15.959: en:Chapter 10
01: 26:10.206: en:Chapter 11
01: 36:31.660: en:Chapter 12

Скриншоты

       

Орлов Владимир

Post Yesterday 03:28

[Quote]

--Берлин, я люблю тебя / Berlin, I Love You--
Информация о фильме
Название: Берлин, я люблю тебя
Оригинальное название: Berlin, I Love You
Год выхода: 2019
Жанр: драма, мелодрама
Режиссер: Дианна Агрон, Питер Челсом, Фернандо Эймбке--В ролях: Кира Найтли, Хелен Миррен, Люк Уилсон, Джим Стёрджесс, Микки Рурк, Дженна Деван, Хайден Панеттьери, Эмили Бичем, Дианна Агрон, Вероника Феррес--О фильме: Последний выпуск серии "Города любви". Полнометражный фильм создан из десятка романтических историй, которые происходят в столице Германии, Берлине.-- --Выпущено: Германия / Bily Media Berlin, Rheingold Films, Shotz Fiction Film
Продолжительность: 01:59:59
Озвучивание: Дублированное iTunes--Файл
Формат: MKV
Качество: BDRip 720p
Видео: 5010 Kb/s, 1280х568
Аудио: Russian / English: AC3, 6 ch, 384 Kb/s
Субтитры: Нет
Дополнительно: Сохранены оригинальные чаптеры.--

Тех.данные видеофайла

Общее
Уникальный идентификатор: 243703808793428623292447784330527562703 (0xB757A5735E96388EB7C0E4E16E84DBCF)
Полное имя: Berlin.I.Love.You.2019.720p.BluRay.ELEKTRI4KA.UNIONGANG.mkv
Формат: Matroska
Версия формата: Version 4
Размер файла: 4,84 Гбайт
Продолжительность: 1 ч. 59 м.
Общий поток: 5777 Кбит/сек
Дата кодирования: UTC 2019-11-20 13:26:43
Программа кодирования: mkvmerge v8.3.0 ('Over the Horizon') 64bit
Библиотека кодирования: libebml v1.3.1 + libmatroska v1.4.2
Видео
Идентификатор: 1
Формат: AVC
Формат/Информация: Advanced Video Codec
Профиль формата: High@L4.1
Настройки формата: CABAC / 5 Ref Frames
Параметр CABAC формата: Да
Параметр RefFrames формата: 5 кадров
Идентификатор кодека: V_MPEG4/ISO/AVC
Продолжительность: 1 ч. 59 м.
Битрейт: 5010 Кбит/сек
Ширина: 1280 пикселей
Высота: 688 пикселей
Соотношение сторон: 1,85:1
Режим частоты кадров: Постоянный
Частота кадров: 23,976 (24000/1001) кадра/сек
Цветовое пространство: YUV
Субдискретизация насыщенности: 4:2:0
Битовая глубина: 8 бит
Тип развёртки: Прогрессивная
Бит/(Пиксели*Кадры): 0.237
Размер потока: 4,20 Гбайт (87%)
Библиотека кодирования: x264 core 157 r2970 5493be8
Настройки программы: cabac=1 / ref=5 / deblock=1:-3:-3 / analyse=0x3:0x113 / me=umh / subme=8 / psy=1 / psy_rd=1.00:0.00 / mixed_ref=1 / me_range=16 / chroma_me=1 / trellis=1 / 8x8dct=1 / cqm=0 / deadzone=21,11 / fast_pskip=1 / chroma_qp_offset=-2 / threads=21 / lookahead_threads=3 / sliced_threads=0 / nr=0 / decimate=1 / interlaced=0 / bluray_compat=0 / constrained_intra=0 / bframes=3 / b_pyramid=2 / b_adapt=1 / b_bias=0 / direct=3 / weightb=1 / open_gop=0 / weightp=2 / keyint=250 / keyint_min=23 / scenecut=40 / intra_refresh=0 / rc_lookahead=50 / rc=2pass / mbtree=1 / bitrate=5010 / ratetol=1.0 / qcomp=0.60 / qpmin=0 / qpmax=69 / qpstep=4 / cplxblur=20.0 / qblur=0.5 / ip_ratio=1.40 / aq=1:1.00
Язык: English
Default: Да
Forced: Нет
Аудио #1
Идентификатор: 2
Формат: AC-3
Формат/Информация: Audio Coding 3
Коммерческое название: Dolby Digital
Идентификатор кодека: A_AC3
Продолжительность: 1 ч. 59 м.
Вид битрейта: Постоянный
Битрейт: 384 Кбит/сек
Каналы: 6 каналов
ChannelLayout: L R C LFE Ls Rs
Частота: 48,0 КГц
Частота кадров: 31,250 кадров/сек (1536 SPF)
Метод сжатия: С потерями
Размер потока: 329 Мбайт (7%)
Заголовок: iTunes (ELEKTRI4KA.UNIONGANG)
Язык: Russian
ServiceKind/String: Complete Main
Default: Да
Forced: Нет
Аудио #2
Идентификатор: 3
Формат: AC-3
Формат/Информация: Audio Coding 3
Коммерческое название: Dolby Digital
Идентификатор кодека: A_AC3
Продолжительность: 1 ч. 59 м.
Вид битрейта: Постоянный
Битрейт: 384 Кбит/сек
Каналы: 6 каналов
ChannelLayout: L R C LFE Ls Rs
Частота: 48,0 КГц
Частота кадров: 31,250 кадров/сек (1536 SPF)
Метод сжатия: С потерями
Размер потока: 330 Мбайт (7%)
Язык: English
ServiceKind/String: Complete Main
Default: Нет
Forced: Нет
Меню
00:00:00.000: en:00:00:00.000
00:08:10.156: en:00:08:10.156
00:15:01.526: en:00:15:01.526
00:20:33.149: en:00:20:33.149
00:29:04.326: en:00:29:04.326
00:39:58.938: en:00:39:58.938
00:45:10.082: en:00:45:10.082
00:53:01.095: en:00:53:01.095
00:55:06.637: en:00:55:06.637
01:06:15.930: en:01:06:15.930
01:15:34.989: en:01:15:34.989
01:19:08.494: en:01:19:08.494
01:27:20.986: en:01:27:20.986
01:37:14.620: en:01:37:14.620
01:46:39.977: en:01:46:39.977
01:52:13.560: en:01:52:13.560

Скриншоты

       

Орлов Владимир

Post Yesterday 03:13

[Quote]

-- Берлин, я люблю тебя / Berlin, I Love You--
Информация о фильме
Название: Берлин, я люблю тебя
Оригинальное название: Berlin, I Love You
Год выхода: 2019
Жанр: драма, мелодрама
Режиссер: Дианна Агрон, Питер Челсом, Фернандо Эймбке--В ролях: Кира Найтли, Хелен Миррен, Люк Уилсон, Джим Стёрджесс, Микки Рурк, Дженна Деван, Хайден Панеттьери, Эмили Бичем, Дианна Агрон, Вероника Феррес--О фильме: Последний выпуск серии "Города любви". Полнометражный фильм создан из десятка романтических историй, которые происходят в столице Германии, Берлине.-- --Выпущено: Германия / Bily Media Berlin, Rheingold Films, Shotz Fiction Film
Продолжительность: 01:59:59
Озвучивание: Дублированное iTunes--Файл
Формат: MKV
Качество: BDRip 1080p
Видео: 8925 Kb/s, 1920х1040
Аудио: Russian / English: AC3, 6 ch, 384 Kb/s
Субтитры: English
Дополнительно: Сохранены оригинальные чаптеры.--

Тех.данные видеофайла

Общее
Уникальный идентификатор: 210689979727654391354558724212097068223 (0x9E816A0210322472888A163F521CACBF)
Полное имя: Berlin.I.Love.You.2019.1080p.BluRay.ELEKTRI4KA.UNIONGANG.mkv
Формат: Matroska
Версия формата: Version 4
Размер файла: 8,13 Гбайт
Продолжительность: 1 ч. 59 м.
Общий поток: 9695 Кбит/сек
Дата кодирования: UTC 2019-11-20 16:59:37
Программа кодирования: mkvmerge v8.3.0 ('Over the Horizon') 64bit
Библиотека кодирования: libebml v1.3.1 + libmatroska v1.4.2
Видео
Идентификатор: 1
Формат: AVC
Формат/Информация: Advanced Video Codec
Профиль формата: High@L4.1
Настройки формата: CABAC / 4 Ref Frames
Параметр CABAC формата: Да
Параметр RefFrames формата: 4 кадра
Идентификатор кодека: V_MPEG4/ISO/AVC
Продолжительность: 1 ч. 59 м.
Битрейт: 8925 Кбит/сек
Ширина: 1920 пикселей
Высота: 1040 пикселей
Соотношение сторон: 1,85:1
Режим частоты кадров: Постоянный
Частота кадров: 23,976 (24000/1001) кадра/сек
Цветовое пространство: YUV
Субдискретизация насыщенности: 4:2:0
Битовая глубина: 8 бит
Тип развёртки: Прогрессивная
Бит/(Пиксели*Кадры): 0.186
Размер потока: 7,48 Гбайт (92%)
Библиотека кодирования: x264 core 157 r2970 5493be8
Настройки программы: cabac=1 / ref=4 / deblock=1:-3:-3 / analyse=0x3:0x113 / me=umh / subme=8 / psy=1 / psy_rd=1.00:0.00 / mixed_ref=1 / me_range=16 / chroma_me=1 / trellis=1 / 8x8dct=1 / cqm=0 / deadzone=21,11 / fast_pskip=1 / chroma_qp_offset=-2 / threads=30 / lookahead_threads=5 / sliced_threads=0 / nr=0 / decimate=1 / interlaced=0 / bluray_compat=0 / constrained_intra=0 / bframes=3 / b_pyramid=2 / b_adapt=1 / b_bias=0 / direct=3 / weightb=1 / open_gop=0 / weightp=2 / keyint=250 / keyint_min=23 / scenecut=40 / intra_refresh=0 / rc_lookahead=50 / rc=2pass / mbtree=1 / bitrate=8925 / ratetol=1.0 / qcomp=0.60 / qpmin=0 / qpmax=69 / qpstep=4 / cplxblur=20.0 / qblur=0.5 / ip_ratio=1.40 / aq=1:1.00
Язык: English
Default: Да
Forced: Нет
Аудио #1
Идентификатор: 2
Формат: AC-3
Формат/Информация: Audio Coding 3
Коммерческое название: Dolby Digital
Идентификатор кодека: A_AC3
Продолжительность: 1 ч. 59 м.
Вид битрейта: Постоянный
Битрейт: 384 Кбит/сек
Каналы: 6 каналов
ChannelLayout: L R C LFE Ls Rs
Частота: 48,0 КГц
Частота кадров: 31,250 кадров/сек (1536 SPF)
Метод сжатия: С потерями
Размер потока: 329 Мбайт (4%)
Заголовок: iTunes (ELEKTRI4KA.UNIONGANG)
Язык: Russian
ServiceKind/String: Complete Main
Default: Да
Forced: Нет
Аудио #2
Идентификатор: 3
Формат: AC-3
Формат/Информация: Audio Coding 3
Коммерческое название: Dolby Digital
Идентификатор кодека: A_AC3
Продолжительность: 1 ч. 59 м.
Вид битрейта: Постоянный
Битрейт: 384 Кбит/сек
Каналы: 6 каналов
ChannelLayout: L R C LFE Ls Rs
Частота: 48,0 КГц
Частота кадров: 31,250 кадров/сек (1536 SPF)
Метод сжатия: С потерями
Размер потока: 330 Мбайт (4%)
ServiceKind/String: Complete Main
Default: Нет
Forced: Нет
Текст
Идентификатор: 4
Формат: VobSub
Режим смешивания: zlib
Идентификатор кодека: S_VOBSUB
Идентификатор кодека/Информация: Picture based subtitle format used on DVDs
Продолжительность: 1 ч. 53 м.
Битрейт: 5469 бит/сек
ElementCount: 1407
Размер потока: 4,42 Мбайт (0%)
Язык: English
Default: Да
Forced: Нет
Меню
00:00:00.000: en:00:00:00.000
00:08:10.156: en:00:08:10.156
00:15:01.526: en:00:15:01.526
00:20:33.149: en:00:20:33.149
00:29:04.326: en:00:29:04.326
00:39:58.938: en:00:39:58.938
00:45:10.082: en:00:45:10.082
00:53:01.095: en:00:53:01.095
00:55:06.637: en:00:55:06.637
01:06:15.930: en:01:06:15.930
01:15:34.989: en:01:15:34.989
01:19:08.494: en:01:19:08.494
01:27:20.986: en:01:27:20.986
01:37:14.620: en:01:37:14.620
01:46:39.977: en:01:46:39.977
01:52:13.560: en:01:52:13.560

Скриншоты

       

Орлов Владимир

Post Yesterday 03:09

[Quote]

--Предвестник землетрясения / Earthquake Bird--
Название: Предвестник землетрясения
Оригинальное название: Earthquake Bird
Год выпуска: 2019
Производство: США, Scott Free Productions, Twenty First City
Жанр: Триллер, мелодрама, детектив, криминал--Режиссер: Уош Уэстмоленд
Актеры: Алисия Викандер, Райли Кио, Наоки Кобаяси, Кики Сукэдзанэ, Кэнъити Масуда, Тиаки Кавамо, Кэн Ямамура, Кадзухиро Мурояма, Акико Ивасэ, Ёсико Сакума--Описание:
Токио, 1989 год. Несколько лет назад замкнутая и нелюдимая Люси, сбежав от семейных проблем, переехала в Японию, где теперь работает переводчиком. Когда в Токийском заливе обнаруживают женскую руку, девушка становится подозреваемой в предположительном убийстве пропавшей подруги и землячки Лили. На допросе в полиции Люси рассказывает, как однажды на улице она встретилась с привлекательным фотографом Тэидзи, и как знакомый экспат свёл её с Лили, такой непохожей на неё саму, и как продолжилась дружба двух противоположностей.-- --Рейтинг MPAA: R (лицам до 17 лет обязательно присутствие взрослого)
Дата мировой премьеры: 10 октября 2019--Продолжительность: 01:46:46
Перевод: Любительский двухголосый (FRONDA)
Субтитры: Русские, английские, испанские, французские, немецкие, португальские--Качество: WEB-DL 1080p
Видео: MPEG-4 AVC, 4870 Кбит/с, 1920x1080
Аудио: Русский (AC3, 2 ch, 256 Кбит/с), английский (E-AC3+Atmos, 6 ch, 768 Кбит/с)--

Скриншоты

           

Орлов Владимир

Post 18-Nov-2019 03:36

[Quote]

--Падение ангела / Angel Has Fallen--
Информация о фильме
Название: Падение ангела
Оригинальное название: Angel Has Fallen
Год выхода: 2019
Жанр: Боевик
Режиссер: Рик Роман Во--В ролях: Джерард Батлер, Морган Фримен, Фредерик Шмидт, Дэнни Хьюстон, Рокки Уильямс, Пайпер Перабо, Джада Пинкетт Смит, Гарри Дитсон, Ник Нолти, Лэнс Реддик, Тим Блэйк Нельсон, Крис Браунинг, Екатерина Гусарова, Ори Феффер, Жасмин Хайд, Майкл Лэндис, Марк Арнольд, Керри Шейл, Эндрю Брук, Мартин Берман, Райан Олива, Дерек Сиоу--О фильме: Третья часть антитеррористической экшен-франшизы про высококлассного агента секретной службы США Майка Бэннинга (Джерард Батлер), который спасает от смертельного заговора первых лиц мировой политики. На этот раз целью террористов становится сам Бэннинг. Его подставляют и обвиняют в покушении на президента страны (Морган Фриман) — и теперь его разыскивают все спецслужбы. Чтобы очистить свое доброе имя, Бэннингу нужно самостоятельно раскрыть заговор.-- --Страна: США
Студия: Campbell Grobman Films, Eclectic Pictures, G-BASE
Продолжительность: 02:01:03
Перевод: Дублированный iTunes--Качество: BDRemux 2160p
Видео: 3840x2160 at 23.976 fps, MPEG-H HEVC HDR, Dolby Vision Video, 66800 kbps avg
Аудио: 48 kHz, AC3, 5.1, 384 Kbps | iTunes | RUS | --

Тех.данные видеофайла

General
Complete name : D:\Video111\Angel.Has.Fallen.2019.BDREMUX.2160p.DV.HDR.seleZen\Angel.Has.Fallen.2019.BDREMUX.2160p.DV.HDR.seleZen.mp4
Format : MPEG-4
Format profile : Base Media / Version 2
Codec ID : mp42 (mp42/dby1/isom)
File size : 63.5 GiB
Duration : 2 h 1 min
Overall bit rate : 75.0 Mb/s
Encoded date : UTC 2019-11-17 20:17:14
Tagged date : UTC 2019-11-17 20:17:14
Video #1
ID : 1
Format : HEVC
Format/Info : High Efficiency Video Coding
Format profile : Main 10@L5.1@High
HDR format : SMPTE ST 2086, HDR10 compatible
Codec ID : hev1
Codec ID/Info : High Efficiency Video Coding
Duration : 2 h 1 min
Bit rate : 66.8 Mb/s
Width : 3 840 pixels
Height : 2 160 pixels
Display aspect ratio : 16:9
Frame rate mode : Constant
Frame rate : 23.976 (24000/1001) FPS
Color space : YUV
Chroma subsampling : 4:2:0 (Type 2)
Bit depth : 10 bits
Bits/(Pixel*Frame) : 0.336
Stream size : 56.5 GiB (89%)
Default : No
Encoded date : UTC 2019-11-17 20:17:14
Tagged date : UTC 2019-11-17 20:17:14
Color range : Limited
Color primaries : BT.2020
Transfer characteristics : PQ
Matrix coefficients : BT.2020 non-constant
Mastering display color pri: Display P3
Mastering display luminance: min: 0.0010 cd/m2, max: 1000 cd/m2
Maximum Content Light Level: 1000 cd/m2
Maximum Frame-Average Light: 634 cd/m2
Codec configuration box : hvcC
Video #2
ID : 2
Format : HEVC
Format/Info : High Efficiency Video Coding
Format profile : Main 10@L5.1@High
HDR format : Dolby Vision, Version 1.0, dvhe.07.06, EL+RPU / SMPTE ST 2086, HDR10 compatible
Codec ID : dvhe
Codec ID/Info : High Efficiency Video Coding with Dolby Vision
Duration : 2 h 1 min
Bit rate : 7 854 kb/s
Width : 1 920 pixels
Height : 1 080 pixels
Display aspect ratio : 16:9
Frame rate mode : Constant
Frame rate : 23.976 (24000/1001) FPS
Color space : YUV
Chroma subsampling : 4:2:0 (Type 2)
Bit depth : 10 bits
Bits/(Pixel*Frame) : 0.158
Stream size : 6.64 GiB (10%)
Default : No
Encoded date : UTC 2019-11-17 20:17:14
Tagged date : UTC 2019-11-17 20:17:14
Color range : Limited
Color primaries : BT.2020
Transfer characteristics : PQ
Matrix coefficients : BT.2020 non-constant
Mastering display color pri: Display P3
Mastering display luminance: min: 0.0010 cd/m2, max: 1000 cd/m2
Codec configuration box : hvcC+dvcC
Audio
ID : 3
Format : AC-3
Format/Info : Audio Coding 3
Commercial name : Dolby Digital
Codec ID : ac-3
Duration : 2 h 1 min
Bit rate mode : Constant
Bit rate : 384 kb/s
Channel(s) : 6 channels
Channel layout : L R C LFE Ls Rs
Sampling rate : 48.0 kHz
Frame rate : 31.250 FPS (1536 SPF)
Bit depth : 16 bits
Compression mode : Lossy
Stream size : 332 MiB (1%)
Language : Russian
Service kind : Complete Main
Default : No
Encoded date : UTC 2019-11-17 20:17:14
Tagged date : UTC 2019-11-17 20:17:14

Скриншоты

       

Орлов Владимир

Post 02-Nov-2019 12:09

[Quote]

--Арахисовый сокол / The Peanut Butter Falcon--
Информация о фильме
Название: Арахисовый сокол
Оригинальное название: The Peanut Butter Falcon
Год выхода: 2019
Жанр: Драма, комедия, приключения
Режиссер: Тайлер Нилсон, Майк Шварц--В ролях: Шайа ЛаБаф, Дакота Джонсон, Зак Готтзаген, Джон Хоукс, Томас Хейден Чёрч, Брюс Дерн, Джон Бернтал, Джейк Робертс, Мик Фоли--О фильме: Большое путешествие начинается с шага, а легендарное — с полета. Вылетев в окно, герой очутился в мире, где чего-то не хватало. Его новому другу — крупной суммы денег. Паре головорезов — головы друга. Молодой медсестре — любви. А ему — путешествий на плоту, погонь, пылающих костров и немного арахисового масла.-- --Страна: США
Студия: Armory Films, 1993, Lucky Treehouse
Продолжительность: 01:36:56
Перевод: Авторский - А.Важенин [BadBajo]--Файл
Кодек: h. 264
Качество: BDRip 1080
Видео: 1920х808, ~9789 Kbps, 23.976 (24000/1001) FPS
Русский: DTS, 6 ch, 1 509 Kbps (BadBajo)
Английский: DTS, 6 ch, 1 509 Kbps
Русский: AC3, 6 ch, 448 Kbps (BadBajo)
Субтитры: Английские--Семпл--

Скриншоты

           

Орлов Владимир

Post 01-Nov-2019 14:32

[Quote]

--Король / The King--Информация о фильме
Название: Король
Оригинальное название: The King
Год выпуска: 2019
Жанр: Драма, мелодрама, военный, биография, история
Режиссер: Джон Фавро--В ролях: Джеймс Эрл Джонс, Дональд Гловер, Чиветел Эджиофор, Джон Оливер, Джон Кани, Элфри Вудард, Джейдон Маккрэри, Шахади Райт Джозеф, Пенни Джонсон, Кигэн-Майкл Ки--О фильме:
История молодого английского короля Генриха V. Взойдя на престол в мрачные времена Столетней войны, он становится одним из величайших полководцев своей эпохи.-- --Страна: Великобритания, Венгрия, Австралия
Студия: Blue-Tongue Films, NetFlix, Pioneer Stilking Films, Plan B Entertainment, Porchlight Films Pty. Ltd., Yoki
Продолжительность: 02:20:30
Перевод: Дублированный Пифагор--Файл
Качество: WEB-DL (1080p)
Видео: MPEG-4 AVC, 5500 ККбит/с, 1920x1080
Аудио: Русский (E-AC3, 6 ch, 640 Кбит/с), английский (E-AC3 + Atmos, 6 ch, 768 Кбит/с)
Субтитры: русские (Forced, Full), английские (Forced, Full, SDH)--

Тех.данные видеофайла

Общее
Уникальный идентификатор : 256992935156003755835595243256758308182 (0xC15709F766AFB526326D7A572A128D56)
Полное имя : The.King.2019.1080p.WEB-DL.DUB.EniaHD.mkv
Формат : Matroska
Версия формата : Version 4
Размер файла : 6,80 Гбайт
Продолжительность : 2 ч. 20 м.
Режим общего битрейта : Переменный
Общий поток : 6929 Кбит/сек
Название фильма : Король (2019)
Дата кодирования : UTC 2019-11-01 08:17:19
Программа кодирования : mkvmerge v37.0.0 ('Leave It') 64-bit
Библиотека кодирования : libebml v1.3.9 + libmatroska v1.5.2
Обложка : Yes
Attachments : cover.jpg
Видео
Идентификатор : 1
Формат : AVC
Формат/Информация : Advanced Video Codec
Профиль формата : Main@L4
Настройки формата : CABAC / 3 Ref Frames
Параметр CABAC формата : Да
Параметр RefFrames формата : 3 кадра
Идентификатор кодека : V_MPEG4/ISO/AVC
Продолжительность : 2 ч. 20 м.
Вид битрейта : Переменный
Битрейт : 5519 Кбит/сек
Номинальный битрейт : 5800 Кбит/сек
Максимальный битрейт : 8700 Кбит/сек
Ширина : 1920 пикселей
Высота : 1080 пикселей
Соотношение сторон : 16:9
Режим частоты кадров : Постоянный
Частота кадров : 24,000 кадра/сек
Цветовое пространство : YUV
Субдискретизация насыщенности : 4:2:0
Битовая глубина : 8 бит
Тип развёртки : Прогрессивная
Бит/(Пиксели*Кадры) : 0.111
Размер потока : 5,42 Гбайт (80%)
Заголовок : The.King.2019.1080p.WEB-DL.DUB.EniaHD
Библиотека кодирования : x264 core 148 r2715 7e75228
Настройки программы : cabac=1 / ref=3 / deblock=1:0:0 / analyse=0x1:0x111 / me=umh / subme=10 / psy=1 / psy_rd=1.00:0.00 / mixed_ref=1 / me_range=24 / chroma_me=1 / trellis=2 / 8x8dct=0 / cqm=0 / deadzone=21,11 / fast_pskip=1 / chroma_qp_offset=-2 / threads=8 / lookahead_threads=1 / sliced_threads=0 / nr=0 / decimate=1 / interlaced=0 / bluray_compat=0 / stitchable=1 / constrained_intra=0 / bframes=2 / b_pyramid=0 / b_adapt=2 / b_bias=0 / direct=3 / weightb=1 / open_gop=0 / weightp=2 / keyint=250 / keyint_min=24 / scenecut=0 / intra_refresh=0 / rc_lookahead=48 / rc=2pass / mbtree=1 / bitrate=5800 / ratetol=1.0 / qcomp=0.50 / qpmin=6 / qpmax=51 / qpstep=4 / cplxblur=20.0 / qblur=0.5 / vbv_maxrate=8700 / vbv_bufsize=11600 / nal_hrd=vbr / filler=0 / ip_ratio=1.40 / aq=1:1.00
Язык : English
Default : Да
Forced : Нет
Аудио #1
Идентификатор : 2
Формат : E-AC-3
Формат/Информация : Enhanced AC-3
Коммерческое название : Dolby Digital Plus
Идентификатор кодека : A_EAC3
Продолжительность : 2 ч. 20 м.
Вид битрейта : Постоянный
Битрейт : 640 Кбит/сек
Каналы : 6 каналов
ChannelLayout : L R C LFE Ls Rs
Частота : 48,0 КГц
Частота кадров : 31,250 кадров/сек (1536 SPF)
Метод сжатия : С потерями
Размер потока : 643 Мбайт (9%)
Заголовок : E-AC3 5.1 @ 640 kbps - DUB, Пифагор
Язык : Russian
ServiceKind : Complete Main
Default : Да
Forced : Нет
Аудио #2
Идентификатор : 3
Формат : E-AC-3 JOC
Формат/Информация : Enhanced AC-3 with Joint Object Coding
Коммерческое название : Dolby Digital Plus with Dolby Atmos
Идентификатор кодека : A_EAC3
Продолжительность : 2 ч. 20 м.
Вид битрейта : Постоянный
Битрейт : 768 Кбит/сек
Каналы : 6 каналов
ChannelLayout : L R C LFE Ls Rs
Частота : 48,0 КГц
Частота кадров : 31,250 кадров/сек (1536 SPF)
Метод сжатия : С потерями
Размер потока : 772 Мбайт (11%)
Заголовок : E-AC3 + Atmos 5.1 @ 768 kbps - Original
Язык : English
ServiceKind : Complete Main
Default : Нет
Forced : Нет
ComplexityIndex : 16
NumberOfDynamicObjects : 15
BedChannelCount : 1 канал
BedChannelConfiguration : LFE
Текст #1
Идентификатор : 4
Формат : UTF-8
Идентификатор кодека : S_TEXT/UTF8
Идентификатор кодека/Информация : UTF-8 Plain Text
Продолжительность : 2 ч. 19 м.
Битрейт : 1 бит/сек
ElementCount : 33
Размер потока : 1,62 Кбайт (0%)
Заголовок : Forced
Язык : Russian
Default : Да
Forced : Да
Текст #2
Идентификатор : 5
Формат : UTF-8
Идентификатор кодека : S_TEXT/UTF8
Идентификатор кодека/Информация : UTF-8 Plain Text
Продолжительность : 2 ч. 19 м.
Битрейт : 59 бит/сек
ElementCount : 1193
Размер потока : 60,9 Кбайт (0%)
Заголовок : Full
Язык : Russian
Default : Нет
Forced : Нет
Текст #3
Идентификатор : 6
Формат : UTF-8
Идентификатор кодека : S_TEXT/UTF8
Идентификатор кодека/Информация : UTF-8 Plain Text
Продолжительность : 1 ч. 11 м.
Битрейт : 1 бит/сек
ElementCount : 35
Размер потока : 959 байт (0%)
Заголовок : Forced
Язык : English
Default : Нет
Forced : Нет
Текст #4
Идентификатор : 7
Формат : UTF-8
Идентификатор кодека : S_TEXT/UTF8
Идентификатор кодека/Информация : UTF-8 Plain Text
Продолжительность : 2 ч. 9 м.
Битрейт : 41 бит/сек
ElementCount : 1361
Размер потока : 39,7 Кбайт (0%)
Заголовок : Full
Язык : English
Default : Нет
Forced : Нет
Текст #5
Идентификатор : 8
Формат : UTF-8
Идентификатор кодека : S_TEXT/UTF8
Идентификатор кодека/Информация : UTF-8 Plain Text
Продолжительность : 2 ч. 10 м.
Битрейт : 50 бит/сек
ElementCount : 1814
Размер потока : 48,2 Кбайт (0%)
Заголовок : Full, SDH
Язык : English
Default : Нет
Forced : Нет

Скриншоты

         

Орлов Владимир

Post 01-Nov-2019 01:29

[Quote]

--Невероятный мир глазами Энцо / The Art of Racing in the Rain--
Информация о фильме
Название: Невероятный мир глазами Энцо
Оригинальное название: The Art of Racing in the Rain
Год выпуска: 2019
Жанр: Драма, комедия, мелодрама, спорт
Режиссер: Саймон Кёртис--В ролях: Кевин Костнер, Майло Вентимилья, Аманда Сайфред, Мартин Донован, Гэри Коул, Кэти Бэйкер, Ал Сапиенца, Лили Додсворт-Эванс, Райан Кира Армстронг, Андрес Джозеф, Карен Холнесс--О фильме:
Для собаки по кличке Энцо жизнь - это гонка. Не важно, как ты ее проходишь - за рулем автомобиля или на четырех лапах, все равно тебя ждут крутые виражи, ямы-западни, опасные взлеты и падения. Они выбивают с трека даже самых сильных - это начинающий гонщик Дэнни и его пес Энцо знают наверняка. Каждому из них предстоит своя гонка, но оба понимают: победить не значит обогнать соперников. Победить - значит вернуться после поражения на трассу и пройти ее до самого финиша, какой бы скользкой ни была дорога.-- --Страна: США
Студия: Fox 2000 Pictures, Original Film, Shifting Gears Productions
Продолжительность: 01:48:49
Перевод: Дублированный iTunes--Файл
Качество: BDRemux 1080p
Видео: MPEG-4 AVC, 1920x1080, 29.8 Мbit/s, 23.976 fps
Аудио #01: 48 kHz, AC3, 5.1, 384 Kbps | iTunes | RUS |
Аудио #02: 48 kHz, AC3, 2.0, 160 Kbps | iTunes | UKR |
Аудио #03: 48 kHz, DTS-HD MA, 7.1, 4906 Kbps | Оригинал | ENG |
Субтитры: Русские (Forced, full), украинские (Forced, full), английские--

Скриншоты

         

Тех.данные видеофайла

General
Unique ID : 163374658758275872500261837054528587661 (0x7AE8D0932BF08102942D9FCA9386078D)
Complete name : D:Video111The.Art.of.Racing.in.the.Rain.2019.BDREMUX.1080p.seleZen.mkv
Format : Matroska
Format version : Version 4
File size : 26.8 GiB
Duration : 1 h 48 min
Overall bit rate mode : Variable
Overall bit rate : 35.2 Mb/s
Movie name : The Art of Racing in the Rain 2019 from селезень
Encoded date : UTC 2019-10-31 21:19:18
Writing application : mkvmerge v22.0.0 ('At The End Of The World') 64-bit
Writing library : libebml v1.3.5 + libmatroska v1.4.8
Video
ID : 1
Format : AVC
Format/Info : Advanced Video Codec
Format profile : High@L4.1
Format settings : CABAC / 4 Ref Frames
Format settings, CABAC : Yes
Format settings, Reference : 4 frames
Codec ID : V_MPEG4/ISO/AVC
Duration : 1 h 48 min
Bit rate mode : Variable
Bit rate : 29.8 Mb/s
Maximum bit rate : 31.0 Mb/s
Width : 1 920 pixels
Height : 1 080 pixels
Display aspect ratio : 16:9
Frame rate mode : Constant
Frame rate : 23.976 (24000/1001) FPS
Color space : YUV
Chroma subsampling : 4:2:0
Bit depth : 8 bits
Scan type : Progressive
Bits/(Pixel*Frame) : 0.599
Stream size : 22.6 GiB (85%)
Language : English
Default : Yes
Forced : No
Audio #1
ID : 2
Format : AC-3
Format/Info : Audio Coding 3
Commercial name : Dolby Digital
Codec ID : A_AC3
Duration : 1 h 48 min
Bit rate mode : Constant
Bit rate : 384 kb/s
Channel(s) : 6 channels
Channel layout : L R C LFE Ls Rs
Sampling rate : 48.0 kHz
Frame rate : 31.250 FPS (1536 SPF)
Bit depth : 16 bits
Compression mode : Lossy
Stream size : 299 MiB (1%)
Title : iTunes
Language : Russian
Service kind : Complete Main
Default : Yes
Forced : Yes
Audio #2
ID : 3
Format : AC-3
Format/Info : Audio Coding 3
Commercial name : Dolby Digital
Codec ID : A_AC3
Duration : 1 h 48 min
Bit rate mode : Constant
Bit rate : 160 kb/s
Channel(s) : 2 channels
Channel layout : L R
Sampling rate : 48.0 kHz
Frame rate : 31.250 FPS (1536 SPF)
Bit depth : 16 bits
Compression mode : Lossy
Stream size : 125 MiB (0%)
Title : iTunes
Language : Ukrainian
Service kind : Complete Main
Default : No
Forced : No
Audio #3
ID : 4
Format : DTS XLL
Format/Info : Digital Theater Systems
Commercial name : DTS-HD Master Audio
Codec ID : A_DTS
Duration : 1 h 48 min
Bit rate mode : Variable
Bit rate : 4 906 kb/s
Channel(s) : 8 channels
Channel layout : C L R LFE Lb Rb Lss Rss
Sampling rate : 48.0 kHz
Frame rate : 93.750 FPS (512 SPF)
Bit depth : 24 bits
Compression mode : Lossless
Stream size : 3.73 GiB (14%)
Title : Original
Language : English
Default : No
Forced : No
Text #1
ID : 5
Format : UTF-8
Codec ID : S_TEXT/UTF8
Codec ID/Info : UTF-8 Plain Text
Duration : 1 h 44 min
Bit rate : 0 b/s
Count of elements : 6
Stream size : 289 Bytes (0%)
Title : Forced
Language : Russian
Default : Yes
Forced : Yes
Text #2
ID : 6
Format : UTF-8
Codec ID : S_TEXT/UTF8
Codec ID/Info : UTF-8 Plain Text
Duration : 1 h 48 min
Bit rate : 96 b/s
Count of elements : 1402
Stream size : 76.5 KiB (0%)
Title : Full
Language : Russian
Default : No
Forced : No
Text #3
ID : 7
Format : UTF-8
Codec ID : S_TEXT/UTF8
Codec ID/Info : UTF-8 Plain Text
Duration : 1 h 28 min
Bit rate : 0 b/s
Count of elements : 4
Stream size : 177 Bytes (0%)
Title : Forced
Language : Ukrainian
Default : No
Forced : No
Text #4
ID : 8
Format : UTF-8
Codec ID : S_TEXT/UTF8
Codec ID/Info : UTF-8 Plain Text
Duration : 1 h 48 min
Bit rate : 98 b/s
Count of elements : 1402
Stream size : 78.3 KiB (0%)
Title : Full
Language : Ukrainian
Default : No
Forced : No
Text #5
ID : 9
Format : UTF-8
Codec ID : S_TEXT/UTF8
Codec ID/Info : UTF-8 Plain Text
Duration : 1 h 48 min
Bit rate : 64 b/s
Count of elements : 1682
Stream size : 51.3 KiB (0%)
Title : Full
Language : English
Default : No
Forced : No
Text #6
ID : 10
Format : UTF-8
Codec ID : S_TEXT/UTF8
Codec ID/Info : UTF-8 Plain Text
Duration : 1 h 48 min
Bit rate : 71 b/s
Count of elements : 1921
Stream size : 56.8 KiB (0%)
Title : SDH
Language : English
Default : No
Forced : No
Menu
00:00:00.000 : en:Chapter 01
00:04:51.583 : en:Chapter 02
00:10:34.884 : en:Chapter 03
00:13:59.589 : en:Chapter 04
00:17:26.712 : en:Chapter 05
00:20:54.920 : en:Chapter 06
00:26:08.734 : en:Chapter 07
00:31:05.530 : en:Chapter 08
00:36:22.680 : en:Chapter 09
00:39:37.417 : en:Chapter 10
00:43:47.291 : en:Chapter 11
00:48:57.143 : en:Chapter 12
00:54:02.739 : en:Chapter 13
00:59:17.429 : en:Chapter 14
01:03:59.127 : en:Chapter 15
01:07:27.502 : en:Chapter 16
01:10:49.078 : en:Chapter 17
01:14:47.858 : en:Chapter 18
01:18:46.513 : en:Chapter 19
01:25:06.852 : en:Chapter 20
01:28:34.601 : en:Chapter 21
01:32:43.767 : en:Chapter 22
01:36:29.951 : en:Chapter 23
01:41:27.540 : en:Chapter 24

Орлов Владимир

Post 01-Nov-2019 01:22

[Quote]

--Невероятный мир глазами Энцо / The Art of Racing in the Rain--
Информация о фильме
Название: Невероятный мир глазами Энцо
Оригинальное название: The Art of Racing in the Rain
Год выпуска: 2019
Жанр: Драма, комедия, мелодрама, спорт
Режиссер: Саймон Кёртис--В ролях: Кевин Костнер, Майло Вентимилья, Аманда Сайфред, Мартин Донован, Гэри Коул, Кэти Бэйкер, Ал Сапиенца, Лили Додсворт-Эванс, Райан Кира Армстронг, Андрес Джозеф, Карен Холнесс--О фильме:
Для собаки по кличке Энцо жизнь - это гонка. Не важно, как ты ее проходишь - за рулем автомобиля или на четырех лапах, все равно тебя ждут крутые виражи, ямы-западни, опасные взлеты и падения. Они выбивают с трека даже самых сильных - это начинающий гонщик Дэнни и его пес Энцо знают наверняка. Каждому из них предстоит своя гонка, но оба понимают: победить не значит обогнать соперников. Победить - значит вернуться после поражения на трассу и пройти ее до самого финиша, какой бы скользкой ни была дорога.-- --Страна: США
Студия: Fox 2000 Pictures, Original Film, Shifting Gears Productions
Продолжительность: 01:48:49
Перевод: Дублированный iTunes--Файл
Качество: BDRip 1080p
Видео: MPEG-4 AVC, 1920x1038, 16.2 Mbit/s, 23.976 fps
Аудио #01: 48 kHz, AC3, 5.1, 384 Kbps | iTunes | RUS |
Аудио #02: 48 kHz, AC3, 2.0, 160 Kbps | iTunes | UKR |
Аудио #03: 48 kHz, AC3, 5.1, 640 Kbps | Оригинал | ENG |
Субтитры: Русские (Forced, full), украинские (Forced, full), английские--

Скриншоты

           

Тех.данные видеофайла

General
Unique ID : 196440230472236646211390365411177878578 (0x93C9032083B2A4559AE74FEA5D075432)
Complete name : D:Video111The.Art.of.Racing.in.the.Rain.2019.BDRip.1080p.seleZen.mkv
Format : Matroska
Format version : Version 4
File size : 13.2 GiB
Duration : 1 h 48 min
Overall bit rate : 17.4 Mb/s
Movie name : The Art of Racing in the Rain 2019 from селезень
Encoded date : UTC 2019-10-31 20:41:58
Writing application : mkvmerge v22.0.0 ('At The End Of The World') 64-bit
Writing library : libebml v1.3.5 + libmatroska v1.4.8
Video
ID : 1
Format : AVC
Format/Info : Advanced Video Codec
Format profile : High@L4.1
Format settings : CABAC / 4 Ref Frames
Format settings, CABAC : Yes
Format settings, Reference : 4 frames
Codec ID : V_MPEG4/ISO/AVC
Duration : 1 h 48 min
Bit rate : 16.2 Mb/s
Width : 1 920 pixels
Height : 1 038 pixels
Display aspect ratio : 1.85:1
Frame rate mode : Constant
Frame rate : 23.976 (24000/1001) FPS
Color space : YUV
Chroma subsampling : 4:2:0
Bit depth : 8 bits
Scan type : Progressive
Bits/(Pixel*Frame) : 0.339
Stream size : 12.3 GiB (93%)
Title : iFT
Writing library : x264 core 155 r2867+74 66b5600 t_mod_Custom_2 [8-bit@all X86_64]
Encoding settings : cabac=1 / ref=4 / deblock=1:-3:-3 / analyse=0x3:0x113 / me=umh / subme=11 / psy=1 / fade_compensate=0.00 / psy_rd=1.00:0.00 / mixed_ref=1 / me_range=32 / chroma_me=1 / trellis=2 / 8x8dct=1 / cqm=0 / deadzone=21,11 / fast_pskip=0 / chroma_qp_offset=-2 / threads=32 / lookahead_threads=5 / sliced_threads=0 / nr=0 / decimate=0 / interlaced=0 / bluray_compat=0 / constrained_intra=0 / fgo=0 / bframes=9 / b_pyramid=2 / b_adapt=2 / b_bias=0 / direct=3 / weightb=1 / open_gop=0 / weightp=2 / keyint=250 / keyint_min=23 / scenecut=40 / intra_refresh=0 / rc_lookahead=60 / rc=crf / mbtree=0 / crf=17.0000 / qcomp=0.60 / qpmin=0:0:0 / qpmax=69:69:69 / qpstep=4 / vbv_maxrate=62500 / vbv_bufsize=78125 / crf_max=0.0 / nal_hrd=none / filler=0 / ip_ratio=1.30 / pb_ratio=1.20 / aq=3:0.80 / aq-sensitivity=10.00 / aq-factor=1.00:1.00:1.00 / aq2=0 / aq3=0
Language : English
Default : Yes
Forced : No
Color range : Limited
Color primaries : BT.709
Transfer characteristics : BT.709
Matrix coefficients : BT.709
Audio #1
ID : 2
Format : AC-3
Format/Info : Audio Coding 3
Commercial name : Dolby Digital
Codec ID : A_AC3
Duration : 1 h 48 min
Bit rate mode : Constant
Bit rate : 384 kb/s
Channel(s) : 6 channels
Channel layout : L R C LFE Ls Rs
Sampling rate : 48.0 kHz
Frame rate : 31.250 FPS (1536 SPF)
Bit depth : 16 bits
Compression mode : Lossy
Stream size : 299 MiB (2%)
Title : iTunes
Language : Russian
Service kind : Complete Main
Default : Yes
Forced : Yes
Audio #2
ID : 3
Format : AC-3
Format/Info : Audio Coding 3
Commercial name : Dolby Digital
Codec ID : A_AC3
Duration : 1 h 48 min
Bit rate mode : Constant
Bit rate : 160 kb/s
Channel(s) : 2 channels
Channel layout : L R
Sampling rate : 48.0 kHz
Frame rate : 31.250 FPS (1536 SPF)
Bit depth : 16 bits
Compression mode : Lossy
Stream size : 125 MiB (1%)
Title : iTunes
Language : Ukrainian
Service kind : Complete Main
Default : No
Forced : No
Audio #3
ID : 4
Format : AC-3
Format/Info : Audio Coding 3
Commercial name : Dolby Digital
Codec ID : A_AC3
Duration : 1 h 48 min
Bit rate mode : Constant
Bit rate : 640 kb/s
Channel(s) : 6 channels
Channel layout : L R C LFE Ls Rs
Sampling rate : 48.0 kHz
Frame rate : 31.250 FPS (1536 SPF)
Bit depth : 16 bits
Compression mode : Lossy
Stream size : 498 MiB (4%)
Title : Original
Language : English
Service kind : Complete Main
Default : No
Forced : No
Text #1
ID : 5
Format : UTF-8
Codec ID : S_TEXT/UTF8
Codec ID/Info : UTF-8 Plain Text
Duration : 1 h 44 min
Bit rate : 0 b/s
Count of elements : 6
Stream size : 289 Bytes (0%)
Title : Forced
Language : Russian
Default : Yes
Forced : Yes
Text #2
ID : 6
Format : UTF-8
Codec ID : S_TEXT/UTF8
Codec ID/Info : UTF-8 Plain Text
Duration : 1 h 48 min
Bit rate : 96 b/s
Count of elements : 1402
Stream size : 76.5 KiB (0%)
Title : Full
Language : Russian
Default : No
Forced : No
Text #3
ID : 7
Format : UTF-8
Codec ID : S_TEXT/UTF8
Codec ID/Info : UTF-8 Plain Text
Duration : 1 h 28 min
Bit rate : 0 b/s
Count of elements : 4
Stream size : 177 Bytes (0%)
Title : Forced
Language : Ukrainian
Default : No
Forced : No
Text #4
ID : 8
Format : UTF-8
Codec ID : S_TEXT/UTF8
Codec ID/Info : UTF-8 Plain Text
Duration : 1 h 48 min
Bit rate : 98 b/s
Count of elements : 1402
Stream size : 78.3 KiB (0%)
Title : Full
Language : Ukrainian
Default : No
Forced : No
Text #5
ID : 9
Format : UTF-8
Codec ID : S_TEXT/UTF8
Codec ID/Info : UTF-8 Plain Text
Duration : 1 h 48 min
Bit rate : 64 b/s
Count of elements : 1682
Stream size : 51.3 KiB (0%)
Title : Full
Language : English
Default : No
Forced : No
Text #6
ID : 10
Format : UTF-8
Codec ID : S_TEXT/UTF8
Codec ID/Info : UTF-8 Plain Text
Duration : 1 h 48 min
Bit rate : 71 b/s
Count of elements : 1921
Stream size : 56.8 KiB (0%)
Title : SDH
Language : English
Default : No
Forced : No
Menu
00:00:00.000 : en:Chapter 01
00:04:51.583 : en:Chapter 02
00:10:34.884 : en:Chapter 03
00:13:59.589 : en:Chapter 04
00:17:26.712 : en:Chapter 05
00:20:54.920 : en:Chapter 06
00:26:08.734 : en:Chapter 07
00:31:05.530 : en:Chapter 08
00:36:22.680 : en:Chapter 09
00:39:37.417 : en:Chapter 10
00:43:47.291 : en:Chapter 11
00:48:57.143 : en:Chapter 12
00:54:02.739 : en:Chapter 13
00:59:17.429 : en:Chapter 14
01:03:59.127 : en:Chapter 15
01:07:27.502 : en:Chapter 16
01:10:49.078 : en:Chapter 17
01:14:47.858 : en:Chapter 18
01:18:46.513 : en:Chapter 19
01:25:06.852 : en:Chapter 20
01:28:34.601 : en:Chapter 21
01:32:43.767 : en:Chapter 22
01:36:29.951 : en:Chapter 23
01:41:27.540 : en:Chapter 24

Орлов Владимир

Post 01-Nov-2019 01:17

[Quote]

--Невероятный мир глазами Энцо / The Art of Racing in the Rain--
Информация о фильме
Название: Невероятный мир глазами Энцо
Оригинальное название: The Art of Racing in the Rain
Год выпуска: 2019
Жанр: Драма, комедия, мелодрама, спорт
Режиссер: Саймон Кёртис--В ролях: Кевин Костнер, Майло Вентимилья, Аманда Сайфред, Мартин Донован, Гэри Коул, Кэти Бэйкер, Ал Сапиенца, Лили Додсворт-Эванс, Райан Кира Армстронг, Андрес Джозеф, Карен Холнесс--О фильме:
Для собаки по кличке Энцо жизнь - это гонка. Не важно, как ты ее проходишь - за рулем автомобиля или на четырех лапах, все равно тебя ждут крутые виражи, ямы-западни, опасные взлеты и падения. Они выбивают с трека даже самых сильных - это начинающий гонщик Дэнни и его пес Энцо знают наверняка. Каждому из них предстоит своя гонка, но оба понимают: победить не значит обогнать соперников. Победить - значит вернуться после поражения на трассу и пройти ее до самого финиша, какой бы скользкой ни была дорога.-- --Страна: США
Студия: Fox 2000 Pictures, Original Film, Shifting Gears Productions
Продолжительность: 01:48:49
Перевод: Дублированный iTunes--Файл
Формат: AVI
Качество: BDRip
Видео: 704x384 (1.83:1), 23.976 fps, XviD build 73 ~1462 kbps avg, 0.23 bit/pixel
Звук: 48 kHz, AC3 Dolby Digital, 3/2 (L,C,R,l,r) + LFE ch, ~384 kbps
Субтитры: Русские форсированные (отдельно)--Качество: BDRip 720p
Видео: MPEG-4 AVC, 1280x692, 6853 Кbit/s, 23.976 fps
Аудио #01: 48 kHz, AC3, 5.1, 384 Kbps | iTunes | RUS |
Аудио #02: 48 kHz, AC3, 2.0, 160 Kbps | iTunes | UKR |
Аудио #03: 48 kHz, AC3, 5.1, 640 Kbps | Оригинал | ENG |
Субтитры: Русские (Forced, full), украинские (Forced, full), английские

Скриншоты

         

Тех.данные видеофайла

General
Unique ID : 248646052905275826260688200312550714108 (0xBB0F7CE5FDE695A1BEAADA5528B5EAFC)
Complete name : D:Video111The.Art.of.Racing.in.the.Rain.2019.BDRip.720p.seleZen.mkv
Format : Matroska
Format version : Version 4
File size : 6.11 GiB
Duration : 1 h 48 min
Overall bit rate : 8 040 kb/s
Movie name : The Art of Racing in the Rain 2019 from селезень
Encoded date : UTC 2019-10-31 20:37:51
Writing application : mkvmerge v22.0.0 ('At The End Of The World') 64-bit
Writing library : libebml v1.3.5 + libmatroska v1.4.8
Video
ID : 1
Format : AVC
Format/Info : Advanced Video Codec
Format profile : High@L4.1
Format settings : CABAC / 9 Ref Frames
Format settings, CABAC : Yes
Format settings, Reference : 9 frames
Codec ID : V_MPEG4/ISO/AVC
Duration : 1 h 48 min
Bit rate : 6 853 kb/s
Width : 1 280 pixels
Height : 692 pixels
Display aspect ratio : 1.85:1
Frame rate mode : Constant
Frame rate : 23.976 (24000/1001) FPS
Color space : YUV
Chroma subsampling : 4:2:0
Bit depth : 8 bits
Scan type : Progressive
Bits/(Pixel*Frame) : 0.323
Stream size : 5.21 GiB (85%)
Title : iFT
Writing library : x264 core 155 r2867+74 66b5600 t_mod_Custom_2 [8-bit@all X86_64]
Encoding settings : cabac=1 / ref=9 / deblock=1:-3:-3 / analyse=0x3:0x113 / me=umh / subme=11 / psy=1 / fade_compensate=0.00 / psy_rd=1.00:0.00 / mixed_ref=1 / me_range=32 / chroma_me=1 / trellis=2 / 8x8dct=1 / cqm=0 / deadzone=21,11 / fast_pskip=0 / chroma_qp_offset=-2 / threads=22 / lookahead_threads=3 / sliced_threads=0 / nr=0 / decimate=0 / interlaced=0 / bluray_compat=0 / constrained_intra=0 / fgo=0 / bframes=9 / b_pyramid=2 / b_adapt=2 / b_bias=0 / direct=3 / weightb=1 / open_gop=0 / weightp=2 / keyint=250 / keyint_min=23 / scenecut=40 / intra_refresh=0 / rc_lookahead=60 / rc=crf / mbtree=0 / crf=16.0000 / qcomp=0.60 / qpmin=0:0:0 / qpmax=69:69:69 / qpstep=4 / vbv_maxrate=30000 / vbv_bufsize=38000 / crf_max=0.0 / nal_hrd=none / filler=0 / ip_ratio=1.30 / pb_ratio=1.20 / aq=3:0.80 / aq-sensitivity=10.00 / aq-factor=1.00:1.00:1.00 / aq2=0 / aq3=0
Language : English
Default : Yes
Forced : No
Color range : Limited
Color primaries : BT.709
Transfer characteristics : BT.709
Matrix coefficients : BT.709
Audio #1
ID : 2
Format : AC-3
Format/Info : Audio Coding 3
Commercial name : Dolby Digital
Codec ID : A_AC3
Duration : 1 h 48 min
Bit rate mode : Constant
Bit rate : 384 kb/s
Channel(s) : 6 channels
Channel layout : L R C LFE Ls Rs
Sampling rate : 48.0 kHz
Frame rate : 31.250 FPS (1536 SPF)
Bit depth : 16 bits
Compression mode : Lossy
Stream size : 299 MiB (5%)
Title : iTunes
Language : Russian
Service kind : Complete Main
Default : Yes
Forced : Yes
Audio #2
ID : 3
Format : AC-3
Format/Info : Audio Coding 3
Commercial name : Dolby Digital
Codec ID : A_AC3
Duration : 1 h 48 min
Bit rate mode : Constant
Bit rate : 160 kb/s
Channel(s) : 2 channels
Channel layout : L R
Sampling rate : 48.0 kHz
Frame rate : 31.250 FPS (1536 SPF)
Bit depth : 16 bits
Compression mode : Lossy
Stream size : 125 MiB (2%)
Title : iTunes
Language : Ukrainian
Service kind : Complete Main
Default : No
Forced : No
Audio #3
ID : 4
Format : AC-3
Format/Info : Audio Coding 3
Commercial name : Dolby Digital
Codec ID : A_AC3
Duration : 1 h 48 min
Bit rate mode : Constant
Bit rate : 640 kb/s
Channel(s) : 6 channels
Channel layout : L R C LFE Ls Rs
Sampling rate : 48.0 kHz
Frame rate : 31.250 FPS (1536 SPF)
Bit depth : 16 bits
Compression mode : Lossy
Stream size : 498 MiB (8%)
Title : Original
Language : English
Service kind : Complete Main
Default : No
Forced : No
Text #1
ID : 5
Format : UTF-8
Codec ID : S_TEXT/UTF8
Codec ID/Info : UTF-8 Plain Text
Duration : 1 h 44 min
Bit rate : 0 b/s
Count of elements : 6
Stream size : 289 Bytes (0%)
Title : Forced
Language : Russian
Default : Yes
Forced : Yes
Text #2
ID : 6
Format : UTF-8
Codec ID : S_TEXT/UTF8
Codec ID/Info : UTF-8 Plain Text
Duration : 1 h 48 min
Bit rate : 96 b/s
Count of elements : 1402
Stream size : 76.5 KiB (0%)
Title : Full
Language : Russian
Default : No
Forced : No
Text #3
ID : 7
Format : UTF-8
Codec ID : S_TEXT/UTF8
Codec ID/Info : UTF-8 Plain Text
Duration : 1 h 28 min
Bit rate : 0 b/s
Count of elements : 4
Stream size : 177 Bytes (0%)
Title : Forced
Language : Ukrainian
Default : No
Forced : No
Text #4
ID : 8
Format : UTF-8
Codec ID : S_TEXT/UTF8
Codec ID/Info : UTF-8 Plain Text
Duration : 1 h 48 min
Bit rate : 98 b/s
Count of elements : 1402
Stream size : 78.3 KiB (0%)
Title : Full
Language : Ukrainian
Default : No
Forced : No
Text #5
ID : 9
Format : UTF-8
Codec ID : S_TEXT/UTF8
Codec ID/Info : UTF-8 Plain Text
Duration : 1 h 48 min
Bit rate : 64 b/s
Count of elements : 1682
Stream size : 51.3 KiB (0%)
Title : Full
Language : English
Default : No
Forced : No
Text #6
ID : 10
Format : UTF-8
Codec ID : S_TEXT/UTF8
Codec ID/Info : UTF-8 Plain Text
Duration : 1 h 48 min
Bit rate : 71 b/s
Count of elements : 1921
Stream size : 56.8 KiB (0%)
Title : SDH
Language : English
Default : No
Forced : No
Menu
00:00:00.000 : en:Chapter 01
00:04:51.583 : en:Chapter 02
00:10:34.884 : en:Chapter 03
00:13:59.589 : en:Chapter 04
00:17:26.712 : en:Chapter 05
00:20:54.920 : en:Chapter 06
00:26:08.734 : en:Chapter 07
00:31:05.530 : en:Chapter 08
00:36:22.680 : en:Chapter 09
00:39:37.417 : en:Chapter 10
00:43:47.291 : en:Chapter 11
00:48:57.143 : en:Chapter 12
00:54:02.739 : en:Chapter 13
00:59:17.429 : en:Chapter 14
01:03:59.127 : en:Chapter 15
01:07:27.502 : en:Chapter 16
01:10:49.078 : en:Chapter 17
01:14:47.858 : en:Chapter 18
01:18:46.513 : en:Chapter 19
01:25:06.852 : en:Chapter 20
01:28:34.601 : en:Chapter 21
01:32:43.767 : en:Chapter 22
01:36:29.951 : en:Chapter 23
01:41:27.540 : en:Chapter 24

Орлов Владимир

Post 29-Oct-2019 15:20

[Quote]

--Сверх(НЕ)естественное / Extra Ordinary (Майк Ахерн, Энда Логман) [2019, Ужасы, фэнтези, комедия , BDRip 1080p] [DUB] [iTunes]--
Информация о фильме
Название: Сверх(НЕ)естественное
Оригинальное название: Extra Ordinary
Год выхода: 2019
Жанр: Ужасы, фэнтези, комедия
Режиссёр: Майк Ахерн, Энда Логман--В ролях: Маив Хиггинс, Бэрри Уорд, Уилл Форте, Клаудия О’Доэрти, Джэми Бимиш, Терри Чандлер, Ристерд Купер, Эмма Коулман, Кэрри Краули, Мэри МакЭвой, Сара О'Фаррелл, Агата Эллис, Валери О’Коннор--О фильме: Скромная Роуз обладает экстрасенсорными способностями, но соседи достают ее лишь просьбами изгнать духов надоедливых родственников. Однажды в ее родном городке объявляется рок-звезда Кристиан Уинтер. Наделенный дьявольской силой, он околдовывает местную девушку, и ее отец в отчаянии просит Роуз о помощи. У героини появляется шанс раскрыть свой дар, а заодно устроить личную жизнь.-- --Страна: Ирландия, Бельгия
Студия: Blinder Films, Epic Pictures Group, Inevitable Pictures
Продолжительность: 01:34:09
Перевод: Дублированный | iTunes--Файл
Качество: BDRip 1080p
Видео: MPEG-4 AVC, 1920x800, 10.5 Mbit/s, 24 fps
Аудио #01: 48 kHz, AC3, 5.1, 384 Kbps | iTunes | RUS |
Аудио #02: 48 kHz, AC3, 5.1, 640 Kbps | Оригинал | ENG |
Субтитры: Русские (Full)--

Скриншоты

       

Тех.данные видеофайла

General
Unique ID: 248023149297439299244161080454962822853 (0xBA97856120F2E009F42E500E11813EC5)
Complete name: D:\Video111\Extra.Ordinary.2019.BDRip.1080p.seleZen.mkv
Format: Matroska
Format version: Version 4
File size: 7.59 GiB
Duration: 1 h 34 min
Overall bit rate: 11.5 Mb/s
Movie name: Extra Ordinary 2019 from селезень
Encoded date: UTC 2019-10-26 13:57:55
Writing application: mkvmerge v22.0.0 ('At The End Of The World') 64-bit
Writing library: libebml v1.3.5 + libmatroska v1.4.8
Video
ID: 1
Format: AVC
Format/Info: Advanced Video Codec
Format profile: High@L4.1
Format settings: CABAC / 5 Ref Frames
Format settings, CABAC: Yes
Format settings, Reference: 5 frames
Codec ID: V_MPEG4/ISO/AVC
Duration: 1 h 34 min
Bit rate: 10.5 Mb/s
Width: 1 920 pixels
Height: 800 pixels
Display aspect ratio: 2.40:1
Frame rate mode: Constant
Frame rate: 24.000 FPS
Color space: YUV
Chroma subsampling: 4:2:0
Bit depth: 8 bits
Scan type: Progressive
Bits/(Pixel*Frame): 0.285
Stream size: 6.92 GiB (91%)
Title: Encoded by seleZen
Writing library: x264 core 148 r2705kMod 3f5ed56
Encoding settings: cabac=1 / ref=5 / deblock=1:-2:-2 / analyse=0x3:0x113 / me=umh / subme=11 / psy=1 / fade_compensate=0.00 / psy_rd=1.00:0.00 / mixed_ref=1 / me_range=32 / chroma_me=1 / trellis=2 / 8x8dct=1 / cqm=0 / deadzone=21,11 / fast_pskip=0 / chroma_qp_offset=-2 / threads=24 / lookahead_threads=6 / sliced_threads=0 / nr=0 / decimate=0 / interlaced=0 / bluray_compat=0 / constrained_intra=0 / fgo=0 / bframes=10 / b_pyramid=2 / b_adapt=2 / b_bias=0 / direct=3 / weightb=1 / open_gop=0 / weightp=2 / keyint=240 / keyint_min=24 / scenecut=40 / intra_refresh=0 / rc_lookahead=50 / rc=2pass / mbtree=0 / bitrate=10500 / ratetol=1.0 / qcomp=0.60 / qpmin=0 / qpmax=51 / qpstep=4 / cplxblur=20.0 / qblur=0.5 / vbv_maxrate=50000 / vbv_bufsize=62500 / nal_hrd=none / filler=0 / ip_ratio=1.40 / pb_ratio=1.30 / aq=3:0.80
Language: English
Default: Yes
Forced: No
Audio #1
ID: 2
Format: AC-3
Format/Info: Audio Coding 3
Commercial name: Dolby Digital
Codec ID: A_AC3
Duration: 1 h 34 min
Bit rate mode: Constant
Bit rate: 384 kb/s
Channel(s): 6 channels
Channel layout: L R C LFE Ls Rs
Sampling rate: 48.0 kHz
Frame rate: 31.250 FPS (1536 SPF)
Bit depth: 16 bits
Compression mode: Lossy
Stream size: 259 MiB (3%)
Title: iTunes
Language: Russian
Service kind: Complete Main
Default: Yes
Forced: Yes
Audio #2
ID: 3
Format: AC-3
Format/Info: Audio Coding 3
Commercial name: Dolby Digital
Codec ID: A_AC3
Duration: 1 h 34 min
Bit rate mode: Constant
Bit rate: 640 kb/s
Channel(s): 6 channels
Channel layout: L R C LFE Ls Rs
Sampling rate: 48.0 kHz
Frame rate: 31.250 FPS (1536 SPF)
Bit depth: 16 bits
Compression mode: Lossy
Stream size: 432 MiB (6%)
Title: Original
Language: English
Service kind: Complete Main
Default: No
Forced: No
Text
ID: 4
Format: UTF-8
Codec ID: S_TEXT/UTF8
Codec ID/Info: UTF-8 Plain Text
Duration: 1 h 29 min
Bit rate: 118 b/s
Count of elements: 1207
Stream size: 77.3 KiB (0%)
Title: Full
Language: Russian
Default: No
Forced: No
Menu
00:00:00.000: de:00:00:00.000
00:10:08.542: de:00:10:08.542
00:20:12.667: de:00:20:12.667
00:28:46.500: de:00:28:46.500
00:36:38.958: de:00:36:38.958
00:46:45.250: de:00:46:45.250
00:57:59.292: de:00:57:59.292
01:06:36.542: de:01:06:36.542
01:17:14.750: de:01:17:14.750
01:28:53.458: de:01:28:53.458
 

The time now is: Today 16:19

All times are GMT + 3 Hours