Today is a free download without charge Download

Search found 3 matches

Author Message

}{@R0N

Post 28-Feb-2021 14:27

[Quote]

Скриншоты?

}{@R0N

Post 27-Feb-2021 11:47

[Quote]

Перезалейте скриншоты, прямую ссылку поместите в тег [imgs]***[/imgs]
Добавьте данные MI

Mackfoy

Post 26-Feb-2021 21:56

[Quote]

Название: Том и Джерри
Оригинальное название: Tom and Jerry
Год выпуска: 2021
Жанр: Комедия, приключения, семейный, мультфильм
Выпущено: Великобритания, Франция, Германия, США, Hanna-Barbera Productions, Keylight Productions, Metro-Goldwyn-Mayer, Warner Animation Group
Режиссер: Тим Стори
В ролях: Хлоя Грейс Морец, Майкл Пенья, Том, Джерри, Джордан Болджер, Робани, Пэтси Ферран, Паллави Шарда, Колин Жост, Соми Гуха
О фильме: Кайла, работница престижного отеля, где обитает мышонок Джерри, рискующий нарушить ход дорогой свадьбы, нанимает уличного кота Тома, чтобы разобраться с наглым грызуном. Но решить эту проблему не так-то просто.

Качество: WEB-DLRip
Видео: XviD, 1651Кбит/с, 720x384
Аудио: Русский (AC3, 2 ch, 256 Кбит/с)
Продолжительность: 01:42:02
Перевод: Дублированный
Присутствуют рекламные вставки

MediaInfo

Общее
Полное имя : E:\TVShows\Tom.and.Jerry.2021.D.WEB-DLRip.14OOMB.avi
Формат : AVI
Формат/Информация : Audio Video Interleave
Размер файла : 1,37 Гбайт
Продолжительность : 1 ч. 42 м.
Общий поток : 1 917 Кбит/сек
Программа кодирования : VirtualDubMod 1.5.10.3 | www.virtualdub-fr.org || (build 2550/release)
Библиотека кодирования : VirtualDubMod build 2550/release
Видео
Идентификатор : 0
Формат : MPEG-4 Visual
Профиль формата : Advanced Simple@L5
Настройки формата : BVOP2 / Custom Matrix
Параметр BVOP формата : 2
Параметр QPel формата : Нет
Параметр GMC формата : Без точки перехода
Параметр матрицы формата : Выборочная
Идентификатор кодека : XVID
Идентификатор кодека/Подсказка : XviD
Продолжительность : 1 ч. 42 м.
Битрейт : 1 652 Кбит/сек
Ширина : 720 пикселей
Высота : 384 пикселя
Соотношение сторон : 1,85:1
Частота кадров : 23,976 (24000/1001) кадра/сек
Цветовое пространство : YUV
Субдискретизация насыщенности : 4:2:0
Битовая глубина : 8 бит
Тип развёртки : Прогрессивная
Метод сжатия : С потерями
Бит/(Пиксели*Кадры) : 0.249
Размер потока : 1,18 Гбайт (86%)
Библиотека кодирования : XviD 1.2.1 (UTC 2008-12-04)
Аудио
Идентификатор : 1
Формат : AC-3
Формат/Информация : Audio Coding 3
Коммерческое название : Dolby Digital
Идентификатор кодека : 2000
Продолжительность : 1 ч. 42 м.
Вид битрейта : Постоянный
Битрейт : 256 Кбит/сек
Каналы : 2 канала
Channel layout : L R
Частота : 48,0 КГц
Частота кадров : 31,250 кадров/сек (1536 SPF)
Метод сжатия : С потерями
Размер потока : 187 Мбайт (13%)
Выравнивание : Разделение по промежуткам
Продолжительность промежутка : 42 мс. (1,00 видеокадр)
Время предзагрузки промежутка : 500 мс.
Service kind : Complete Main

Скриншоты

     
 

The time now is: Today 08:10

All times are GMT + 3 Hours