Today is a free download without charge Download

Search found 54 matches

Author Message

kilmister777

Post Yesterday 08:16

[Quote]

Ребекка / Rebecca- Год выпуска: 2020
Страна: Великобритания
Жанр: триллер, драма, мелодрама, детектив
Продолжительность: 02:03:02
Перевод: Профессиональный (многоголосый закадровый) HDRezka Studio
Субтитры: Русские (Forced, Full) отдельно- -Режиссер: Бен Уитли-В ролях: Лили Джеймс, Арми Хаммер, Кристин Скотт Томас, Жак Буаниш, Мари Коллинз, Marie Collins, Энн Дауд, Жан Делл, Софи Пайан, Пиппа Уинслоу-Описание: Сирота, работающая компаньонкой у немолодой состоятельной дамы, в шикарном отеле Монте-Карло знакомится с недавно овдовевшим аристократом Максимом де Уинтером. Он сильно переживает смерть жены Ребекки и избегает разговоров на эту тему. У молодых людей завязывается роман, вскоре они женятся, и Максим привозит новую жену в фамильное поместье Мэндерли. Но там молодую миссис де Уинтер буквально во всём - от обстановки и одежды до разговоров прислуги и новообретенных родственников - начинает подавлять присутствие Ребекки.-Качество: WEB-DLRip
Формат: AVI
Видео кодек: XviD
Аудио кодек: AC3
Видео: 720x304 (2.35:1), 24 fps, XviD ~ 2081 Kbps avg, 0.396 bit/pixel
Аудио: 48 kHz, AC3 Dolby Digital, 3/2 (L,C,R,l,r) + LFE ch, ~448 kbps-

Скриншоты

   
 
 

БАНДИТ

Post 22-Oct-2020 09:43

[Quote]

МетеоритГод выхода: 2020
Жанр: Триллер, драма, приключения
Страна: Россия
Студия: Творческое объединение "Пол День"
Продолжительность: 01:35:00
Перевод: Не требуется
Режиссер: Павел Подашов
В ролях: Вадим Ситников, Полина Якубова, Олег Блохин, Татьяна Гончарова, Михаил Кощин, Валерий Краснов, Дамир Валиев, Андрей Царев, Игорь Мишин, Тамара Матвеева
О фильме:
Исследователь внеземной жизни отправляется на поиски метеорита с малознакомой компанией в отдаленный район. Ведомые деревенским проводником, участники экспедиции оказываются в заброшенных местах и лишаются возможности вернуться обратно. Там они сталкиваются с загадочным вирусом, который пробуждает их страхи и заставляет изменить все планы.
Кинопоиск
Качество: WEB-DLRip-AVC
Формат: MKV
Кодек: MPEG-4 AVC
Видео: 1024x432 (2.40:1), 24 fps, MPEG-4 AVC, 2004 Кbps avg, 0.189 bit/pixel
Аудио: AC3, 48 kHz, 2 ch, ~192.00 kbps avg | русский |
*** Реклама, любого вида, отсутствует.

Инфо-файл

Общее
Уникальный идентификатор : 185573410393224066824958633601639938893 (0x8B9C23881FBD79D5B4548DFE36A07B4D)
Полное имя : Meteorit.2020.WEB-DLRip.1.46Gb.x264.mkv
Формат : Matroska
Версия формата : Version 4
Размер файла : 1,46 Гбайт
Продолжительность : 1 ч. 34 м.
Общий поток : 2 197 Кбит/сек
Название фильма : Метеорит (2020)
Дата кодирования : UTC 2020-10-22 03:37:09
Программа кодирования : mkvmerge v47.0.0 ('Black Flag') 64-bit
Библиотека кодирования : libebml v1.3.10 + libmatroska v1.5.2
Обложка : Yes
Attachments : cover.jpg
Видео
Идентификатор : 1
Формат : AVC
Формат/Информация : Advanced Video Codec
Профиль формата : High@L4.1
Настройки формата : CABAC / 11 Ref Frames
Параметр CABAC формата : Да
Параметр RefFrames формата : 11 кадров
Идентификатор кодека : V_MPEG4/ISO/AVC
Продолжительность : 1 ч. 34 м.
Битрейт : 2 004 Кбит/сек
Ширина : 1 024 пикселя
Высота : 432 пикселя
Соотношение сторон : 2,40:1
Режим частоты кадров : Постоянный
Частота кадров : 24,000 кадра/сек
Цветовое пространство : YUV
Субдискретизация насыщенности : 4:2:0
Битовая глубина : 8 бит
Тип развёртки : Прогрессивная
Бит/(Пиксели*Кадры) : 0.189
Размер потока : 1,33 Гбайт (91%)
Заголовок : #stillet
Библиотека кодирования : x264 core 152 r2851bm ba24899
Настройки программы : cabac=1 / ref=11 / deblock=1:-2:-2 / analyse=0x3:0x113 / me=umh / subme=10 / psy=1 / psy_rd=1.00:0.15 / mixed_ref=1 / me_range=32 / chroma_me=1 / trellis=2 / 8x8dct=1 / cqm=0 / deadzone=21,11 / fast_pskip=0 / chroma_qp_offset=-3 / threads=8 / lookahead_threads=3 / sliced_threads=0 / nr=0 / decimate=0 / interlaced=0 / bluray_compat=0 / constrained_intra=0 / bframes=10 / b_pyramid=2 / b_adapt=2 / b_bias=0 / direct=3 / weightb=1 / open_gop=0 / weightp=2 / keyint=240 / keyint_min=23 / scenecut=40 / intra_refresh=0 / rc=2pass / mbtree=0 / bitrate=2004 / ratetol=1.0 / qcomp=0.60 / qpmin=0 / qpmax=69 / qpstep=4 / cplxblur=20.0 / qblur=0.5 / ip_ratio=1.40 / pb_ratio=1.30 / aq=1:1.00
Язык : Russian
Default : Да
Forced : Нет
Аудио
Идентификатор : 2
Формат : AC-3
Формат/Информация : Audio Coding 3
Коммерческое название : Dolby Digital
Идентификатор кодека : A_AC3
Продолжительность : 1 ч. 34 м.
Вид битрейта : Постоянный
Битрейт : 192 Кбит/сек
Каналы : 2 канала
Channel layout : L R
Частота : 48,0 КГц
Частота кадров : 31,250 кадров/сек (1536 SPF)
Метод сжатия : С потерями
Размер потока : 130 Мбайт (9%)
Язык : Russian
Service kind : Complete Main
Default : Да
Forced : Да

Скриншоты


[/imgs]

БАНДИТ

Post 22-Oct-2020 09:28

[Quote]

Суд над чикагской семеркой / The Trial of the Chicago 7Оригинальное название: The Trial of the Chicago 7
Год выхода: 2020
Жанр: Триллер, биография, драма, история
Страна: США, Великобритания, Индия
Студия: Amblin Partners, CAA Media Finance, Cross Creek Pictures, Double Infinity Productions, DreamWorks Pictures, MadRiver Pictures, Marc Platt Productions, Paramount Pictures, Reliance Entertainment, Rocket Science, ShivHans Pictures
Продолжительность: 02:10:10
Перевод: Профессиональный (многоголосый, закадровый) | HDRezka Studio
Субтитры: Русские (форсированные, полные) отдельно
Режиссер: Аарон Соркин
В ролях: Эдди Редмэйн, Алекс Шарп, Саша Барон Коэн, Джереми Стронг, Джон Кэрролл Линч, Яхья Абдул-Матин II, Марк Райлэнс, Джозеф Гордон-Левитт, Бен Шенкман, Дж.С. МакКензи
О фильме:
Чикаго, 1968 год. Демонстрация против войны во Вьетнаме вылилась в стычки с полицией. Семь участников беспорядков предстают пред судом по обвинениям в заговоре против американского правительства

Файл
Качество: WEB-DLRip
Формат: AVI
Кодек: XviD
Видео: 720x304 (2.40:1), 23.976 fps, XviD ~ 1960 Kbps avg, 0.373 bit/pixel
Аудио: AC3, 48 kHz, 6 ch, ~448.00 kbps avg | русский | HDRezka Studio

Скриншоты

     

БАНДИТ

Post 21-Oct-2020 10:44

[Quote]

Не вижу смерти / BlindГод выхода: 2019
Жанр: Ужасы, триллер, драма
Страна: США
Студия: Silent Partners
Продолжительность: 01:28:12
Перевод: Дублированный | iTunes
Режиссер: Марсель Вальц
В ролях: Скарлет Салем, Джед Роуэн, Кэролайн Уильямс, Тайлер Галлант, Томас Хейли, Бен Каплан, Джессика Галетти, Шери Дэвис, Кевин Купер, Майкл Ст. Майклс
О фильме: Бывшая кинозвезда, ослепнув после неудачной операции по коррекции зрения, пытается смириться с новой жизнью во тьме. Ее дни в особняке на Голливудских холмах разбавлены общением с подругой Софией и новым поклонником Люком. Но никто из них понятия не имеет о том, что в подвале дома тайно проживает еще один человек в маске, который с нетерпением ждет темноты, чтобы начать свою опасную игру.

Файл
Формат: AVI
Качество: WEB-DLRip
Видео: 720x304 (2.37:1), 24 fps, XviD build 69 ~1974 kbps avg, 0.38 bit/pixel
Звук: 48 kHz, AC3 Dolby Digital, 3/2 (L, C, R, l, r) + LFE ch, ~384 kbps

Скриншоты

     

БАНДИТ

Post 20-Oct-2020 19:18

[Quote]

Девушка-невидимка / Возвышаясь над тенью / Above the ShadowsГод выпуска: 2019
Жанр: Фэнтези
Страна: США
Студия: HIPZEE, BondIt Media Capital, Boundary Stone Films
Продолжительность: 01:50:57
Перевод: Дублированный | iTunes
Режиссер: Клаудия Майерс
В ролях: Меган Фокс, Оливия Тирлби, Алан Ричсон, Джастин Котсонас, Джим Гэффиган, Мария Диззия, Дэвид Джохансен, Павел Жайда, Оуэн Кэмпбелл, Тито Ортис
О фильме:
В юности Холли обнаружила, что стала невидимой для окружающих. Поначалу она не понимала, почему её никто не замечает, полагая, что все вокруг просто притворяются, но в конце концов девушка смирилась со своей вынужденной ролью невидимки и стала жить по новым правилам. Несколько лет Холли подглядывала за чужими жизнями, зарабатывая на этом неплохие деньги. Ей открылись многие тайны, которые ранее тщательно скрывались. Но однажды Холли выпадает шанс поставить всё на прежние места и вернуться в мир людей при помощи единственного мужчины, который может её видеть.

Файл
Формат: AVI
Качество: BDRip
Видео: 720x304 (2.37:1), 23.976 fps, XviD build 69 ~1490 kbps avg, 0.28 bit/pixel
Звук: 48 kHz, AC3 Dolby Digital, 3/2 (L, C, R, l, r) + LFE ch, ~384 kbps

Скриншоты

     

БАНДИТ

Post 20-Oct-2020 09:48

[Quote]


Неистовый / Unhinged
Год выхода: 2020
Жанр: Боевик, триллер
Страна: США
Студия: Burek Films, Ingenious, Solstice Studios
Продолжительность: 01:26:34
Перевод: Дублированный | iTunes
Субтитры: Русские (Full)
Режиссер: Деррик Борте
В ролях: Расселл Кроу, Джимми Симпсон, Карен Писториус, Гэбриел Бейтман, Остин П. МакКензи, Энн Мари Лейтон, Майкл Пападжон, Люси Фауст, Сильвия Грэйс Крим, Стивен Луис Граш
О фильме: Нет ничего опаснее человека, доведенного до точки кипения. Особенно, если жизнь обошлась с ним несправедливо и теперь ему нечего терять. Именно таким оказывается водитель автомобиля, с которым повздорила на дороге обычная мать-одиночка, не подозревая, что нажила себе безжалостного врага. Теперь он не остановится пока не преподаст страшный урок своей жертве и всем, кто ей дорог. У женщины и ее сына не остается другого выбора, кроме как попытаться выжить в этой набирающей скорость смертельной игре.

Качество: WEB-DL 1080p
Формат: MKV
Видео: MPEG-4 AVC, 1920x800, 4557 Kbit/s, 25.000 fps
Аудио #01: 48 kHz, AC3, 5.1, 384 Kbps | iTunes | RUS |
Аудио #02: 48 kHz, AC3, 5.1, 384 Kbps | Оригинал | ENG |

MI

General
Unique ID : 336735875118418796530455735683392991948 (0xFD54F87442C97D9B2A79BAD3D8A3F2CC)
Complete name : D:Video111Unhinged.2020.WEB-DL.1080p.seleZen.mkv
Format : Matroska
Format version : Version 4
File size : 3.22 GiB
Duration : 1 h 26 min
Overall bit rate : 5 328 kb/s
Movie name : Unhinged 2020 from селезень
Encoded date : UTC 2020-10-19 18:23:29
Writing application : mkvmerge v40.0.0 ('Old Town Road + Pony') 64-bit
Writing library : libebml v1.3.9 + libmatroska v1.5.2
Cover : Yes
Attachments : cover.jpg
Video
ID : 1
Format : AVC
Format/Info : Advanced Video Codec
Format profile : High@L4
Format settings : CABAC / 5 Ref Frames
Format settings, CABAC : Yes
Format settings, Reference : 5 frames
Codec ID : V_MPEG4/ISO/AVC
Duration : 1 h 26 min
Bit rate : 4 557 kb/s
Width : 1 920 pixels
Height : 800 pixels
Display aspect ratio : 2.40:1
Frame rate mode : Constant
Frame rate : 25.000 FPS
Color space : YUV
Chroma subsampling : 4:2:0
Bit depth : 8 bits
Scan type : Progressive
Bits/(Pixel*Frame) : 0.119
Stream size : 2.76 GiB (86%)
Language : English
Default : Yes
Forced : No
Color range : Limited
Color primaries : BT.709
Transfer characteristics : BT.709
Matrix coefficients : BT.709
Audio #1
ID : 2
Format : AC-3
Format/Info : Audio Coding 3
Commercial name : Dolby Digital
Codec ID : A_AC3
Duration : 1 h 26 min
Bit rate mode : Constant
Bit rate : 384 kb/s
Channel(s) : 6 channels
Channel layout : L R C LFE Ls Rs
Sampling rate : 48.0 kHz
Frame rate : 31.250 FPS (1536 SPF)
Compression mode : Lossy
Stream size : 238 MiB (7%)
Title : iTunes
Language : Russian
Service kind : Complete Main
Default : Yes
Forced : Yes
Audio #2
ID : 3
Format : AC-3
Format/Info : Audio Coding 3
Commercial name : Dolby Digital
Codec ID : A_AC3
Duration : 1 h 26 min
Bit rate mode : Constant
Bit rate : 384 kb/s
Channel(s) : 6 channels
Channel layout : L R C LFE Ls Rs
Sampling rate : 48.0 kHz
Frame rate : 31.250 FPS (1536 SPF)
Compression mode : Lossy
Stream size : 238 MiB (7%)
Title : Original
Language : English
Service kind : Complete Main
Default : No
Forced : No
Text
ID : 4
Format : UTF-8
Codec ID : S_TEXT/UTF8
Codec ID/Info : UTF-8 Plain Text
Duration : 1 h 14 min
Bit rate : 93 b/s
Count of elements : 1001
Stream size : 51.3 KiB (0%)
Title : Full
Language : Russian
Default : No
Forced : No
Menu
00:00:00.000 : en:Глава 1
00:04:45.680 : en:Глава 2
00:07:37.440 : en:Глава 3
00:15:24.480 : en:Глава 4
00:25:03.840 : en:Глава 5
00:35:19.960 : en:Глава 6
00:43:38.360 : en:Глава 7
00:50:52.280 : en:Глава 8
00:59:24.640 : en:Глава 9
01:07:52.000 : en:Глава 10
01:15:51.760 : en:Глава 11

Скриншоты

     

БАНДИТ

Post 20-Oct-2020 09:18

[Quote]


Неистовый / Unhinged
Год выпуска: 2020
Жанр: Боевик, триллер
Страна: США
Студия: Burek Films, Ingenious, Solstice Studios
Продолжительность: 01:26:34
Перевод: Дублированный | iTunes
Режиссер: Деррик Борте
В ролях: Расселл Кроу, Джимми Симпсон, Карен Писториус, Гэбриел Бейтман, Остин П. МакКензи, Энн Мари Лейтон, Майкл Пападжон, Люси Фауст, Сильвия Грэйс Крим, Стивен Луис Граш
О фильме:
Нет ничего опаснее человека, доведенного до точки кипения. Особенно, если жизнь обошлась с ним несправедливо и теперь ему нечего терять. Именно таким оказывается водитель автомобиля, с которым повздорила на дороге обычная мать-одиночка, не подозревая, что нажила себе безжалостного врага. Теперь он не остановится пока не преподаст страшный урок своей жертве и всем, кто ей дорог. У женщины и ее сына не остается другого выбора, кроме как попытаться выжить в этой набирающей скорость смертельной игре.

Формат: AVI
Качество: WEB-DLRip
Видео: 720x304 (2.37:1), 25 fps, XviD build 69 ~2021 kbps avg, 0.37 bit/pixel
Звук: 48 kHz, AC3 Dolby Digital, 3/2 (L, C, R, l, r) + LFE ch, ~384 kbps

Скриншоты

     

kilmister777

Post 19-Oct-2020 08:24

[Quote]

2067: Петля времени / 2067- Год выпуска: 2020
Страна: Австралия
Жанр: фантастика, драма
Продолжительность: 01:54:27
Перевод: Профессиональный(дублированный) iTunes- -Режиссер: Сет Ларни-В ролях: Коди Смит-Макфи, Райан Квантен, Санаа Шейк, Дебора Мэйлман, Аарон Гленнэйн, Финн Литтл, Энди МакФи, Чекк Мусолино, Мэтт Тестро, Дэмиэн Уолш-Хоулинг-Описание: 2067 год. Люди окончательно загубили экологию и теперь задыхаются - исчезли животные и растения, планета окутана плотными слоями смога. Из-за искусственного кислорода у некоторых развивается неподдающаяся лечению болезнь. Простой техник Итайн Уайт готов на всё, лишь бы помочь больной жене. Неожиданно корпорация, где когда-то работал его отец-физик, получает сообщение из будущего: «Отправьте Итана Уайта». Парень становится последней надеждой человечества.-Качество: WEB-DLRip
Формат: AVI
Видео кодек: XviD
Аудио кодек: AC3
Видео: 720x304 (2.35:1), 23,976 fps, XviD ~ 1434 Kbps avg, 0.273 bit/pixel
Аудио: 48 kHz, AC3 Dolby Digital, 3/2 (L,C,R,l,r) + LFE ch, ~384 kbps avg-

Скриншоты

 
 
   

kilmister777

Post 18-Oct-2020 10:56

[Quote]

Грейхаунд / Greyhound- Год выпуска: 2020
Страна: Китай, Канада, США
Жанр: военный, боевик, история, биография
Продолжительность: 01:31:42
Перевод: Профессиональный(дублированный)
Субтитры: Русские форсированные (отдельно)- -Режиссер: Аарон Шнайдер-В ролях: Том Хэнкс, Стивен Грэм, Элизабет Шу, Майкл Бенц, Роб Морган, Дэвид Мальдонадо, Джими Стэнтон, Мэтт Хелм, Том Бриттни, Мануэль Рульфо-Описание: В 1942 году офицера морского флота Эрнста Краузе назначают капитаном эсминца "Грейхаунд". Приняв командование, ему необходимо провести конвой из кораблей через воды Северной Атлантики, переполненные немецкими подводными лодками. Но чтобы уйти от преследования врага и сохранить экипаж, ему нужно проявить умение и небывалые тактические навыки.-Качество: WEB-DLRip
Формат: AVI
Видео кодек: XviD
Аудио кодек: AC3
Видео: 720x304 (2.37:1), 23.976 fps, XviD build 73 ~1822 kbps avg, 0.35 bit/pixel
Аудио: 48 kHz, AC3 Dolby Digital, 3/2 (L,C,R,l,r) + LFE ch, ~448 kbps-

Скриншоты

       

kilmister777

Post 17-Oct-2020 09:48

[Quote]

Куш собачий / Lucky- Год выпуска: 2020
Страна: Франция
Жанр: комедия
Продолжительность: 01:22:04
Перевод: Профессиональный(дублированный) iTunes- -Режиссер: Оливье Ван Хуфстадт-В ролях: Микаэль Юн, Альбан Иванов, Флоренс Форести, Сара Суко, Корина Масьеро, Франсуа Берлеан, Коди Ким, Даниэль Прево, Йоанн Бланк, Фред Тесто-Описание: Как поправить своё финансовое положение, не прикладывая особых усилий? Для начала – обзавестись мозговитым другом без тормозов. А затем – всего-навсего похитить полицейского пса. Теперь нюх на наживу вам обеспечен! Только не забывайте хорошенько кормить компаньона, ведь, по правде сказать, весь куш – собачий.-Качество: WEB-DLRip
Формат: AVI
Видео кодек: XviD
Аудио кодек: AC3
Видео: 720x304 (2.37:1), 25 fps, XviD build 69 ~2154 kbps avg, 0.39 bit/pixel
Аудио: 48 kHz, AC3 Dolby Digital, 3/2 (L,C,R,l,r) + LFE ch, ~384 kbps avg-

Скриншоты

       

kilmister777

Post 14-Oct-2020 15:11

[Quote]

Заложник / Seized- Год выпуска: 2020
Страна: США
Жанр: боевик, триллер
Продолжительность: 01:25:00
Перевод: Профессиональный(дублированный) iTunes
Субтитры: Русские форсированные - (хардсаб)- -Режиссер: Айзек Флорентайн-В ролях: Скотт Эдкинс, Марио Ван Пиблз, Кэрли Перес, Стивен Элдер, Джеймс П. Беннетт, Маурисио Мендоса, Луис Гатика, Питер Орган, Кристиан Лейва, Мэттью Гарбач-Описание: Бывший агент спецназа оказывается втянут в борьбу преступных синдикатов, против которых он много лет вел войну. Одна из группировок хочет использовать спецагента как оружие и похищает его сына. Теперь, чтобы спасти своего ребенка, он должен уничтожить три опаснейших мафиозных клана.-Качество: WEB-DLRip
Формат: AVI
Видео кодек: XviD
Аудио кодек: AC3
Видео: 720x384 (1.88:1), 24 fps, XviD build 69 ~2066 kbps avg, 0.31 bit/pixel
Аудио: 48 kHz, AC3 Dolby Digital, 3/2 (L,C,R,l,r) + LFE ch, ~384 kbps avg-

Скриншоты

     

kilmister777

Post 13-Oct-2020 17:03

[Quote]

Книги крови / Books of Blood- Год выпуска: 2020
Страна: США
Жанр: ужасы, фантастика
Продолжительность: 01:47:28
Перевод: Профессиональный (многоголосый закадровый) HDRezka Studio
Субтитры: Русские (форс. -вшитые, не отключаемые)- -Режиссер: Брэннон Брага-В ролях: Бритт Робертсон, Фреда Фо Шен, Николас Кэмпбелл, Анна Фрил, Рафи Гаврон, Юл Васкес, Энди МакКуин, Кэндзи Фицджералд, Пейдж Турко, Саад Сиддикуи-Описание: Экранизация рассказов Клайва Баркера из цикла «Книги крови». У каждой смерти есть своя история. В фильме показаны три из них. Все они произошли в разное время, в разном месте, но они объединены одним общим фактором - неописуемым ужасом...-Качество: WEB-DLRip
Формат: AVI
Видео кодек: XviD
Аудио кодек: AC3
Видео: 704x352 (2.37:1), 24.000 fps, XviD build 73 ~1740 kbps avg, 0.30 bit/pixel
Аудио: 48 kHz, AC3 Dolby Digital, 2/0 (L,R) ch, ~192 kbps-

Скриншоты

       

kilmister777

Post 10-Oct-2020 09:50

[Quote]

Тебе стоило уйти / You Should Have Left- Год выпуска: 2020
Страна: США
Жанр: триллер, ужасы
Продолжительность: 01:33:19
Перевод: Профессиональный(дублированный) iTunes- -Режиссер: Дэвид Кепп-В ролях: Кевин Бэйкон, Аманда Сайфред, Колин Блюмено, Эли Пауэрс, Эйвери Тиу Эссекс, Лоури Энн Ричардс, Джошуа Си Джексон-Описание: Тео Конрой - обеспеченный бывший банкир на пенсии, чей брак с намного более молодой женой-актрисой, Сюзанной, трещит по швам из-за его ревности и мрачных теней в его прошлом. Стремясь наладить отношения, Тео и Сюзанна отправляются вместе с шестилетней дочкой Эллой отдохнуть в съемном загородном доме в Уэльсе. Однако вскоре после приезда Тео начинает подозревать, что некая зловещая сила в доме знает их с Сюзанной секреты даже лучше, чем они сами знают друг друга.-Качество: HDRip
Формат: AVI
Видео кодек: XviD
Аудио кодек: AC3
Видео: 704x384 (2.37:1), 24.000 fps, XviD build 73 ~1772 kbps avg, 0.30 bit/pixel
Аудио: 48 kHz, AC3 Dolby Digital, 3/2 (L,C,R,l,r) + LFE ch, ~384 kbps avg-

Скриншоты

     

kilmister777

Post 09-Oct-2020 18:42

[Quote]

Вратарь Галактики- Год выпуска: 2020
Страна: Россия
Жанр: приключения, фантастика
Продолжительность: 01:58:00
Перевод: Не требуется- -Режиссер: Джаник Файзиев-В ролях: Евгений Романцов, Мария Лисовая, Виктория Агалакова, Иван Иванович, Елизавета Тайченачева, Евгений Миронов, Юлия Винс, Христина Блохина, Валерия Букина, Станислав Рогачев, Елена Яковлева, Михаил Ефремов, Дмитрий Назаров, Михаил Стенин, Сослан Фидаров-Описание: 2071 год. Галактические войны разрушили Луну и изменили климат на Земле. Москва – в тропических лесах, а Нью-Йорк покрылся льдом. Над Москвой возвышается огромный инопланетный корабль – это стадион, на котором проходят зрелищные межгалактические соревнования по космоболу — игре, объединившей в себе спорт и гладиаторские бои. За матчами следит вся галактика. Играть в космобол могут только атлеты. Именно так называют тех, кто наделен необыкновенными способностями и может ими управлять. Космобол обожают все, кроме Антона, самого обычного парня, который всего лишь мечтает найти работу, чтобы помочь семье. Но однажды у него обнаруживают сверхспособности, и принимают в сборную. Теперь он игрок в космобол. Антон ещё не подозревает о том, какая роль уготована ему судьбой в этом матче, и что финальная игра станет сражением за Землю.-Качество: WEB-DLRip
Формат: AVI
Видео кодек: XviD
Аудио кодек: AC3
Видео: 720x304 (2.37:1), 24.000 fps, XviD build 73 ~1378 kbps avg, 0.26 bit/pixel
Аудио: 48 kHz, AC3 Dolby Digital, 3/2 (L,C,R,l,r) + LFE ch, ~384 kbps avg-

Скриншоты

     

kilmister777

Post 09-Oct-2020 11:09

[Quote]

Былые привычки / I Used to Go Here- Год выпуска: 2020
Страна: США
Жанр: комедия
Продолжительность: 01:27:39
Перевод: Профессиональный(дублированный) iTunes- -Режиссер: Крис Сванберг-В ролях: Гиллиан Джейкобс, Джемейн Клемент, Джош Уиггинс, Форрест Гудлак, Ханна Маркс, Кейт Микуччи, Зои Чао, Йорма Такконе, Дженнифер Джоан Тейлор, Хлоя Джанель-Описание: История о неожиданных поворотах в жизни 35-летней писательницы, которая приезжает с лекцией в свою альма матер, а попадает в водоворот приключений эксцентричной компании студентов.-Качество: WEB-DLRip
Формат: AVI
Видео кодек: XviD
Аудио кодек: AC3
Видео: 720x400 (2.37:1), 24.000 fps, XviD build 73 ~1983 kbps avg, 0.30 bit/pixel
Аудио: 48 kHz, AC3 Dolby Digital, 3/2 (L,C,R,l,r) + LFE ch, ~384 kbps avg-

Скриншоты

       
 

The time now is: Today 19:52

All times are GMT + 3 Hours