Today is a free download without charge Download

Search found 500 matches

Author Message

Орлов Владимир

Post Today 07:30

[Quote]

--Троица--
Оригинальное название: Троица
Страна: Россия Китай
Производство: Versus Pictures, Maze Films
Год выпуска: 2019
Жанр: драма
Продолжительность: 01:21:05--Режиссер: Ян Гэ
В ролях: Ян Гэ, Георгий Бликштейн, Андрей Курганов, Один Ланд Байрон, Георгий Блик, Трэвис Ли Бейли--Описание: Марго признаётся мужу Джорджу в измене со своим студентом Антоном. Любовный треугольник становится для всех ловушкой, спастись из которой можно лишь при помощи высших сил...-- --Перевод: не требуется (оригинал) | iTunes
Субтитры:
нет--Качество: WEB-DLRip
Видео: XviD, 2000 Кбит/с, 720x384
Аудио: AC3, 6 ch, 384 Кбит/с
--Дата премьеры (РФ): 24 октября 2019, «Планета Информ»--

Скриншоты

           

Орлов Владимир

Post Today 06:51

[Quote]

-Девушки бывают разные--
Информация о фильме
Год выпуска: 2019
Жанр: комедия
Страна: Россия
Режиссёр: Сарик Андреасян
Перевод: Оригинал
Субтитры: нет
Продолжительность: 01:22:39-- В ролях: Дмитрий Нагиев, Роман Попов, Артем Сучков, Дмитрий Власкин, Владимир Яглыч, Зоя Бербер, Елизавета Моряк, Алена Чехова-- Описание:
Это история о трёх друзьях, решивших покататься на серфе в Мексике. Все как полагается: океан, девушки и золотой песок. История не предвещает неожиданностей. Но не для наших героев, которые первым делом как следует отметили свой приезд. С трудом проснувшись наутро, парни обнаруживают себя посреди пляжа, они в замешательстве - не помнят, что же произошло накануне. Но вскоре появляются люди, которые освежают им память: оказывается, прошлой ночью парни страшно навредили международному криминальному авторитету Хуану, который по какой-то причине хочет их убить. Скрываясь от преследования, без денег и документов, они находят спасение - переодеваются в девушек и участвуют в женском турнире по сёрфингу. Победа поможет выиграть сто тысяч долларов и выбраться из страны. Но они еще не знают, что их неидеальному плану помешают любовь, секретные спецслужбы, мафия и даже бойцовые петухи.-- --Файлы
Качество: WEB-DLRip
Формат: AVI
Видео: XviD, 1810 Кбит/с, 720x304
Аудио: AC3, 6 ch, 384 Кбит
--

Скриншоты

           

Орлов Владимир

Post Today 03:40

[Quote]

--В прямом эфире / Late Night--
Информация о фильме
Название: В прямом эфире
Оригинальное название: Late Night
Год выхода: 2019
Жанр: Драма, комедия
Страна: США
Перевод: Профессиональный (многоголосый закадровый) iTunes
Продолжительность: 01:41:41
Режиссер: Ниша Ганатра--В ролях: Эмма Томпсон, Минди Кейлинг, Джон Литгоу, Хью Дэнси, Рейд Скотт, Дэнис О’Хэр, Макс Казелла, Пол Уолтер Хаузер, Джон Ерли, Иа Пател и др.--О фильме: Кэтрин Ньюбери является пионером и легендарным ведущим ночных ток-шоу. Когда ее обвиняют в том, что она «женщина, которая ненавидит женщин», она нанимает Молли. В мужском отделе сценаристов Молли становится первой женщиной. Но таких «косметических» изменений слишком мало для начальства. Грозная Кэтрин также сталкивается с реальностью низких рейтингов и её хотят заменить. Молли, в свою очередь, полна решимости помочь Кэтрин, оживив ее шоу.-- --Файл
Видео: XviD, 1636 Кбит/с, 704x384
Аудио: Русский (AC3, 6 ch 384 Кбит/с)
Субтитры: Русские (форс. вшитые)--

Скриншоты

       

Орлов Владимир

Post Today 03:06

[Quote]

--Предвестник землетрясения / Earthquake Bird--
Название: Предвестник землетрясения
Оригинальное название: Earthquake Bird
Год выпуска: 2019
Производство: США, Scott Free Productions, Twenty First City
Жанр: Триллер, мелодрама, детектив, криминал--Режиссер: Уош Уэстмоленд
Актеры: Алисия Викандер, Райли Кио, Наоки Кобаяси, Кики Сукэдзанэ, Кэнъити Масуда, Тиаки Кавамо, Кэн Ямамура, Кадзухиро Мурояма, Акико Ивасэ, Ёсико Сакума--Описание:
Токио, 1989 год. Несколько лет назад замкнутая и нелюдимая Люси, сбежав от семейных проблем, переехала в Японию, где теперь работает переводчиком. Когда в Токийском заливе обнаруживают женскую руку, девушка становится подозреваемой в предположительном убийстве пропавшей подруги и землячки Лили. На допросе в полиции Люси рассказывает, как однажды на улице она встретилась с привлекательным фотографом Тэидзи, и как знакомый экспат свёл её с Лили, такой непохожей на неё саму, и как продолжилась дружба двух противоположностей.-- --Рейтинг MPAA: R (лицам до 17 лет обязательно присутствие взрослого)
Дата мировой премьеры: 10 октября 2019--Продолжительность: 01:47:19
Перевод: Любительский двухголосый (FRONDA)
Субтитры: Русские (Netflix), Английские (внешние .srt*)--Качество: WEB-DLRip
Видео: XviD, 2270 Кбит/с, 720x304
Аудио: Русский (AC3, 2 ch, 192 Кбит/с), английский (AC3, 6 ch, 448 Кбит/с)

Скриншоты

       

Орлов Владимир

Post Yesterday 16:02

[Quote]


Информация о фильме
Название: Мой друг Зигмунд Фрейд
Оригинальное название: The Tobacconist / Der Trafikant
Год выхода: 2018
Жанр: Драма
Режиссер: Николаус Лейтнер--В ролях: Симон Морзе, Бруно Ганц, Йоханнес Криш, Эмма Дрогунова, Давид Альтман, Кристоф Биттенауэр, Герти Драссль, Каролина Эйхгорн, Михаэль Фиц, Регина Фритш, Том Хансльмайер, Эрни Мангольд--О фильме: Юноша из австрийской сельской глубинки Франц неохотно переезжает в предвоенную Вену, чтобы устроиться на работу. Его берет к себе в помощники старый владелец табачной лавки Отто – один из немногих жителей столицы, не поддавшийся пропаганде нацизма. Пока Австрия сближается с гитлеровской Германией, Франц пытается наладить свою личную жизнь. Любое столкновение с девушками приводит в ужас скромного продавца из деревни, пока он не встречает человека, который помогает ему разобраться в собственных желаниях и странных сновидениях. В табачную лавку Отто и Франца захаживает всемирно известный профессор Зигмунд Фрейд. Основатель психоанализа не отказывает в дружбе и совете простому юноше, недавно встретившему свою первую любовь.-- --Страна: Австрия, Германия
Студия: Epo-Film Produktionsgesellschaft, Glory Film, Tobis Film
Продолжительность: 01:53:27
Перевод: Дублированный iTunes--Файл
Кодек: x.264
Качество: BDRip 1080p | The.Tobacconist.2018.1080p.BluRay.x264-BiPOLAR
Видео: MPEG-4 AVC, 8146 Kбит/с, 1920x808, 23.976 кадр/с
Аудио #1: Русский (АС3, 6 ch, 384 Кбит/с, 48.0 KHz) Профессиональный (дублированный) iTunes
Аудио #2: Немецкий (DTS, 6 ch, 1509 Кбит/с, 48.0 KHz)
Субтитры: Aнглийские--Трейлер--

Тех.данные видеофайла

Источник: The.Tobacconist.2018.1080p.BluRay.x264-BiPOLAR
General
Unique ID : 184857696167496070911327768087181621353 (0x8B124C18927AE057A997C5BD89C77869)
Complete name : The.Tobacconist.2018.BDRip.1080p.mkv
Format : Matroska
Format version : Version 4
File size : 7.95 GiB
Duration : 1 h 53 min
Overall bit rate : 10.0 Mb/s
Encoded date : UTC 2019-11-20 09:24:23
Writing application : mkvmerge v7.1.0 ('Good Love') 64bit built on Jul 27 2014 13:06:55
Writing library : libebml v1.3.0 + libmatroska v1.4.1
Video
ID : 1
Format : AVC
Format/Info : Advanced Video Codec
Format profile : High@L4.1
Format settings : CABAC / 5 Ref Frames
Format settings, CABAC : Yes
Format settings, Reference fra: 5 frames
Codec ID : V_MPEG4/ISO/AVC
Duration : 1 h 53 min
Bit rate : 8 146 kb/s
Width : 1 920 pixels
Height : 808 pixels
Display aspect ratio : 2.40:1
Frame rate mode : Constant
Frame rate : 23.976 (24000/1001) FPS
Color space : YUV
Chroma subsampling : 4:2:0
Bit depth : 8 bits
Scan type : Progressive
Bits/(Pixel*Frame) : 0.219
Stream size : 6.45 GiB (81%)
Writing library : x264 core 157 r2969 d4099dd
Encoding settings : cabac=1 / ref=5 / deblock=1:-3:-3 / analyse=0x3:0x133 / me=umh / subme=9 / psy=1 / psy_rd=1.00:0.00 / mixed_ref=1 / me_range=16 / chroma_me=1 / trellis=2 / 8x8dct=1 / cqm=0 / deadzone=21,11 / fast_pskip=0 / chroma_qp_offset=-2 / threads=18 / lookahead_threads=1 / sliced_threads=0 / nr=0 / decimate=1 / interlaced=0 / bluray_compat=0 / constrained_intra=0 / bframes=3 / b_pyramid=2 / b_adapt=1 / b_bias=0 / direct=3 / weightb=1 / open_gop=0 / weightp=2 / keyint=240 / keyint_min=24 / scenecut=40 / intra_refresh=0 / rc_lookahead=50 / rc=2pass / mbtree=1 / bitrate=8146 / ratetol=1.0 / qcomp=0.60 / qpmin=0 / qpmax=69 / qpstep=4 / cplxblur=20.0 / qblur=0.5 / ip_ratio=1.40 / aq=1:1.00
Language : English
Default : Yes
Forced : No
Audio #1
ID : 2
Format : AC-3
Format/Info : Audio Coding 3
Commercial name : Dolby Digital
Codec ID : A_AC3
Duration : 1 h 53 min
Bit rate mode : Constant
Bit rate : 384 kb/s
Channel(s) : 6 channels
Channel layout : L R C LFE Ls Rs
Sampling rate : 48.0 kHz
Frame rate : 31.250 FPS (1536 SPF)
Compression mode : Lossy
Stream size : 311 MiB (4%)
Title : DUB | iTunes
Language : Russian
Service kind : Complete Main
Default : Yes
Forced : No
Audio #2
ID : 3
Format : DTS
Format/Info : Digital Theater Systems
Codec ID : A_DTS
Duration : 1 h 53 min
Bit rate mode : Constant
Bit rate : 1 509 kb/s
Channel(s) : 6 channels
Channel layout : C L R Ls Rs LFE
Sampling rate : 48.0 kHz
Frame rate : 93.750 FPS (512 SPF)
Bit depth : 24 bits
Compression mode : Lossy
Stream size : 1.20 GiB (15%)
Language : German
Default : No
Forced : No
Text
ID : 4
Format : UTF-8
Codec ID : S_TEXT/UTF8
Codec ID/Info : UTF-8 Plain Text
Duration : 1 h 46 min
Bit rate : 40 b/s
Count of elements : 1039
Stream size : 31.3 KiB (0%)
Language : English
Default : No
Forced : No
Menu
00:00:00.000 : en:00:00:00.000
00:11:36.613 : en:00:11:36.613
00:20:06.247 : en:00:20:06.247
00:30:01.174 : en:00:30:01.174
00:40:37.894 : en:00:40:37.894
00:49:07.111 : en:00:49:07.111
00:57:39.831 : en:00:57:39.831
01:07:06.522 : en:01:07:06.522
01:15:54.091 : en:01:15:54.091
01:24:36.196 : en:01:24:36.196
01:35:24.969 : en:01:35:24.969
01:49:04.747 : en:01:49:04.747

Скриншоты

       

Орлов Владимир

Post Yesterday 15:58

[Quote]


Информация о фильме
Название: Мой друг Зигмунд Фрейд
Оригинальное название: The Tobacconist / Der Trafikant
Год выхода: 2018
Жанр: Драма
Режиссер: Николаус Лейтнер--В ролях: Симон Морзе, Бруно Ганц, Йоханнес Криш, Эмма Дрогунова, Давид Альтман, Кристоф Биттенауэр, Герти Драссль, Каролина Эйхгорн, Михаэль Фиц, Регина Фритш, Том Хансльмайер, Эрни Мангольд--О фильме: Юноша из австрийской сельской глубинки Франц неохотно переезжает в предвоенную Вену, чтобы устроиться на работу. Его берет к себе в помощники старый владелец табачной лавки Отто – один из немногих жителей столицы, не поддавшийся пропаганде нацизма. Пока Австрия сближается с гитлеровской Германией, Франц пытается наладить свою личную жизнь. Любое столкновение с девушками приводит в ужас скромного продавца из деревни, пока он не встречает человека, который помогает ему разобраться в собственных желаниях и странных сновидениях. В табачную лавку Отто и Франца захаживает всемирно известный профессор Зигмунд Фрейд. Основатель психоанализа не отказывает в дружбе и совете простому юноше, недавно встретившему свою первую любовь.-- --Страна: Австрия, Германия
Студия: Epo-Film Produktionsgesellschaft, Glory Film, Tobis Film
Продолжительность: 01:53:27
Перевод: Дублированный iTunes--Файл
Кодек: x.264
Качество: BDRip 720p
Видео: MPEG-4 AVC, 4198 Кбит/с, 1280x536
Аудио #1: Русский (AC3, 6 ch, 384 Кбит/с)
Аудио #2: немецкий (DTS, 6 ch, 1509 Кбит/с)
Субтитры: Aнглийские--Трейлер--

Скриншоты

       

Clavik

Post 19-Nov-2019 21:57

[Quote]

Ускорение / Acceleration (2019) WEB-DLRip- Производство: США / 7Heaven Productions, Cinetel Films
Жанр: Боевик
Режиссер: Майкл Мерино, Дэниэл Дзирилли
Актеры: Шон Патрик Флэнери, Дольф Лундгрен, Чак Лиделл, Наталия Берн, Куинтон Джексон, Дэнни Трехо, Ал Сапиенза, Нг Мэйлин, Джейсон Лондон, Салли Кёркленд
Описание:
Владик Зорич преступный гений, чьи щупальца дотянулись до каждого аспекта преступной жизни Лос-Анджелеса, будь то оружие, азартные игры, наркотики или торговля людьми, выясняет, что его пути пересеклись с самой ловкой оперативницей Роной Зёкки. Похитив сына Роны, Владик заставляет Рону устранить своих конкурентов и вернуть важную информацию и всё это в одну ночь.

Рейтинг MPAA: R (лицам до 17 лет обязательно присутствие взрослого)
Дата мировой премьеры: 8 ноября 2019
Продолжительность: 01:24:45
Качество видео: WEB-DLRip
Перевод: Многоголосый закадровый, любительский (MUZOBOZ)
Субтитры: Отсутствуют
Реклама: Присутствует баннер.
Видео: XviD, 720x400, ~11866 Kbps
Аудио: AC-3, 2 ch, 384 Kbps

MediaInfo:

]
Общее
Полное имя : D:\NNM\Ускорение\Acceleration.2019.WEB-DLRip.avi
Формат : AVI
Формат/Информация : Audio Video Interleave
Профиль формата : OpenDML
Размер файла : 1,34 Гбайт
Продолжительность : 1 ч. 24 м.
Общий поток : 2262 Кбит/сек
Видео
Идентификатор : 0
Формат : MPEG-4 Visual
Профиль формата : Advanced Simple@L5
Настройки формата : BVOP2
Параметр BVOP формата : 2
Параметр QPel формата : Нет
Параметр GMC формата : Без точки перехода
Параметр матрицы формата : Default (H.263)
Идентификатор кодека : XVID
Идентификатор кодека/Подсказка : XviD
Продолжительность : 1 ч. 24 м.
Битрейт : 1866 Кбит/сек
Ширина : 720 пикселей
Высота : 400 пикселей
Соотношение сторон : 16:9
Частота кадров : 23,976 (24000/1001) кадра/сек
Цветовое пространство : YUV
Субдискретизация насыщенности : 4:2:0
Битовая глубина : 4 бит
Тип развёртки : Прогрессивная
Метод сжатия : С потерями
Бит/(Пиксели*Кадры) : 0.270
Размер потока : 1,10 Гбайт (82%)
Библиотека кодирования : XviD 1.2.1 (UTC 2008-12-04)
Аудио
Идентификатор : 1
Формат : AC-3
Формат/Информация : Audio Coding 3
Коммерческое название : Dolby Digital
Идентификатор кодека : 2000
Продолжительность : 1 ч. 24 м.
Вид битрейта : Постоянный
Битрейт : 384 Кбит/сек
Каналы : 2 канала
ChannelLayout : L R
Частота : 48,0 КГц
Частота кадров : 31,250 кадров/сек (1536 SPF)
Битовая глубина : 16 бит
Метод сжатия : С потерями
Размер потока : 233 Мбайт (17%)
Выравнивание : Соединение по промежуткам
Продолжительность промежутка : 32 мс. (0,77 видеокадр)
ServiceKind/String : Complete Main
Скриншоты:        

Орлов Владимир

Post 19-Nov-2019 16:53

[Quote]

--Маленькие чудовища / Little Monsters-- Информация о фильме
Название: Маленькие чудовища
Оригинальное название: Little Monsters
Год выхода: 2019
Жанр: Ужасы, комедия
Режиссер: Абе Форсайт--В ролях: Лупита Нионго, Джош Гэд, Стивен Пикок, Кэт Стюарт, Александр Инглэнд, Надя Таунсенд, Феликс Уильямсон, Маршалл Напье, Генри Никсон, Джейсон Чонг, Дизель Ла Торрак, Саския Бурмайстер, Рахель Абдулрахман--О фильме: Учительница начальных классов везёт группу детей за город на экскурсию, когда на местности происходит вспышка зомби-вируса. Чтобы спастись и не травмировать детскую психику, женщина убеждает малышей в том, что все эти зомби, кровь, кишки - ненастоящие, а всё происходящее - просто игра. Странная, но весёлая. И вот тот дядя корчится не от боли, а от радости. И не корчится, а смеётся.-- --Страна: Австралия, Великобритания, США
Студия: Made Up Stories, Protagonist Pictures, Snoot Entertainment
Продолжительность: 01:33:43
Перевод: Дублированный iTunes--Файл
Кодек: AVC
Качество: WEB-DL 1080p | Little.Monsters.2019.1080p.HULU.WEB-DL.DD5.1.x264-FGT
Видео: MPEG-4 AVC, 4318 Kбит/с, 1920x1080, 24.000 кадр/с
Звук:Без Рекламы!
Аудио #1: Русский (АС3, 6ch, 384 Кбит/с, 48.0 KHz) Профессиональный (дублированный) iTunes
Аудио #2: Английский (АС3, 6 ch, 640 Кбит/с, 48.0 KHz)
Субтитры: Русские (Переведено студией FOCS, присутствует ненормативная лексика!), английские, испанские--Трейлер--

Тех.данные видеофайла

Источник: Little.Monsters.2019.1080p.HULU.WEB-DL.DD5.1.x264-FGT
General
Unique ID : 229039302561472743844645473653054636570 (0xAC4F5D78CC1D43CB89648E39DA42021A)
Complete name : Little.Monsters.2019.WEB-DL.1080p.mkv
Format : Matroska
Format version : Version 4
File size : 3.50 GiB
Duration : 1 h 33 min
Overall bit rate : 5 344 kb/s
Movie name : Little.Monsters.2019.1080p.HULU.WEB-DL.DD5.1.x264-FGT
Encoded date : UTC 2019-11-10 22:45:00
Writing application : mkvmerge v7.1.0 ('Good Love') 64bit built on Jul 27 2014 13:06:55
Writing library : libebml v1.3.0 + libmatroska v1.4.1
Video
ID : 1
Format : AVC
Format/Info : Advanced Video Codec
Format profile : High@L4
Format settings : CABAC / 4 Ref Frames
Format settings, CABAC : Yes
Format settings, Reference fra: 4 frames
Codec ID : V_MPEG4/ISO/AVC
Duration : 1 h 33 min
Bit rate : 4 318 kb/s
Width : 1 920 pixels
Height : 1 080 pixels
Display aspect ratio : 16:9
Frame rate mode : Constant
Frame rate : 24.000 FPS
Color space : YUV
Chroma subsampling : 4:2:0
Bit depth : 8 bits
Scan type : Progressive
Bits/(Pixel*Frame) : 0.087
Stream size : 2.83 GiB (81%)
Language : English
Default : Yes
Forced : No
Audio #1
ID : 2
Format : AC-3
Format/Info : Audio Coding 3
Commercial name : Dolby Digital
Codec ID : A_AC3
Duration : 1 h 33 min
Bit rate mode : Constant
Bit rate : 384 kb/s
Channel(s) : 6 channels
Channel layout : L R C LFE Ls Rs
Sampling rate : 48.0 kHz
Frame rate : 31.250 FPS (1536 SPF)
Compression mode : Lossy
Stream size : 257 MiB (7%)
Title : DUB | iTunes
Language : Russian
Service kind : Complete Main
Default : Yes
Forced : No
Audio #2
ID : 3
Format : AC-3
Format/Info : Audio Coding 3
Commercial name : Dolby Digital
Codec ID : A_AC3
Duration : 1 h 33 min
Bit rate mode : Constant
Bit rate : 640 kb/s
Channel(s) : 6 channels
Channel layout : L R C LFE Ls Rs
Sampling rate : 48.0 kHz
Frame rate : 31.250 FPS (1536 SPF)
Compression mode : Lossy
Stream size : 429 MiB (12%)
Language : English
Service kind : Complete Main
Default : No
Forced : No
Text #1
ID : 4
Format : UTF-8
Codec ID : S_TEXT/UTF8
Codec ID/Info : UTF-8 Plain Text
Duration : 1 h 33 min
Bit rate : 115 b/s
Count of elements : 1513
Stream size : 78.9 KiB (0%)
Title : Focs
Language : Russian
Default : No
Forced : No
Text #2
ID : 5
Format : UTF-8
Codec ID : S_TEXT/UTF8
Codec ID/Info : UTF-8 Plain Text
Duration : 1 h 33 min
Bit rate : 90 b/s
Count of elements : 1820
Stream size : 61.8 KiB (0%)
Language : English
Default : No
Forced : No
Text #3
ID : 6
Format : UTF-8
Codec ID : S_TEXT/UTF8
Codec ID/Info : UTF-8 Plain Text
Duration : 1 h 33 min
Bit rate : 96 b/s
Count of elements : 1879
Stream size : 66.2 KiB (0%)
Language : Spanish
Default : No
Forced : No

Скриншоты

           

Орлов Владимир

Post 19-Nov-2019 00:07

[Quote]

--Куда ты пропала, Бернадетт? / Where'd You Go, Bernadette--
Информация о фильме
Название: Куда ты пропала, Бернадетт?
Оригинальное название: Where'd You Go, Bernadette
Год выхода: 2019
Жанр: Драма, комедия, детектив
Режиссер: Ричард Линклейтер--В ролях: Кейт Бланшетт, Джуди Грир, Кристен Уиг, Тройэн Эвери Беллисарио, Билли Крудап, Лоренс Фишбёрн, Стив Зан, Меган Маллалли, Клаудия Дурмит, Йоуханнес Хёйкьюр Йоуханнессон--О фильме: У Бернадетт, очаровательной женщины и талантливого архитектора, есть всё: прекрасный дом, замечательная дочь, успешный и любящий муж. Хоть она и выбивается из «безупречной» компании соседских мамаш, никто не мог представить, что в один прекрасный день Бернадетт просто исчезнет без следа. Она отправляется на поиски себя, пытаясь обрести счастье на краю света.-- --Страна: США
Студия: Annapurna Pictures, Color Force
Продолжительность: 01:44:29
Перевод: Дублированный iTunes--Качество: WEB-DL 1080p
Видео: MPEG-4 AVC, 1920x1038, 5206 Кbit/s, 25 fps
Аудио #01: 48 kHz, AC3, 5.1, 384 Kbps | iTunes | RUS |
Аудио #02: 48 kHz, AAC, 2.0, 126 Kbps | iTunes | UKR |
Аудио #02: 48 kHz, AC3, 5.1, 384 Kbps | Оригинал | ENG |
Субтитры: Русские--

Скриншоты

         

Тех.данные видеофайла

General
Unique ID : 181428194726409040957069901138088613388 (0x887DCC9ECAB50407FC8F86272BFED60C)
Complete name : D:Video111Where.d.You.Go.Bernadette.2019.WEB.DL.1080p.seleZen.mkv
Format : Matroska
Format version : Version 4
File size : 4.46 GiB
Duration : 1 h 44 min
Overall bit rate : 6 103 kb/s
Movie name : Where'd You Go, Bernadette 2019 from селезень
Encoded date : UTC 2019-11-18 19:59:11
Writing application : mkvmerge v40.0.0 ('Old Town Road + Pony') 64-bit
Writing library : libebml v1.3.9 + libmatroska v1.5.2
Cover : Yes
Attachments : cover.jpg
Video
ID : 1
Format : AVC
Format/Info : Advanced Video Codec
Format profile : High@L4
Format settings : CABAC / 4 Ref Frames
Format settings, CABAC : Yes
Format settings, Reference : 4 frames
Codec ID : V_MPEG4/ISO/AVC
Duration : 1 h 44 min
Bit rate : 5 206 kb/s
Width : 1 920 pixels
Height : 1 038 pixels
Display aspect ratio : 1.85:1
Frame rate mode : Constant
Frame rate : 25.000 FPS
Color space : YUV
Chroma subsampling : 4:2:0
Bit depth : 8 bits
Scan type : Progressive
Bits/(Pixel*Frame) : 0.104
Stream size : 3.80 GiB (85%)
Language : English
Default : Yes
Forced : No
Color range : Limited
Color primaries : BT.709
Transfer characteristics : BT.709
Matrix coefficients : BT.709
Audio #1
ID : 2
Format : AC-3
Format/Info : Audio Coding 3
Commercial name : Dolby Digital
Codec ID : A_AC3
Duration : 1 h 44 min
Bit rate mode : Constant
Bit rate : 384 kb/s
Channel(s) : 6 channels
Channel layout : L R C LFE Ls Rs
Sampling rate : 48.0 kHz
Frame rate : 31.250 FPS (1536 SPF)
Bit depth : 16 bits
Compression mode : Lossy
Stream size : 287 MiB (6%)
Title : iTunes
Language : Russian
Service kind : Complete Main
Default : Yes
Forced : Yes
Audio #2
ID : 3
Format : AAC LC
Format/Info : Advanced Audio Codec Low Complexity
Codec ID : A_AAC-2
Duration : 1 h 44 min
Bit rate : 126 kb/s
Channel(s) : 2 channels
Channel layout : L R
Sampling rate : 48.0 kHz
Frame rate : 46.875 FPS (1024 SPF)
Compression mode : Lossy
Stream size : 93.9 MiB (2%)
Title : iTunes
Language : Ukrainian
Default : No
Forced : No
Audio #3
ID : 4
Format : AC-3
Format/Info : Audio Coding 3
Commercial name : Dolby Digital
Codec ID : A_AC3
Duration : 1 h 44 min
Bit rate mode : Constant
Bit rate : 384 kb/s
Channel(s) : 6 channels
Channel layout : L R C LFE Ls Rs
Sampling rate : 48.0 kHz
Frame rate : 31.250 FPS (1536 SPF)
Bit depth : 16 bits
Compression mode : Lossy
Stream size : 287 MiB (6%)
Title : Original
Language : English
Service kind : Complete Main
Default : No
Forced : No
Text
ID : 5
Format : UTF-8
Codec ID : S_TEXT/UTF8
Codec ID/Info : UTF-8 Plain Text
Duration : 1 h 43 min
Bit rate : 129 b/s
Count of elements : 1509
Stream size : 98.4 KiB (0%)
Title : Full
Language : Russian
Default : No
Forced : No
Menu
00:00:00.000 : en:Глава 1
00:01:59.040 : en:Глава 2
00:08:41.040 : en:Глава 3
00:15:01.400 : en:Глава 4
00:24:18.000 : en:Глава 5
00:29:22.760 : en:Глава 6
00:41:22.000 : en:Глава 7
00:50:23.600 : en:Глава 8
01:05:17.200 : en:Глава 9
01:11:28.280 : en:Глава 10
01:17:06.200 : en:Глава 11
01:26:51.080 : en:Глава 12
01:35:48.960 : en:Глава 13

Орлов Владимир

Post 19-Nov-2019 00:01

[Quote]

--Куда ты пропала, Бернадетт? / Where'd You Go, Bernadette--
Информация о фильме
Название: Куда ты пропала, Бернадетт?
Оригинальное название: Where'd You Go, Bernadette
Год выхода: 2019
Жанр: Драма, комедия, детектив
Режиссер: Ричард Линклейтер--В ролях: Кейт Бланшетт, Джуди Грир, Кристен Уиг, Тройэн Эвери Беллисарио, Билли Крудап, Лоренс Фишбёрн, Стив Зан, Меган Маллалли, Клаудия Дурмит, Йоуханнес Хёйкьюр Йоуханнессон--О фильме:
У Бернадетт, очаровательной женщины и талантливого архитектора, есть всё: прекрасный дом, замечательная дочь, успешный и любящий муж. Хоть она и выбивается из «безупречной» компании соседских мамаш, никто не мог представить, что в один прекрасный день Бернадетт просто исчезнет без следа. Она отправляется на поиски себя, пытаясь обрести счастье на краю света.-- --Страна: США
Студия: Annapurna Pictures, Color Force
Продолжительность: 01:44:29
Перевод: Дублированный iTunes--Файл
Формат: AVI
Качество: WEB-DLRip
Видео: 704x384 (1.83:1), 25 fps, XviD build 73 ~1607 kbps avg, 0.24 bit/pixel
Звук: 48 kHz, AC3 Dolby Digital, 3/2 (L,C,R,l,r) + LFE ch, ~384 kbps
Субтитры: Нет--

Скриншоты

       

Clavik

Post 18-Nov-2019 21:21

[Quote]

Они / Haunt (2019) WEB-DLRip [H.265/720p-LQ] [10-bit] - Производство: США / Broken Road Productions, Nickel City Pictures
Жанр: Ужасы, Триллер
Режиссер: Скотт Бек, Брайан Вудс
Актеры: Кэти Стивенс, Уилл Бриттейн, Лорин Алиса МакКлейн, Эндрю Колдуэлл, Шази Раджа, Шулер Хелфорд, Филлип Джонсон Ричардсон, Чейни Морроу, Джастин Марксен, Терри Партыка
Описание:
На Хэллоуин в поисках острых ощущений группа студентов отправляется за город на аттракцион «Комнаты страха», который обещает воплотить кошмары из самых жутких фильмов ужасов. Вскоре друзья понимают, что попали вовсе не в место для игр, под масками клоунов скрываются не люди, а существа из другого мира, а сами они теперь — герои настоящего хоррора и должны очень сильно постараться, чтобы выбраться из адского аттракциона живыми.

Возраст: 18+ (зрителям, достигшим 18 лет. запрещено для детей)
Рейтинг MPAA: R (лицам до 17 лет обязательно присутствие взрослого)
Дата мировой премьеры: 23 августа 2019
Дата российской премьеры: 17 октября 2019, «Экспонента»
Продолжительность: 01:32:35
Качество видео: WEB-DLRip (720p)
Перевод: Дублированный (iTunes)
Субтитры: Английские
Видео: HEVC/H.265, 1280x534, 2917 Kbps
Аудио 1: AC3, 6 ch, 384 Kbps | Русский
Аудио 2: AC3, 6 ch, 448 Kbps | Английский

MediaInfo:

Общее
Уникальный идентификатор : 97672495135786266088420680699783527079 (0x497B09CED9224CB07DD705316115BAA7)
Полное имя : Haunt.2019.WEB-DLRip.720p.10bit.HEVC.mkv
Формат : Matroska
Версия формата : Version 4 / Version 2
Размер файла : 2,47 Гбайт
Продолжительность : 1 ч. 32 м.
Общий поток : 3825 Кбит/сек
Название фильма : Haunt 2019
Программа кодирования : XviD4PSP 8.0.91
Библиотека кодирования : Lavf58.20.100
ErrorDetectionType : Per level 1
ENCODING_INFO : MATROSKA,WEBM > MKV
Видео
Идентификатор : 1
Формат : HEVC
Формат/Информация : High Efficiency Video Coding
Профиль формата : Main [url=mailto:10@L4.1]10@L4.1[/url]@High
Идентификатор кодека : V_MPEGH/ISO/HEVC
Продолжительность : 1 ч. 32 м.
Битрейт : 2917 Кбит/сек
Ширина : 1280 пикселей
Высота : 534 пикселя
Соотношение сторон : 2,40:1
Режим частоты кадров : Постоянный
Частота кадров : 23,976 (24000/1001) кадра/сек
Цветовое пространство : YUV
Субдискретизация насыщенности : 4:2:0
Битовая глубина : 10 бит
Бит/(Пиксели*Кадры) : 0.178
Размер потока : 1,89 Гбайт (76%)
Язык : English
Default : Да
Forced : Нет
Цветовой диапазон : Limited
Основные цвета : BT.709
Характеристики трансфера : BT.709
Коэффициенты матрицы : BT.709
ENCODING_INFO : H264 > HEVC NVENC CQ 16 HQ
Аудио #1
Идентификатор : 2
Формат : AC-3
Формат/Информация : Audio Coding 3
Параметр Endianness формата : Big
Идентификатор кодека : A_AC3
Продолжительность : 1 ч. 32 м.
Вид битрейта : Постоянный
Битрейт : 384 Кбит/сек
Каналы : 6 каналов
Расположение каналов : Front: L C R, Side: L R, LFE
Частота : 48,0 КГц
Частота кадров : 31,250 кадров/сек (1536 SPF)
Битовая глубина : 16 бит
Метод сжатия : С потерями
Размер потока : 254 Мбайт (10%)
Заголовок : iTunes
Язык : Russian
ServiceKind/String : Complete Main
Default : Да
Forced : Нет
ENCODING_INFO : AC3 > COPY Безопасное
Аудио #2
Идентификатор : 3
Формат : AC-3
Формат/Информация : Audio Coding 3
Параметр Endianness формата : Big
Идентификатор кодека : A_AC3
Продолжительность : 1 ч. 32 м.
Вид битрейта : Постоянный
Битрейт : 448 Кбит/сек
Каналы : 6 каналов
Расположение каналов : Front: L C R, Side: L R, LFE
Частота : 48,0 КГц
Частота кадров : 31,250 кадров/сек (1536 SPF)
Битовая глубина : 16 бит
Метод сжатия : С потерями
Размер потока : 297 Мбайт (12%)
Заголовок : Original
Язык : English
ServiceKind/String : Complete Main
Default : Нет
Forced : Нет
ENCODING_INFO : EAC3 > AC3 CBR 448kbps
Текст #1
Идентификатор : 4
Формат : UTF-8
Идентификатор кодека : S_TEXT/UTF8
Идентификатор кодека/Информация : UTF-8 Plain Text
Заголовок : Full
Язык : English
Default : Да
Forced : Нет
ENCODING_INFO : SUBRIP > COPY Быстрое
Текст #2
Идентификатор : 5
Формат : UTF-8
Идентификатор кодека : S_TEXT/UTF8
Идентификатор кодека/Информация : UTF-8 Plain Text
Заголовок : SDH
Язык : English
Default : Нет
Forced : Нет
ENCODING_INFO : SUBRIP > COPY Быстрое
Скриншоты:
       

Орлов Владимир

Post 18-Nov-2019 20:34

[Quote]

--Дикая Лига --
Информация о фильме
Название: Дикая Лига
Год выпуска: 2019
Жанр: Приключения, боевик
Режиссёр: Андрей Богатырев, Арт Камачо--В ролях: Владимир Яглыч, Аделина Голубенко-Гизатуллина, Иван Охлобыстин, Дмитрий Назаров, Евгений Коряковский, Олеся Судзиловская, Эдриан Пол, Уильям Шокли, Станислав Тикунов, Анатолий Гущин, Иван Михайловский, Вячеслав Шихалеев, Павел Абраменков, Денис Кузнецов, Антон Колесников, Мария Дубина, Михаил Мелин, Вилен Бабичев--Описание: Основанная на реальных событиях начала XX века история парня Варлама из низших социальных слоев, которому ради того, чтобы быть с любимой, пришлось покинуть родные края и начать жить в Москве. Проявившего себя в бою стенка на стенку парня замечает англичанин, владелец футбольного клуба, который предлагает ему попробовать силы в команде. Однако команда не принимает неотесанного бурлака с Волги. Тогда собравшись с силами, Варлам вместе с настоящим патриотом и увлеченным футболом купцом Балашовым создает первую народную команду и становится лидером, изменив при этом свою жизнь и жизнь окружающих. Благодаря Варламу и его команде футбол в России становится поистине народной игрой.-- --Страна: Россия
Студия: Кинокомпания «Союз Маринс Групп», Modern Age Productions
Продолжительность: 01:50:54
Перевод: Не требуется iTunes
Язык: Русский--Файл
Кодек: h.264
Качество: WEB-DLRip-AVC
Видео: MPEG-4 AVC, ~ 1495 Кбит/с, 1024x432, 24 кадр/с
Аудио: AC3, 6 ch, 384 Кбит/с
Cубтитры: нет--

Тех.данные видеофайла

General
Unique ID : 249253291196218879561586117020538900246 (0xBB84700EC2028351BD5A2A21D98C0F16)
Complete name : F:\Dikaya.liga.(2019).WEB-DLRip.(AVC).by.Серый1779.Files-x.mkv
Format : Matroska
Format version : Version 2
File size : 1.46 GiB
Duration : 1 h 50 min
Overall bit rate : 1 879 kb/s
Encoded date : UTC 2019-11-18 16:35:48
Writing application : mkvmerge v7.8.0 ('River Man') 32bit built on Apr 3 2015 12:11:22
Writing library : libebml v1.3.1 + libmatroska v1.4.2
Video
ID : 1
Format : AVC
Format/Info : Advanced Video Codec
Format profile : High@L4.1
Format settings : CABAC / 10 Ref Frames
Format settings, CABAC : Yes
Format settings, RefFrames : 10 frames
Codec ID : V_MPEG4/ISO/AVC
Duration : 1 h 50 min
Bit rate : 1 495 kb/s
Width : 1 024 pixels
Height : 432 pixels
Display aspect ratio : 2.40:1
Frame rate mode : Constant
Frame rate : 24.000 FPS
Color space : YUV
Chroma subsampling : 4:2:0
Bit depth : 8 bits
Scan type : Progressive
Bits/(Pixel*Frame) : 0.141
Stream size : 1.13 GiB (78%)
Writing library : x264 core 146 r2538 121396c
Encoding settings : cabac=1 / ref=10 / deblock=1:-2:-1 / analyse=0x3:0x133 / me=umh / subme=11 / psy=1 / psy_rd=1.00:0.08 / mixed_ref=1 / me_range=32 / chroma_me=1 / trellis=2 / 8x8dct=1 / cqm=0 / deadzone=21,11 / fast_pskip=0 / chroma_qp_offset=-3 / threads=18 / lookahead_threads=3 / sliced_threads=0 / nr=0 / decimate=1 / interlaced=0 / bluray_compat=0 / constrained_intra=0 / bframes=11 / b_pyramid=2 / b_adapt=2 / b_bias=0 / direct=1 / weightb=1 / open_gop=0 / weightp=2 / keyint=250 / keyint_min=23 / scenecut=40 / intra_refresh=0 / rc=2pass / mbtree=0 / bitrate=1495 / ratetol=1.0 / qcomp=0.60 / qpmin=0 / qpmax=69 / qpstep=4 / cplxblur=20.0 / qblur=0.5 / ip_ratio=1.40 / pb_ratio=1.30 / aq=2:1.00
Default : Yes
Forced : No
Color range : Limited
Color primaries : BT.709
Transfer characteristics : BT.709
Matrix coefficients : BT.709
Audio
ID : 2
Format : AC-3
Format/Info : Audio Coding 3
Format settings, Endianness : Big
Codec ID : A_AC3
Duration : 1 h 50 min
Bit rate mode : Constant
Bit rate : 384 kb/s
Channel(s) : 6 channels
Channel positions : Front: L C R, Side: L R, LFE
Sampling rate : 48.0 kHz
Frame rate : 31.250 FPS (1536 SPF)
Bit depth : 16 bits
Compression mode : Lossy
Stream size : 305 MiB (20%)
Service kind : Complete Main
Default : Yes
Forced : No

Скриншоты

       

Орлов Владимир

Post 18-Nov-2019 17:44

[Quote]

--Леонардо да Винчи. Неизведанные миры / Io, Leonardo --
Название: Леонардо да Винчи. Неизведанные миры
Оригинальное название: Io, Leonardo
Страна: Италия
Производство: Sky Arte HD, Progetto Immagine, Comune di Milano, Comune di Firenze
Год выпуска: 2019
Жанр: биография, драма
Продолжительность: 01:29:46--Режиссер: Хесус Гарсес Ламберт / Jesus Garces Lambert
Авторы сценария: Оливьеро Дель Папа, Мириам Мосетти, Сара Мосетти--В ролях: Лука Арджентеро, Массимо Де Лоренцо, Мэтт ДеЛуис, Анджела Фонтана, Франческо Паннофино--Описание: Путешествие в сознание Леонардо да Винчи, легенды мировой культуры, одного из самых удивительных гениев, каких знает история человечества, создателя «главной в мире картины» — «Моны Лизы». С помощью самых современных технологий в фильме воссоздаются великие произведения мастера...-- --Перевод: Профессиональный (многоголосый, закадровый) iTunes
Субтитры: нет--Качество: WEB-DL (720p)
Видео: MPEG-4 AVC, 4070 Кбит/с, 1280x536
Аудио: Русский (AC3, 6 ch, 384 Кбит/с)--Дата премьеры (мир): 2 октября 2019
Дата премьеры (РФ): 3 октября 2019, «ПилотКино»-- --

Скриншоты

       

Орлов Владимир

Post 18-Nov-2019 17:35

[Quote]

--Они / Haunt--
Информация о фильме
Название: Они
Оригинальное название: Haunt
Страна: США
Производство: Broken Road Productions, Sierra Pictures (III), Nickel City Pictures
Год выпуска: 2019
Жанр: ужасы, триллер
Продолжительность: 01:32:35--Режиссеры: Брайан Вудс / Bryan Woods, Скотт Бек / Scott Beck
В ролях: Кэти Стивенс, Уилл Бриттейн, Лорин Алиса МакКлейн, Эндрю Колдуэлл, Шази Раджа, Шулер Хелфорд, Филлип Джонсон Ричардсон, Чейни Морроу, Джастин Марксен, Терри Партыка, Джастин Роуз, Дэмиэн Маффей, Шулер Уайт, Сэмюэл К. Хант--Описание: На Хэллоуин в поисках острых ощущений группа студентов отправляется за город на аттракцион «Комнаты страха», который обещает воплотить кошмары из самых жутких фильмов ужасов. Вскоре друзья понимают, что попали вовсе не в место для игр, под масками клоунов скрываются не люди, а существа из другого мира, а сами они теперь — герои настоящего хоррора и должны очень сильно постараться, чтобы выбраться из адского аттракциона живыми...-- --Перевод: Профессиональный (полное дублирование) | iTunes
Субтитры: нет--Качество: WEB-DLRip-AVC
Формат: МКV
Видео кодек: AVC
Аудио кодек: AC3
Видео: 776x320 (2.40:1), 23.976 fps, MPEG-4 AVC ~920 kbps avg
Аудио: 48.0 kHz, AC3 Dolby Digital, 2/0 (L,R) ch, ~192 kbps avg--Дата премьеры (мир): 23 августа 2019
Дата премьеры (РФ): 17 октября 2019, «Экспонента»-- --

Тех.данные видеофайла

General
Complete name: Они (2019) WEB-DLRip-AVC_ivanes.mkv
Format: Matroska
Format version: Version 2
File size: 746 MiB
Duration: 1 h 32 min
Overall bit rate: 1 127 kb/s
Movie name: Они (2019) WEB-DLRip-AVC_ivanes
Encoded date: UTC 2019-11-18 03:57:29
Writing application: mkvmerge v4.4.0 ('Die Wiederkehr') сборка от Jan 3 2011 21:40:45
Writing library: libebml v1.0.0 + libmatroska v1.0.0
Cover: Yes
Attachments: cover.jpg
Video
ID: 1
Format: AVC
Format/Info: Advanced Video Codec
Format profile: High@L4.1
Format settings: CABAC / 11 Ref Frames
Format settings, CABAC: Yes
Format settings, Reference: 11 frames
Codec ID: V_MPEG4/ISO/AVC
Duration: 1 h 32 min
Bit rate: 934 kb/s
Width: 776 pixels
Height: 320 pixels
Display aspect ratio: 2.40:1
Frame rate mode: Constant
Frame rate: 23.976 (24000/1001) FPS
Color space: YUV
Chroma subsampling: 4:2:0
Bit depth: 8 bits
Scan type: Progressive
Bits/(Pixel*Frame): 0.157
Stream size: 604 MiB (81%)
Title: Rip by ivanes
Writing library: x264 core 158 r2984+49 6932f4a t_mod_New [0-bit@all X86]
Encoding settings: cabac=1 / ref=11 / deblock=1:-3:-3 / analyse=0x3:0x113 / me=umh / subme=10 / psy=1 / fade_compensate=0.00 / psy_rd=1.00:0.00 / mixed_ref=1 / me_range=32 / chroma_me=1 / trellis=2 / 8x8dct=1 / cqm=0 / deadzone=21,11 / fast_pskip=0 / chroma_qp_offset=-2 / threads=12 / lookahead_threads=2 / sliced_threads=0 / nr=0 / decimate=1 / interlaced=0 / bluray_compat=0 / constrained_intra=0 / fgo=0 / bframes=12 / b_pyramid=2 / b_adapt=2 / b_bias=0 / direct=1 / weightb=1 / open_gop=0 / weightp=2 / keyint=240 / keyint_min=23 / scenecut=40 / intra_refresh=0 / rc_lookahead=60 / rc=2pass / mbtree=0 / bitrate=934 / ratetol=1.0 / qcomp=0.60 / qpmin=0:0:0 / qpmax=69:69:69 / qpstep=4 / cplxblur=20.0 / qblur=0.5 / vbv_maxrate=50000 / vbv_bufsize=62500 / nal_hrd=none / filler=0 / ip_ratio=1.40 / pb_ratio=1.30 / aq=1:1.00 / aq-sensitivity=10.00 / aq-factor=1.00:1.00:1.00 / aq2=0 / aq3=0
Default: Yes
Forced: No
Statistics Tags Issue: mkvmerge v29.0.0 ('Like It Or Not') 64-bit 2019-11-18 03:56:03 / mkvmerge v4.4.0 ('Die Wiederkehr') сборка от Jan 3 2011 21:40:45 2019-11-18 03:57:29
FromStats_BitRate: 933485
FromStats_Duration: 01:32:35.592000000
FromStats_FrameCount: 133201
FromStats_StreamSize: 648258042
Audio
ID: 2
Format: AC-3
Format/Info: Audio Coding 3
Commercial name: Dolby Digital
Codec ID: A_AC3
Duration: 1 h 32 min
Bit rate mode: Constant
Bit rate: 192 kb/s
Channel(s): 2 channels
Channel layout: L R
Sampling rate: 48.0 kHz
Frame rate: 31.250 FPS (1536 SPF)
Compression mode: Lossy
Stream size: 127 MiB (17%)
Title: iTunes
Language: Russian
Service kind: Complete Main
Default: Yes
Forced: No

Скриншоты

     

Орлов Владимир

Post 18-Nov-2019 17:29

[Quote]

--Дикая Лига--
Информация о фильме
Название: Дикая Лига
Год выпуска: 2019
Жанр: Приключения, боевик
Режиссёр: Андрей Богатырев, Арт Камачо--В ролях: Владимир Яглыч, Аделина Голубенко-Гизатуллина, Иван Охлобыстин, Дмитрий Назаров, Евгений Коряковский, Олеся Судзиловская, Эдриан Пол, Уильям Шокли, Станислав Тикунов, Анатолий Гущин, Иван Михайловский, Вячеслав Шихалеев, Павел Абраменков, Денис Кузнецов, Антон Колесников, Мария Дубина, Михаил Мелин, Вилен Бабичев--Описание: Основанная на реальных событиях начала XX века история парня Варлама из низших социальных слоев, которому ради того, чтобы быть с любимой, пришлось покинуть родные края и начать жить в Москве. Проявившего себя в бою стенка на стенку парня замечает англичанин, владелец футбольного клуба, который предлагает ему попробовать силы в команде. Однако команда не принимает неотесанного бурлака с Волги. Тогда собравшись с силами, Варлам вместе с настоящим патриотом и увлеченным футболом купцом Балашовым создает первую народную команду и становится лидером, изменив при этом свою жизнь и жизнь окружающих. Благодаря Варламу и его команде футбол в России становится поистине народной игрой.-- --Страна: Россия
Студия: Кинокомпания «Союз Маринс Групп», Modern Age Productions
Продолжительность: 01:51:00
Язык: Русский iTunes--Тех. данные
Качество: WEB-DL 1080p
Видео: MPEG-4 AVC, 4500 Кбит/с, 1920x804
Аудио: AC3, 6 ch, 384 Кбит/с--

Скриншоты

   
       
 

The time now is: Today 13:41

All times are GMT + 3 Hours