Today is a free download without charge Download

Search found 500 matches

Author Message

kilmister777

Post Yesterday 11:08

[Quote]

Смерть нам к лицу- Год выпуска: 2019
Страна: Россия
Жанр: комедия, мелодрама
Продолжительность: 01:16:13
Перевод: Не требуется- -Режиссер: Борис Гуц-В ролях: Александра Быстржицкая, Даниил Пугаёв, Екатерина Волкова, Наталья Павленкова, Анна Глаубэ, Полина Ауг, Кирилл Ковбас, Ольга Кавалай-Аксенова, Евгений Пуцыло, Дмитрий Орлович-Описание: Можно ли найти 4 миллиона за 4 дня, если ты работаешь курьером, родителям на тебя наплевать, а твой лучший друг — идиот? Взять в долг, продать последнее, стать порноактером — сделать все что угодно, лишь бы любимая не умерла.-Качество: WEB-DLRip
Формат: AVI
Видео кодек: XviD
Аудио кодек: AC3
Видео: 720x400 (1.80:1), 25 fps, XviD build 73 ~2365 kbps avg, 0.33 bit/pixel
Аудио: 48 kHz, AC3 Dolby Digital, 2/0 (L,R) ch, ~192 kbps-

Скриншоты

       

kilmister777

Post 25-Feb-2020 08:57

[Quote]

Барашек Шон: Фермагеддон / A Shaun the Sheep Movie: Farmageddon- Год выпуска: 2019
Страна: Великобритания, Франция, США
Жанр: фантастика, фэнтези, комедия, приключения, семейный
Продолжительность: 01:26:47
Перевод: Не требуется(нет диалогов)- -Режиссер: Уилл Бечер, Ричард Фелан-В ролях: Джастин Флетчер, Джон Шпаркс, Крис Морелл, Энди Найман, Дэвид Холт, Кейт Харбор, Амалия Витале, Джо Сагг, Эмма Тейт, Ричард Веббер-Описание: Странные огни над городом предвещают прибытие таинственного гостя из далекой галактики. Очаровательная и озорная Лу-Ла терпит крушение неподалеку от фермы Шона. Инопланетные способности и проказы неугомонной Лу-Лы очаровывают отару, и Шон решает помочь внеземному другу найти потерянный корабль, но он не знает, что зловещее агентство по охоте на инопланетян уже идет по их следу. Смогут ли Шон и его друзья предотвратить Фермагеддон, пока не стало слишком поздно?-Качество: BDRip
Формат: AVI
Видео кодек: XviD
Аудио кодек: AC3
Видео: 720x304 (2.37:1), 24 fps, XviD build 73 ~1952 kbps avg, 0.37 bit/pixel
Аудио: 48 kHz, AC3 Dolby Digital, 3/2 (L,C,R,l,r) + LFE ch, ~448 kbps-

Скриншоты

       

kilmister777

Post 21-Feb-2020 08:37

[Quote]

Шахматист / Fahim- Год выпуска: 2019
Страна: Франция
Жанр: драма, комедия, биография
Продолжительность: 01:47:25
Перевод: Профессиональный(дублированный) iTunes- -Режиссер: Пьер-Франсуа Мартен-Лаваль-В ролях: Изабель Нанти, Жерар Депардьё, Ассад Ахмед, Мизанур Рахаман, Сара Туффик Отман-Шмитт, Виктор Эрру, Тьяго Туби, Александр Нод, Пьер Гомме, Аксель Керавец-Описание: Юный шахматный гений Фахим вместе с отцом вынужденно покидает родной Бангладеш и находит убежище в Париже. Здесь мальчик знакомится с ворчуном Сильвианом, одним из лучших гроссмейстеров Франции. Неприязнь между ними перерастет в дружбу, которая подарит им новый смысл жизни и приведет как к досадным поражениям, так и к головокружительным победам.-Качество: WEB-DLRip
Формат: AVI
Видео кодек: XviD
Аудио кодек: AC3
Видео: 720x304 (2.37:1), 24.000 fps, XviD build 73 ~1552 kbps avg, 0.30 bit/pixel
Аудио: 48 kHz, AC3 Dolby Digital, 3/2 (L,C,R,l,r) + LFE ch, ~384 kbps avg-

Скриншоты

       

kilmister777

Post 20-Feb-2020 10:37

[Quote]

Ржев«Искупить кровью»- Год выпуска: 2019
Страна: Россия
Жанр: военный, драма, история
Продолжительность: 01:57:20
Перевод: Не требуется- -Режиссер: Игорь Копылов-В ролях: Сергей Жарков, Иван Батарев, Олег Гаянов, Арсений Семёнов, Александр Горбатов, Александр Бухаров, Григорий Некрасов, Игорь Грабузов, Александр Аравушкин, Дан Розин-Описание: 1942 год. Ржевская битва. После боев под селом Овсянниково от роты советских солдат осталась только треть. Бойцы пытаются продержаться до прихода подкрепления. Но из штаба поступает приказ удержать деревню любой ценой. Значит, отступать нельзя... Каждый из героев понимает, что живыми из этого переплета выбраться почти невозможно. В этот момент в Овсянниково, едва не погибнув под вражеским обстрелом, прибывает младший лейтенант - начальник особого отдела, который должен найти и разоблачить предателей среди своих. Лейтенант уверен, что только так можно приблизить победу. События приобретают непредсказуемый оборот.-Качество: WEB-DLRip
Формат: AVI
Видео кодек: XviD
Аудио кодек: AC3
Видео: 720x304 (2.37:1), 24.000 fps, XviD build 73 ~1382 kbps avg, 0.24 bit/pixel
Аудио: 48 kHz, AC3 Dolby Digital, 3/2 (L,C,R,l,r) + LFE ch, ~384 kbps avg-

Скриншоты

       

kilmister777

Post 20-Feb-2020 10:17

[Quote]

Достать ножи / Knives Out- Год выпуска: 2019
Страна: США
Жанр: детектив, комедия, драма, криминал
Продолжительность: 02:10:13
Перевод: Профессиональный(дублированный) iTunes
Субтитры: Русские форсированные (отдельно)- -Режиссер: Райан Джонсон-В ролях: Дэниэл Крэйг, Ана де Армас, Крис Эванс, Джейми Ли Кёртис, Майкл Шеннон, Дон Джонсон, Тони Коллетт, Лакит Стэнфилд, Кристофер Пламмер, Кэтрин Лэнгфорд-Описание: Когда сразу после празднования 85-летия известного автора криминальных романов Харлана Тромби виновника торжества находят мёртвым, за расследование берётся обаятельный и дотошный детектив Бенуа Блан. Ему предстоит распутать тугую сеть уловок и корыстной лжи, которой его опутывают члены неблагополучной семьи Харлана и преданный ему персонал.-Качество: BDRip
Формат: AVI
Видео кодек: XviD
Аудио кодек: AC3
Видео: 704x384 (1.83:1), 23.976 fps, XviD build 73 ~1406 kbps avg, 0.22 bit/pixel
Аудио: 48 kHz, AC3 Dolby Digital, 2/0 (L,R) ch, ~192 kbps-

Скриншоты

       

kilmister777

Post 20-Feb-2020 10:05

[Quote]

Вальгалла: Рагнарёк / Valhalla- Год выпуска: 2019
Страна: Дания, Норвегия, Швеция, Исландия
Жанр: фэнтези, триллер, приключения
Продолжительность: 01:45:02
Перевод: Профессиональный(дублированный) iTunes- -Режиссер: Фенар Ахмад-В ролях: Роланд Мёллер, Дульфи Аль-Джабури, Сесилия Лоффредо, Саксо Мольтке-Лет, Асбьёрн Крог Ниссен, Стине Фишер Кристенсен, Саломе Гуннарсдоттир, Якоб Ульрик Ломанн, Патриция Шуманн, Андреас Йессен-Описание: Близится Рагнарек, и великие боги Асгарда собирают последние силы перед битвой. Двое смертных из Мидгарда вместе с Локи и Тором прибывают в небесный чертог накануне сражения. Вот-вот пробудится чудовищный волк Фенрир и древние исполины из Ётунхейма осадят стены Вальгаллы. Мир обречен. Но можно ли изменить предначертанное?-Качество: WEB-DLRip
Формат: AVI
Видео кодек: XviD
Аудио кодек: AC3
Видео: 720x304 (2.37:1), 24 fps, XviD build 73 ~1596 kbps avg, 0.30 bit/pixel
Аудио: 48 kHz, AC3 Dolby Digital, 3/2 (L,C,R,l,r) + LFE ch, ~384 kbps avg-

Скриншоты

       

kilmister777

Post 20-Feb-2020 09:53

[Quote]

Подруги поневоле / Sweethearts- Год выпуска: 2019
Страна: Германия
Жанр: мелодрама, комедия, криминал
Продолжительность: 01:46:53
Перевод: Профессиональный(дублированный) iTunes- -Режиссер: Каролине Херфурт-В ролях: Каролине Херфурт, Ханна Херцшпрунг, Аннеке Ким Сарнау, Фредерик Лау, Рональд Церфельд, Луна Арвен Крюгер, Фредерик Линкеманн, Давид Шюттер, Мона Пирзад, Нилам Фарук-Описание: По воле случая профессиональная воровка Мэл во время ограбления берет в заложницы девушку по имени Фрэнни. Оказавшись вместе в гонке со временем, преследуемые детективом полиции и подпольным миром Берлина, необычная парочка начинает работать вместе.-Качество: HDRip
Формат: AVI
Видео кодек: XviD
Аудио кодек: AC3
Видео: 720x304 (2.37:1), 24.000 fps, XviD build 73 ~1564 kbps avg, 0.30 bit/pixel
Аудио: 48 kHz, AC3 Dolby Digital, 3/2 (L,C,R,l,r) + LFE ch, ~384 kbps avg-

Скриншоты

       

kilmister777

Post 19-Feb-2020 10:35

[Quote]

Тело Христово / Boze Cialo- Год выпуска: 2019
Страна: Польша
Жанр: драма
Продолжительность: 01:54:59
Перевод: Профессиональный(дублированный) iTunes
Субтитры: Русские полные (отдельно)- -Режиссер: Ян Комаса-В ролях: Бартош Беленя, Александра Конечна, Элиза Рыцембель, Томаш Зетэк, Барбара Кужай, Лешек Лихота, Здзисвав Вардейн, Лукаш Симлат, Анна Берначик, Лидия Богач-Описание: 20-летний Даниэль, переживший в заключении духовное перерождение, мечтает посвятить себя служению богу, однако судимость за плечами этому препятствует. Воспользовавшись случаем, он выдает себя за выпускника семинарии и занимает место заболевшего пастора в приходе небольшого провинциального городка. Зачастую импровизируя и замещая недостаток знаний в литургии искренностью и неподдельной страстью, он невольно становится центром притяжения и умиротворения для местной паствы, расколотой и разобщенной вследствие недавней трагедии. Но ни одно доброе дело не остается безнаказанным.-Качество: BDRip
Формат: AVI
Видео кодек: XviD
Аудио кодек: AC3
Видео: 720x304 (2.37:1), 24 fps, XviD build 73 ~1410 kbps avg, 0.27 bit/pixel
Аудио: 48 kHz, AC3 Dolby Digital, 3/2 (L,C,R,l,r) + LFE ch, ~384 kbps avg-

Скриншоты

       

Theseus

Post 18-Feb-2020 14:38

[Quote]

Джуманджи: Новый уровень / Jumanji: The Next Level- Год выхода: 2019
Страна: США
Жанр: фэнтези, боевик, комедия, приключения
Продолжительность: 02:03:11
Перевод Дублированный [Звук с онлайн-кинотеатра]
Субтитры: Корейские (hardsub)-Режиссер: Джейк Кэздан-В ролях: Дуэйн Джонсон, Джек Блэк, Кевин Харт, Карен Гиллан, Ник Джонас, Аквафина, Риз Дэрби, Дэнни ДеВито, Дэнни Гловер, Морган Тернер-О фильме: Чтобы спасти одного из приятелей, остальным приходится вернуться в игру. К их удивлению, правила Джуманджи изменились, и все идет наперекосяк. Чтобы выжить друзьям предстоит отправиться в путешествие по самым неизведанным и таинственным уголкам игры — от засушливой пустыни до заснеженных гор- -Качество: WEBRip
Формат: AVI
Видео кодек: XviD
Аудио кодек: AC3
Видео: 720x304 (2.37:1), 23.976 fps, XviD build 67 ~1491 kbps
Аудио: 48 kHz, AC3 Dolby Digital, 2/0 (L,R) ch, ~192 kbps-Рекламы нет | Сэмпл-

Трейлер

-    -

RazBoyNik

Post 18-Feb-2020 14:10

[Quote]

Призрак / Ghost (2019) WEBRip [H.264/1080p-LQ]- Год: 2019
Производство: Индия, США / Bombay Walla Films, Loneranger Productions
Жанр: ужасы, триллер
Режиссер: Викрам Бхатт
Продюсер: Mehboob Ansari, Джейсон Эш, Сурабхи Бхатнагар
Актеры: Санайя Ирани, Шивам Бхаргава, Викрам Бхатт, Амит Чана, Ananya Sen Gupta, Caroline Wilde, Мониша Хасен, Маной Ананд, Радж Авасти, Aidan Barry
Описание:
Молодой член парламента Каран обвиняется в убийстве своей жены. Его берется защищать перспективный адвокат Симран.

Дата мировой премьеры: 18 октября 2019
Продолжительность: 02:00:42
Качество видео: WEBRip
Перевод: Двухголосый профессиональный (Honey&Haseena)
Субтитры: Русские (хардсаб, на песни)
Видео: AVC/H.264, 1920x804, ~3537 Kbps
Аудио: AC3, 2 ch, 192 Kbps - Русский (DVO)

MediaInfo:

General
Unique ID : 251752077759298115932267369645420907824 (0xBD65AFBF3D51ABA1999ACBED8EF90D30)
Complete name : H:\Фильмы\Prizrak.1080p.WEB-DLRip.MPEG-AVC.2019.Honey&Haseena.mkv
Format : Matroska
Format version : Version 4
File size : 3.15 GiB
Duration : 2 h 0 min
Overall bit rate : 3 731 kb/s
Movie name : Ghost 2019 Hindi 1080p WEBRip x264 AAC ESubs - LOKiHD - Telly
Encoded date : UTC 2020-02-13 05:03:30
Writing application : mkvmerge v8.3.0 ('Over the Horizon') 32bit
Writing library : libebml v1.3.1 + libmatroska v1.4.2 / Lavf58.12.100
Video
ID : 1
Format : AVC
Format/Info : Advanced Video Codec
Format profile : Main@L4
Format settings : CABAC / 3 Ref Frames
Format settings, CABAC : Yes
Format settings, Reference : 3 frames
Format settings, GOP : M=1, N=25
Codec ID : V_MPEG4/ISO/AVC
Duration : 2 h 0 min
Bit rate : 3 537 kb/s
Width : 1 920 pixels
Height : 804 pixels
Display aspect ratio : 2.40:1
Frame rate mode : Constant
Frame rate : 25.000 FPS
Color space : YUV
Chroma subsampling : 4:2:0
Bit depth : 8 bits
Scan type : Progressive
Bits/(Pixel*Frame) : 0.092
Stream size : 2.98 GiB (95%)
Title : LOKiHD@Telly
Language : Hindi
Default : Yes
Forced : No
Audio
ID : 2
Format : AC-3
Format/Info : Audio Coding 3
Commercial name : Dolby Digital
Codec ID : A_AC3
Duration : 2 h 0 min
Bit rate mode : Constant
Bit rate : 192 kb/s
Channel(s) : 2 channels
Channel layout : L R
Sampling rate : 48.0 kHz
Frame rate : 31.250 FPS (1536 SPF)
Compression mode : Lossy
Stream size : 166 MiB (5%)
Service kind : Complete Main
Default : Yes
Forced : No
Скриншоты:
       

RazBoyNik

Post 18-Feb-2020 14:06

[Quote]

Холодная игра / The Coldest Game (2019) WEB-DLRip [H.265] [10-bit] - Год: 2019
Производство: Польша / Watchout Studio, TVN, Next Film
Жанр: Триллер
Режиссер: Лукаш Космицкий
Актеры: Билл Пуллман, Лотта Вербек, Джеймс Блур, Роберт Венцкевич, Алексей Серебряков, Кори Джонсон, Николас Фэррел, Евгений Сидихин, Цезари Косиньски, Александр Лобанов
Описание:
Играя крупный шахматный матч в Варшаве против русского чемпиона, блестящий, но позабытый бывший чемпион США, ныне алкоголик, Джош Мански оказывается втянут в мир шпионажа и конфликта между мировыми сверхдержавами. По мере эскалации Карибского кризиса шахматный матч приобретает невообразимое значение. Американцы рискуют проиграть обе партии - и в шахматы, и борьбу за мировое господство.

Дата мировой премьеры: 18 сентября 2019
Продолжительность: 01:43:06
Качество видео: WEB-DLRip
Перевод: Любительский двухголосый (LakeFilms)
Субтитры: Русские, английские, французские, немецкие
Видео: HEVC/H.265, 1024x428, 1868 Kbps
Аудио 1: AC3, 2 ch, 160 Kbps | Русский
Аудио 2: AC3, 2 ch, 160 Kbps | Английский

MediaInfo:

Общее
Уникальный идентификатор : 187234873107136835694933796093931837180 (0x8CDC1FF7CFD1DB18CCB2CD61446C56FC)
Полное имя : The Coldest Game (2019) WEB-DLRip (1024x428) HEVC.mkv
Формат : Matroska
Версия формата : Version 4 / Version 2
Размер файла : 1,61 Гбайт
Продолжительность : 1 ч. 43 м.
Общий поток : 2233 Кбит/сек
Программа кодирования : XviD4PSP 8.0.91
Библиотека кодирования : Lavf58.20.100
ErrorDetectionType : Per level 1
ENCODING_INFO : MATROSKA,WEBM > MKV 1024x576 HEVC 10-bit
Видео
Идентификатор : 1
Формат : HEVC
Формат/Информация : High Efficiency Video Coding
Профиль формата : Main [url=mailto:10@L4.1]10@L4.1[/url]@High
Идентификатор кодека : V_MPEGH/ISO/HEVC
Продолжительность : 1 ч. 43 м.
Битрейт : 1868 Кбит/сек
Ширина : 1024 пикселя
Высота : 428 пикселей
Соотношение сторон : 2,40:1
Режим частоты кадров : Постоянный
Частота кадров : 24,000 кадра/сек
Цветовое пространство : YUV
Субдискретизация насыщенности : 4:2:0
Битовая глубина : 10 бит
Бит/(Пиксели*Кадры) : 0.178
Размер потока : 1,35 Гбайт (84%)
Язык : English
Default : Да
Forced : Нет
Цветовой диапазон : Full
ENCODING_INFO : H264 > HEVC NVENC VBR 2000kbps HQ
Аудио #1
Идентификатор : 2
Формат : AC-3
Формат/Информация : Audio Coding 3
Параметр Endianness формата : Big
Идентификатор кодека : A_AC3
Продолжительность : 1 ч. 43 м.
Вид битрейта : Постоянный
Битрейт : 160 Кбит/сек
Каналы : 2 канала
Расположение каналов : Front: L R
Частота : 48,0 КГц
Частота кадров : 31,250 кадров/сек (1536 SPF)
Битовая глубина : 16 бит
Метод сжатия : С потерями
Размер потока : 118 Мбайт (7%)
Заголовок : DVO LakeFilms
Язык : Russian
ServiceKind/String : Complete Main
Default : Да
Forced : Нет
ENCODING_INFO : AC3 > AC3 CBR 160kbps
Аудио #2
Идентификатор : 3
Формат : AC-3
Формат/Информация : Audio Coding 3
Параметр Endianness формата : Big
Идентификатор кодека : A_AC3
Продолжительность : 1 ч. 43 м.
Вид битрейта : Постоянный
Битрейт : 160 Кбит/сек
Каналы : 6 каналов
Расположение каналов : Front: L C R, Side: L R, LFE
Частота : 48,0 КГц
Частота кадров : 31,250 кадров/сек (1536 SPF)
Битовая глубина : 16 бит
Метод сжатия : С потерями
Размер потока : 118 Мбайт (7%)
Язык : English
ServiceKind/String : Complete Main
Default : Нет
Forced : Нет
ENCODING_INFO : EAC3 > AC3 CBR 160kbps
Текст #1
Идентификатор : 4
Формат : UTF-8
Идентификатор кодека : S_TEXT/UTF8
Идентификатор кодека/Информация : UTF-8 Plain Text
Язык : Russian
Default : Да
Forced : Нет
ENCODING_INFO : SUBRIP > COPY Быстрое
Текст #2
Идентификатор : 5
Формат : UTF-8
Идентификатор кодека : S_TEXT/UTF8
Идентификатор кодека/Информация : UTF-8 Plain Text
Язык : English
Default : Нет
Forced : Нет
ENCODING_INFO : SUBRIP > COPY Быстрое
Текст #3
Идентификатор : 6
Формат : UTF-8
Идентификатор кодека : S_TEXT/UTF8
Идентификатор кодека/Информация : UTF-8 Plain Text
Язык : French
Default : Нет
Forced : Нет
ENCODING_INFO : SUBRIP > COPY Быстрое
Текст #4
Идентификатор : 7
Формат : UTF-8
Идентификатор кодека : S_TEXT/UTF8
Идентификатор кодека/Информация : UTF-8 Plain Text
Язык : German
Default : Нет
Forced : Нет
ENCODING_INFO : SUBRIP > COPY Быстрое
Скриншоты:
       

RazBoyNik

Post 18-Feb-2020 13:28

[Quote]

Вихрь / Ting er zou xian / Vortex (2019) WEB-DLRip [VO]- Год: 2019
Производство: Китай, Hei Ma Yi (Shanghai) Pictures, Hehe (Shanghai) Pictures, Shannan Enlight Pictures
Жанр: Драма, криминал, триллер
Режиссер: Джеки Гань
Продюсер: Цао Баопин
Актеры: Да Пэн, Охо Оу, Ли Мэн, Цао Бинкунь, Ша Баолян, Цао Вэйюй, Одри До, Чжан Нинцзян, Ся Энь, Ли Шэнъе
Описание:
Однажды простому автомеханику подворачивается случай заработать — друг просит его помочь украсть незарегистрированный автомобиль и перепродать его. Однако эта небольшая афера усложняется, когда они находят маленькую девочку в багажнике машины.

Продолжительность: 01:43:08
Качество видео: WEB-DLRip
Перевод: Одноголосый любительский (Franek Monk)
Субтитры: Английские, китайские - hardsub (неотключаемые)
Видео: Xvid, 720x384, ~1635 kbps
Аудио 1: AC3, 2 ch, 192 Кbps | Русский (VO Franek Monk)
Аудио 2: AC3, 2 ch, 192 Кbps | Китайский

MediaInfo:

Vodovorot.2019.WEB-DLRip.avi
Формат : AVI
Формат/Информация : Audio Video Interleave
Размер файла : 1,46 Гбайт
Продолжительность : 1 ч. 43 м.
Общий поток : 2033 Кбит/сек
Название фильма : Вихрт / Ting er zou xian / Vortex (2019) WEB-DLRip
Режиссёр : Джеки Гань / Jacky Gan
Жанр : Драма, криминал, триллер
Программа кодирования : VirtualDubMod 1.5.10.2 (build 2542/release)
Формат оригинала/Имя : Художественный фильм
Авторское право : Китай, Hei Ma Yi (Shanghai) Pictures, Hehe (Shanghai) Pictures, Shannan Enlight Pictures
Примечание : Rip by vitolinform
Видео
Идентификатор : 0
Формат : MPEG-4 Visual
Профиль формата : Advanced Simple@L5
Настройки формата : BVOP2
Параметр BVOP формата : 2
Параметр QPel формата : Нет
Параметр GMC формата : Без точки перехода
Параметр матрицы формата : Default (MPEG)
Идентификатор кодека : XVID
Идентификатор кодека/Подсказка : XviD
Продолжительность : 1 ч. 43 м.
Битрейт : 1635 Кбит/сек
Ширина : 720 пикселей
Высота : 384 пикселя
Соотношение сторон : 1,85:1
Частота кадров : 24,000 кадра/сек
Цветовое пространство : YUV
Субдискретизация насыщенности : 4:2:0
Битовая глубина : 8 бит
Тип развёртки : Прогрессивная
Метод сжатия : С потерями
Бит/(Пиксели*Кадры) : 0.246
Размер потока : 1,18 Гбайт (80%)
Библиотека кодирования : XviD 67
Аудио #1
Идентификатор : 1
Формат : AC-3
Формат/Информация : Audio Coding 3
Коммерческое название : Dolby Digital
Идентификатор кодека : 2000
Продолжительность : 1 ч. 43 м.
Вид битрейта : Постоянный
Битрейт : 192 Кбит/сек
Каналы : 2 канала
ChannelLayout : L R
Частота : 48,0 КГц
Частота кадров : 31,250 кадров/сек (1536 SPF)
Битовая глубина : 16 бит
Метод сжатия : С потерями
Размер потока : 142 Мбайт (9%)
Выравнивание : Разделение по промежуткам
Продолжительность промежутка : 42 мс. (1,00 видеокадр)
Время предзагрузки промежутка : 500 мс.
Заголовок : Russian (VO Franek Monk)
ServiceKind/String : Complete Main
Аудио #2
Идентификатор : 2
Формат : AC-3
Формат/Информация : Audio Coding 3
Коммерческое название : Dolby Digital
Идентификатор кодека : 2000
Продолжительность : 1 ч. 43 м.
Вид битрейта : Постоянный
Битрейт : 192 Кбит/сек
Каналы : 2 канала
ChannelLayout : L R
Частота : 48,0 КГц
Частота кадров : 31,250 кадров/сек (1536 SPF)
Битовая глубина : 16 бит
Метод сжатия : С потерями
Размер потока : 142 Мбайт (9%)
Выравнивание : Разделение по промежуткам
Продолжительность промежутка : 42 мс. (1,00 видеокадр)
Время предзагрузки промежутка : 500 мс.
Заголовок : Chinese
ServiceKind/String : Complete Main
Скриншоты:
       

kilmister777

Post 18-Feb-2020 07:59

[Quote]

Старые счеты / A Score to Settle- Год выпуска: 2019
Страна: США, Канада
Жанр: боевик, триллер, драма
Продолжительность: 01:43:43
Перевод: Профессиональный(дублированный) iTunes- -Режиссер: Шоун Ку-В ролях: Николас Кейдж, Бенджамин Брэтт, Ноа Ле Грос, Мохамед Карим, Каролина Выдра, Иэн Трейси, Николь Муньос, Кармел Амит, Николь Дж. Лейер-Описание: Отсидев 19 лет в тюрьме за несовершенное преступление, Фрэнк выходит на свободу. Ему придется сделать выбор - наверстать упущенные годы с сыном или отомстить людям, которых он считал друзьями. Удастся ли Фрэнку начать жизнь сначала?-Качество: HDRip
Формат: AVI
Видео кодек: XviD
Аудио кодек: AC3
Видео: 720x304 (2.37:1), 24.000 fps, XviD build 73 ~1606 kbps avg, 0.30 bit/pixel
Аудио: 48 kHz, AC3 Dolby Digital, 3/2 (L,C,R,l,r) + LFE ch, ~384 kbps avg-

Скриншоты

       

kilmister777

Post 17-Feb-2020 10:02

[Quote]

Союз Спасения- Год выпуска: 2019
Страна: Россия
Жанр: история, биография, драма
Продолжительность: 02:10:40
Перевод: Не требуется- -Режиссер: Андрей Кравчук-В ролях: Леонид Бичевин, Максим Матвеев, Павел Прилучный, Иван Янковский, Антон Шагин, Александр Домогаров, Игорь Петренко, Сергей Перегудов, Виталий Кищенко, Иван Колесников-Описание: Наши войска заняли Париж. Россия стала первой державой мира. Теперь всё кажется возможным. Молодые победители, гвардейские офицеры, уверены, что равенство и свобода наступят - здесь и сейчас. Ради этого они готовы принести в жертву всё - положение, богатство, любовь, жизнь... и саму страну.-Качество: WEB-DLRip
Формат: AVI
Видео кодек: XviD
Аудио кодек: AC3
Видео: 720x304 (2.37:1), 23.976 fps, XviD build 67 ~1398 kbps avg, 0.27 bit/pixel
Аудио: 48 kHz, AC3 Dolby Digital, 2/0 (L,R) ch, ~192 kbps-

Скриншоты

       

kilmister777

Post 17-Feb-2020 09:23

[Quote]

Зеленее травы / Greener Grass- Год выпуска: 2019
Страна: США
Жанр: комедия
Продолжительность: 01:36:06
Перевод: Профессиональный (многоголосый закадровый) iTunes- -Режиссер: Жослин ДеБоэр, Доун Люббе-В ролях: Жослин ДеБоэр, Доун Люббе, Бек Беннетт, Нил Кэйси, Мэри Холлэнд, Д’Арси Карден, Джулиан Хиллиард, Яница Браво, Дот-Мари Джонс, Эшер Майлз Фаллика и др.-Описание: Две богатые домохозяйки живут беззаботной жизнью в американском пригороде. Одна из них — Джил — сначала дарит ребёнка своей подруге, а потом её сын превращается в собаку. Что дальше? А дальше ещё 99,7% абсурда.-Качество: BDRip
Формат: AVI
Видео кодек: XviD
Аудио кодек: AC3
Видео: 720x304 (2.37:1), 24.000 fps, XviD build 73 ~1773 kbps avg, 0.30 bit/pixel
Аудио: 48 kHz, AC3 Dolby Digital, 3/2 (L,C,R,l,r) + LFE ch, ~384 kbps avg-

Скриншоты

       
 

The time now is: Today 02:00

All times are GMT + 3 Hours