Today is a free download without charge Download

Search found 500 matches

Author Message

Clavik

Post 13-Oct-2019 22:22

[Quote]

Умельцы против апокалипсиса / Masters of Disaster (2019) WEB-DL [H.264/1080p-LQ] (сезон 1, серии 6 из 6) - Производство: США, Fight or Flight Studios, Discovery Science
Жанр: Документальный, реалити-шоу, эксперименты
Режиссер: Кристина Уэйд
Описание:
В наши дни мы сильно зависим от современных технологий. Мобильные телефоны, планшеты и компьютеры — высокотехнологичные гаджеты стали неотъемлемой частью нашей жизни. Но что случится с нами в случае глобальной катастрофы или наступления конца света? Что будет, если исчезнет вся техника, на которую мы так надеемся? Группа умельцев-инженеров из штата Теннеси под руководством механика Бо Бораффа не хочет бросать человечество на произвол судьбы. Эти ребята находят винтажные механизмы, восстанавливают их до полностью рабочего состояния и продают тем, кто готовится к судному дню.
Продолжительность: серии x ~00:44:00
Качество видео: WEB-DL
Перевод: Двуголосый закадровый, профессиональный
Субтитры: отсутствуют
Видео: AVC/H.264, 1920x1080, ~6400 Kbps
Аудио#1: AAC, 2 ch, 160 Kbps | Русский
Аудио#2: AAC, 2 ch, 160 Kbps | Английский

Mediainfo: (тех. данные всех серий идентичны)

Общее
Уникальный идентификатор : 235218132137992069179063615874063189797 (0xB0F55D4A48CB48F1BBA988A4FBA8C725)
Полное имя : F:\КИНО\Masters of Disaster S01\Masters.of.Disaster.S01E03.WEB-DL.1080p.Rus.Eng.mkv
Формат : Matroska
Версия формата : Version 4
Размер файла : 2,05 Гбайт
Продолжительность : 43 м. 54 с.
Общий поток : 6692 Кбит/сек
Дата кодирования : UTC 2019-09-20 16:01:15
Программа кодирования : mkvmerge v9.2.0 ('Photograph') 64bit
Библиотека кодирования : libebml v1.3.3 + libmatroska v1.4.4
Видео
Идентификатор : 1
Формат : AVC
Формат/Информация : Advanced Video Codec
Профиль формата : [url=mailto:High@L4.1]High@L4.1[/url]
Настройки формата : CABAC / 4 Ref Frames
Параметр CABAC формата : Да
Параметр RefFrames формата : 4 кадра
Идентификатор кодека : V_MPEG4/ISO/AVC
Продолжительность : 43 м. 54 с.
Битрейт : 6400 Кбит/сек
Ширина : 1920 пикселей
Высота : 1080 пикселей
Соотношение сторон : 16:9
Режим частоты кадров : Постоянный
Частота кадров : 25,000 кадров/сек
Цветовое пространство : YUV
Субдискретизация насыщенности : 4:2:0
Битовая глубина : 8 бит
Тип развёртки : Прогрессивная
Бит/(Пиксели*Кадры) : 0.123
Размер потока : 1,95 Гбайт (95%)
Библиотека кодирования : x264 core 157
Настройки программы : cabac=1 / ref=3 / deblock=1:0:0 / analyse=0x3:0x133 / me=hex / subme=9 / psy=1 / psy_rd=1.00:0.00 / mixed_ref=1 / me_range=16 / chroma_me=1 / trellis=2 / 8x8dct=1 / cqm=0 / deadzone=21,11 / fast_pskip=1 / chroma_qp_offset=-2 / threads=34 / lookahead_threads=2 / sliced_threads=0 / nr=0 / decimate=1 / interlaced=0 / bluray_compat=0 / constrained_intra=0 / bframes=3 / b_pyramid=2 / b_adapt=2 / b_bias=0 / direct=3 / weightb=1 / open_gop=0 / weightp=2 / keyint=50 / keyint_min=26 / scenecut=0 / intra_refresh=0 / rc_lookahead=60 / rc=cbr / mbtree=1 / bitrate=6400 / ratetol=1.0 / qcomp=0.60 / qpmin=0 / qpmax=69 / qpstep=4 / vbv_maxrate=6400 / vbv_bufsize=32000 / nal_hrd=none / filler=0 / ip_ratio=1.40 / aq=1:1.00
Язык : English
Default : Да
Forced : Нет
Аудио #1
Идентификатор : 2
Формат : AAC LC
Формат/Информация : Advanced Audio Codec Low Complexity
Идентификатор кодека : A_AAC-2
Продолжительность : 43 м. 54 с.
Битрейт : 160 Кбит/сек
Каналы : 2 канала
ChannelLayout : L R
Частота : 48,0 КГц
Частота кадров : 46,875 кадров/сек (1024 SPF)
Метод сжатия : С потерями
Размер потока : 50,2 Мбайт (2%)
Язык : Russian
Default : Да
Forced : Нет
Аудио #2
Идентификатор : 3
Формат : AAC LC
Формат/Информация : Advanced Audio Codec Low Complexity
Идентификатор кодека : A_AAC-2
Продолжительность : 43 м. 54 с.
Битрейт : 160 Кбит/сек
Каналы : 2 канала
ChannelLayout : L R
Частота : 48,0 КГц
Частота кадров : 46,875 кадров/сек (1024 SPF)
Метод сжатия : С потерями
Размер потока : 50,2 Мбайт (2%)
Язык : English
Default : Нет
Forced : Нет
Скриншоты:
       

Дополнительные скриншоты:

       

Clavik

Post 21-Sep-2019 16:52

[Quote]

Дикие эксперименты Адама Сэвиджа / Savage Builds (2019) HDTVRip [H.264/1080p-LQ] (Сезон 1, серии 8 из 8) - Производство: США, Discovery, Whalerock Industries, Savage Industries, Science Channel
Жанр: Документальный, реалити-шоу, эксперименты
Режиссер: Ивет Солис
Участники: Адам Сэвэдж, Джон Маркус, Маркос Рамирес, Джен Шехтер, Сальваторе Белечи, Крейг Брайс, Питер Джексон, Кристи Джилли-Рехак, Лаура Кампф, Гэри Олдман
Описание:
Легендарный изобретатель, конструктор и мастер на все руки Адам Сэвидж решил исполнить свои самые смелые мечты, а точнее, задуманные им невероятные проекты. При этом Адам обращается за помощью и вдохновением к своим героям — изобретателям и нестандартно мыслящим новаторам науки и техники, с которыми он очень хотел поработать. Вместе они создают инновационные предметы из мира поп-культуры, вселенной супергероев, городских легенд и мифов. Обладая даром заряжать окружающих своей бешеной энергетикой, Адам гарантирует, что увлечет своими инженерными проектами всех зрителей без исключения.

Продолжительность: серии x ~00:44:00
Качество видео: WEB-DL
Перевод: Двуголосый закадровый, профессиональный
Субтитры: отсутствуют
Видео: AVC/H.264, 1920x1080, ~6400 Kbps
Аудио:#1 AAC, 2 ch, 160 Kbps
Аудио:#2 AAC, 2 ch, 160 Kbps

Mediainfo: (тех. данные всех серий идентичны)

Общее
Уникальный идентификатор : 215632419320749271177612743154154352909 (0xA2394B18017CB3B0B548CA3D2E70310D)
Полное имя : F:\КИНО\Savage Builds S01\Savage.Builds.S01E03.Mad.Max.Melee.1080p.mkv
Формат : Matroska
Версия формата : Version 4
Размер файла : 2,06 Гбайт
Продолжительность : 44 м. 3 с.
Общий поток : 6711 Кбит/сек
Дата кодирования : UTC 2019-08-16 08:05:08
Программа кодирования : mkvmerge v9.2.0 ('Photograph') 64bit
Библиотека кодирования : libebml v1.3.3 + libmatroska v1.4.4
Видео
Идентификатор : 1
Формат : AVC
Формат/Информация : Advanced Video Codec
Профиль формата : [url=mailto:High@L4.1]High@L4.1[/url]
Настройки формата : CABAC / 4 Ref Frames
Параметр CABAC формата : Да
Параметр RefFrames формата : 4 кадра
Идентификатор кодека : V_MPEG4/ISO/AVC
Продолжительность : 44 м. 3 с.
Битрейт : 6400 Кбит/сек
Ширина : 1920 пикселей
Высота : 1080 пикселей
Соотношение сторон : 16:9
Режим частоты кадров : Постоянный
Частота кадров : 25,000 кадров/сек
Цветовое пространство : YUV
Субдискретизация насыщенности : 4:2:0
Битовая глубина : 8 бит
Тип развёртки : Прогрессивная
Бит/(Пиксели*Кадры) : 0.123
Размер потока : 1,97 Гбайт (95%)
Библиотека кодирования : x264 core 157
Настройки программы : cabac=1 / ref=3 / deblock=1:0:0 / analyse=0x3:0x133 / me=hex / subme=9 / psy=1 / psy_rd=1.00:0.00 / mixed_ref=1 / me_range=16 / chroma_me=1 / trellis=2 / 8x8dct=1 / cqm=0 / deadzone=21,11 / fast_pskip=1 / chroma_qp_offset=-2 / threads=34 / lookahead_threads=2 / sliced_threads=0 / nr=0 / decimate=1 / interlaced=0 / bluray_compat=0 / constrained_intra=0 / bframes=3 / b_pyramid=2 / b_adapt=2 / b_bias=0 / direct=3 / weightb=1 / open_gop=0 / weightp=2 / keyint=50 / keyint_min=26 / scenecut=0 / intra_refresh=0 / rc_lookahead=60 / rc=cbr / mbtree=1 / bitrate=6400 / ratetol=1.0 / qcomp=0.60 / qpmin=0 / qpmax=69 / qpstep=4 / vbv_maxrate=6400 / vbv_bufsize=32000 / nal_hrd=none / filler=0 / ip_ratio=1.40 / aq=1:1.00
Язык : English
Default : Да
Forced : Нет
Аудио #1
Идентификатор : 2
Формат : AAC LC
Формат/Информация : Advanced Audio Codec Low Complexity
Идентификатор кодека : A_AAC-2
Продолжительность : 44 м. 3 с.
Битрейт : 160 Кбит/сек
Каналы : 2 канала
ChannelLayout : L R
Частота : 48,0 КГц
Частота кадров : 46,875 кадров/сек (1024 SPF)
Метод сжатия : С потерями
Размер потока : 50,4 Мбайт (2%)
Язык : Russian
Default : Да
Forced : Нет
Аудио #2
Идентификатор : 3
Формат : AAC LC
Формат/Информация : Advanced Audio Codec Low Complexity
Идентификатор кодека : A_AAC-2
Продолжительность : 44 м. 3 с.
Битрейт : 160 Кбит/сек
Каналы : 2 канала
ChannelLayout : L R
Частота : 48,0 КГц
Частота кадров : 46,875 кадров/сек (1024 SPF)
Метод сжатия : С потерями
Размер потока : 50,4 Мбайт (2%)
Язык : English
Default : Нет
Forced : Нет

Содержание:

01. Building Iron Man / Железный человек
Специалист по спецэффектам Адам Сэвидж создаёт костюм Железного человека из титана. Он должен быть пуленепробиваемым и взрывоустойчивым, а также уметь летать.
02. Wheel Of Death / Колесо смерти
Адам и инженер НАСА создают экспериментальное супероружие с ракетными двигателями, которое могло бы изменить ход Второй мировой войны.
03. Mad Max Melee / Безумный Макс
Адам и его коллеги создают несколько автомобилей из мусора, как в фильме Безумный Макс, чтобы узнать, чей моторизованный монстр получится самым ужасным.
04. Forging Excalibur / Экскалибур
Адам и мастер по изготовлению мечей выковывают из железного метеорита легендарный Экскалибур, меч короля Артура.
05. Nitro Explode-Aganza / Нитроглицерин
Адам и эксперт по сносу зданий проводят серию смелых экспериментов с нитроглицерином, одним из самых взрывоопасных веществ в мире.
06 Hollywood's Deadliest Weapon / Самое опасное оружие Голливуда
Адам вместе с актером Гэри Олдменом соорудит поистине смертоносное оружие — многофункциональный штурмовой автомат ZF-1 из фантастического фильма «Пятый элемент».
07 Mega Food Fight / Смертоносные хот-доги
Адам и его приятель Тори Белечи из программы «Разрушители легенд» соорудят скорострельное оружие, превращающее обычные хот-доги в разрушительные снаряды.
08 Dogfight Derby / Воздушный бой
Адам вместе с режиссером кинотрилогии «Властелин колец» Питером Джексоном воссоздаст воздушный бой истребителей времен Первой мировой войны.
Скриншоты:
       

Clavik

Post 12-Sep-2019 12:59

[Quote]

Жизнь отвратительных животных / Nasty by Nature (2008) HDTV [H.264/1080i] - Производство: США, Pangolin Pictures, Discovery Channel
Жанр: Документальный, природа, флора, фауна
Режиссер: Джоэль Аллен, Кевин Бачар
Описание:
Некоторые животные в борьбе за выживание используют секретное оружие - слизь и экскременты. То, что им помогает, вызывает отвращение у нас. Почему природа создала их такими? В поисках ответов ученые не остановятся ни перед чем и пройдут любые препятствия. Зловонные существа, кровопийцы и падальщики, таков способ их выживания. Так устроена жизнь отвратительных животных. Добро пожаловать в мир паразитов, слизи, рвоты, гниения, падали и экскрементов.
Возраст: 16+ (рекомендован зрителям достигшим 16 лет)
Релиз от: CLIPMAN
Продолжительность: 00:43:34
Качество видео: HDTV
Перевод: Одноголосый закадровый, профессиональный (Первый ТВЧ)
Субтитры: отсутствуют
Видео: AVC/H.264, 1920x1080, ~12,5 Mbps
Аудио: AC3, 2 ch, 448 Kbps

Mediainfo:

Общее
Идентификатор : 1 (0x1)
Полное имя : F:\КИНО\Жизнь отвратительных животных_HDTV_by_CLIPMAN.ts
Формат : MPEG-TS
Размер файла : 4,16 Гбайт
Продолжительность : 43 м. 34 с.
Режим общего битрейта : Переменный
Общий поток : 13,7 Мбит/сек
Видео
Идентификатор : 3011 (0xBC3)
Идентификатор меню : 1 (0x1)
Формат : AVC
Формат/Информация : Advanced Video Codec
Профиль формата : Main@L4
Настройки формата : CABAC / 3 Ref Frames
Параметр CABAC формата : Да
Параметр RefFrames формата : 3 кадра
Идентификатор кодека : 27
Продолжительность : 43 м. 34 с.
Битрейт : 12,5 Мбит/сек
Ширина : 1920 пикселей
Высота : 1080 пикселей
Соотношение сторон : 16:9
Частота кадров : 25,000 кадров/сек
Стандарт вещания : Component
Цветовое пространство : YUV
Субдискретизация насыщенности : 4:2:0
Битовая глубина : 8 бит
Тип развёртки : Чересстрочная
Метод сохранения типа развёртки : Раздельные поля
Порядок развёртки : Верхнее поле первое
Бит/(Пиксели*Кадры) : 0.242
Размер потока : 3,82 Гбайт (92%)
Цветовой диапазон : Limited
Основные цвета : BT.709
Характеристики трансфера : BT.709
Коэффициенты матрицы : BT.709
Аудио
Идентификатор : 3013 (0xBC5)
Идентификатор меню : 1 (0x1)
Формат : AC-3
Формат/Информация : Audio Coding 3
Коммерческое название : Dolby Digital
Идентификатор кодека : 6
Продолжительность : 43 м. 34 с.
Вид битрейта : Постоянный
Битрейт : 448 Кбит/сек
Каналы : 2 канала
ChannelLayout : L R
Частота : 48,0 КГц
Частота кадров : 31,250 кадров/сек (1536 SPF)
Метод сжатия : С потерями
Задержка видео : -40 мс.
Размер потока : 140 Мбайт (3%)
Язык : Russian
ServiceKind/String : Complete Main
Скриншоты:
       

RazBoyNik

Post 05-Jul-2019 13:56

[Quote]

Почему пал Древний Египет? / Why Ancient Egypt Fell (2008) HDTV [H.264/1080i] - Год выпуска: 2008
Страна: Великобритания, IWC Media Productions
Жанр: Документальный, история, исследования
Режиссер: Габриэлла Поллетта
Описание:
Более 4000 лет назад древнее царство Египта было величайшей цивилизацией на Земле. Фараоны правили процветающей империей, а колоссальные пирамиды господствовали над линией горизонта. Но на вершине своей мощи эта могучая империя пала, оставив после себя одну из величайших загадок древнего мира. Как это случилось и почему? Согласно новой теории, выдвинутой учеными, причиной упадка египетской империи могло быть глобальное потепление...
Продолжительность: 00:42:00
Качество видео: HDTV
Перевод: Одноголосый закадровый, профессиональный
Субтитры: отсутствуют
Видео: AVC/H.264, 1920x1080, ~12,1 Mbps
Аудио#1: AC3, 2 ch, 192 Kbps | Русский
Аудио#2: AC3, 6 ch, 384 Kbps | Английский

Mediainfo:

Общее
Идентификатор : 1 (0x1)
Полное имя : F:\КИНО\Why.Ancient.Egypt.Fell.(2008).1080i.HDTV.Rus.Eng_HDClub.ts
Формат : MPEG-TS
Размер файла : 3,92 Гбайт
Продолжительность : 42 м. 0 с.
Режим общего битрейта : Переменный
Общий поток : 13,3 Мбит/сек
Максимальный общий битрейт : 35,5 Мбит/сек
Видео
Идентификатор : 4113 (0x1011)
Идентификатор меню : 1 (0x1)
Формат : MPEG Video
Версия формата : Version 2
Профиль формата : Main@High
Настройки формата : CustomMatrix / BVOP
Параметр BVOP формата : Да
Параметр матрицы формата : Выборочная
Параметр GOP формата : Variable
Структура изображения : Frame
Идентификатор кодека : 2
Продолжительность : 42 м. 0 с.
Вид битрейта : Переменный
Битрейт : 12,1 Мбит/сек
Максимальный битрейт : 18,0 Мбит/сек
Ширина : 1920 пикселей
Высота : 1080 пикселей
Соотношение сторон : 16:9
Частота кадров : 29,970 (30000/1001) кадров/сек
Стандарт вещания : Component
Цветовое пространство : YUV
Субдискретизация насыщенности : 4:2:0
Битовая глубина : 8 бит
Тип развёртки : Чересстрочная
Порядок развёртки : Верхнее поле первое
Метод сжатия : С потерями
Бит/(Пиксели*Кадры) : 0.195
Временной код первого кадра : 00:00:00;00
Оригинал временного кода : Group of pictures header
GOP, открыто/закрыто : Открыто
GOP, открыто/закрыто на первом кадре : Закрыто
Размер потока : 3,55 Гбайт (91%)
Основные цвета : BT.709
Характеристики трансфера : BT.709
Коэффициенты матрицы : BT.709
Аудио #1
Идентификатор : 4352 (0x1100)
Идентификатор меню : 1 (0x1)
Формат : AC-3
Формат/Информация : Audio Coding 3
Коммерческое название : Dolby Digital
Идентификатор кодека : 129
Продолжительность : 42 м. 0 с.
Вид битрейта : Постоянный
Битрейт : 192 Кбит/сек
Каналы : 2 канала
ChannelLayout : L R
Частота : 48,0 КГц
Частота кадров : 31,250 кадров/сек (1536 SPF)
Битовая глубина : 16 бит
Метод сжатия : С потерями
Размер потока : 57,7 Мбайт (1%)
Язык : Russian
ServiceKind/String : Complete Main
Аудио #2
Идентификатор : 4353 (0x1101)
Идентификатор меню : 1 (0x1)
Формат : AC-3
Формат/Информация : Audio Coding 3
Коммерческое название : Dolby Digital
Идентификатор кодека : 129
Продолжительность : 42 м. 0 с.
Вид битрейта : Постоянный
Битрейт : 384 Кбит/сек
Каналы : 6 каналов
ChannelLayout : L R C LFE Ls Rs
Частота : 48,0 КГц
Частота кадров : 31,250 кадров/сек (1536 SPF)
Битовая глубина : 16 бит
Метод сжатия : С потерями
Размер потока : 115 Мбайт (3%)
Язык : English
ServiceKind/String : Complete Main
Текст #1
Идентификатор : 4113 (0x1011)-CC1
Идентификатор меню : 1 (0x1)
Формат : EIA-608
Режим смешивания : A/53 / DTVCC Transport
Режим смешивания, доп. информация : Muxed in Video #1
Продолжительность : 42 м. 0 с.
Вид битрейта : Постоянный
Размер потока : 0,00 байт (0%)
CaptionServiceName : CC1
Текст #2
Идентификатор : 4113 (0x1011)-1
Идентификатор меню : 1 (0x1)
Формат : EIA-708
Режим смешивания : A/53 / DTVCC Transport
Режим смешивания, доп. информация : Muxed in Video #1
Продолжительность : 42 м. 0 с.
Вид битрейта : Постоянный
Размер потока : 0,00 байт (0%)
Скриншоты:
       

RazBoyNik

Post 05-Jul-2019 13:40

[Quote]

Пятьдесят самых зрелищных схваток с акулами / Shark Week 50 Best Bites (2018) HDTV [H.264/1080i-LQ] - Год выпуска: 2018
Страна: США, All3 Media, Main Event Media for Discovery Channel
Жанр: Документальный, природа, фауна
Режиссер: Джимми Фокс
Участники: Крис Кук, Марк Аддисон, Джули Андерсен
Описание:
Миллионы людей каждый год устремляются в отпуск на побережье, но некоторым несчастным он может стоить жизни.
Спецвыпуск с участием знаменитостей, посвященный 30-летию Недели акул. Вас ждут потрясающие подводные съемки, жуткие кадры нападений подводных хищников и столкновений с ними.
Продолжительность: 01:26:05
Качество видео: HDTV
Перевод: Одноголосый закадровый, профессиональный (Мобильное Телевидение)
Субтитры: отсутствуют
Видео: AVC/H.264, 1920x1080, ~7458 Kbps, 50fps
Аудио#1: AC3, 6 ch, 384 Kbps | Русский (читает: Серей Казаков)
Аудио#2: AC3, 6 ch, 384 Kbps | Английский

Mediainfo:

Общее
Уникальный идентификатор : 190331772792894013570912573362561351800 (0x8F3090E93E59C1D52439582F63BC0078)
Полное имя : F:\КИНО\Пятьдесят самых зрелищных схваток с акулами - Shark week 50 best bites.mkv
Формат : Matroska
Версия формата : Version 4
Размер файла : 4,95 Гбайт
Продолжительность : 1 ч. 26 м.
Общий поток : 8230 Кбит/сек
Дата кодирования : UTC 2018-07-26 13:30:35
Программа кодирования : mkvmerge v21.0.0 ('Tardigrades Will Inherit The Earth') 64-bit
Библиотека кодирования : libebml v1.3.5 + libmatroska v1.4.8
Видео
Идентификатор : 1
Формат : AVC
Формат/Информация : Advanced Video Codec
Профиль формата : High@L4
Настройки формата : CABAC / 4 Ref Frames
Параметр CABAC формата : Да
Параметр RefFrames формата : 4 кадра
Идентификатор кодека : V_MPEG4/ISO/AVC
Продолжительность : 1 ч. 26 м.
Битрейт : 7458 Кбит/сек
Ширина : 1920 пикселей
Высота : 1080 пикселей
Соотношение сторон : 16:9
Режим частоты кадров : Переменный
Частота кадров : 50,000 кадров/сек
Частота кадров в оригинале : 25,000 кадров/сек
Стандарт вещания : Component
Цветовое пространство : YUV
Субдискретизация насыщенности : 4:2:0
Битовая глубина : 8 бит
Тип развёртки : Чересстрочная
Метод сохранения типа развёртки : Раздельные поля
Порядок развёртки : Верхнее поле первое
Бит/(Пиксели*Кадры) : 0.072
Размер потока : 4,48 Гбайт (91%)
Default : Да
Forced : Нет
Цветовой диапазон : Limited
Основные цвета : BT.709
Характеристики трансфера : BT.709
Коэффициенты матрицы : BT.709
Аудио #1
Идентификатор : 2
Формат : AC-3
Формат/Информация : Audio Coding 3
Коммерческое название : Dolby Digital
Идентификатор кодека : A_AC3
Продолжительность : 1 ч. 26 м.
Вид битрейта : Постоянный
Битрейт : 384 Кбит/сек
Каналы : 6 каналов
ChannelLayout : L R C LFE Ls Rs
Частота : 48,0 КГц
Частота кадров : 31,250 кадров/сек (1536 SPF)
Битовая глубина : 16 бит
Метод сжатия : С потерями
Размер потока : 236 Мбайт (5%)
Заголовок : Russian
Язык : Russian
ServiceKind/String : Complete Main
Default : Да
Forced : Нет
Аудио #2
Идентификатор : 3
Формат : AC-3
Формат/Информация : Audio Coding 3
Коммерческое название : Dolby Digital
Идентификатор кодека : A_AC3
Продолжительность : 1 ч. 26 м.
Вид битрейта : Постоянный
Битрейт : 384 Кбит/сек
Каналы : 6 каналов
ChannelLayout : L R C LFE Ls Rs
Частота : 48,0 КГц
Частота кадров : 31,250 кадров/сек (1536 SPF)
Битовая глубина : 16 бит
Метод сжатия : С потерями
Размер потока : 236 Мбайт (5%)
Заголовок : Original
Язык : English
ServiceKind/String : Complete Main
Default : Нет
Forced : Нет
Скриншоты:
       

RazBoyNik

Post 05-Jul-2019 13:25

[Quote]

Акулы из другого мира / Alien Sharks - greatest hits (2018) HDTV [H.264/1080i-LQ] - Год выпуска: 2018
Страна: США, Discovery Studios for Discovery Channel
Жанр: Документальный, природа, фауна
Участники: Крис Лоффт, Пол Клеркин, Энди Дехарт
Описание:
Группа специалистов отправится на поиски самых необычных акул в мире, в том числе глубоководных акул-домовых.
Продолжительность: 00:42:55
Качество видео: HDTV
Перевод: Одноголосый закадровый, профессиональный (SDI Media)
Субтитры: отсутствуют
Видео: AVC/H.264, 1920x1080, ~6753 Kbps
Аудио#1: AC3, 6 ch, 384 Kbps | Русский (читает: Владимир Рыбальченко)
Аудио#2: AC3, 6 ch, 384 Kbps | Английский

Mediainfo:

Общее
Идентификатор : 1 (0x1)
Полное имя : F:\КИНО\Акулы из другого мира_HDTV 1080i_RUS_ENG-dds.ts
Формат : MPEG-TS
Размер файла : 2,37 Гбайт
Продолжительность : 42 м. 55 с.
Режим общего битрейта : Переменный
Общий поток : 7921 Кбит/сек
Видео
Идентификатор : 325 (0x145)
Идентификатор меню : 12105 (0x2F49)
Формат : AVC
Формат/Информация : Advanced Video Codec
Профиль формата : High@L4
Настройки формата : CABAC / 4 Ref Frames
Параметр CABAC формата : Да
Параметр RefFrames формата : 4 кадра
Идентификатор кодека : 27
Продолжительность : 42 м. 55 с.
Битрейт : 6753 Кбит/сек
Ширина : 1920 пикселей
Высота : 1080 пикселей
Соотношение сторон : 16:9
Частота кадров : 25,000 кадров/сек
Стандарт вещания : Component
Цветовое пространство : YUV
Субдискретизация насыщенности : 4:2:0
Битовая глубина : 8 бит
Тип развёртки : Чересстрочная
Метод сохранения типа развёртки : Раздельные поля
Порядок развёртки : Верхнее поле первое
Бит/(Пиксели*Кадры) : 0.130
Размер потока : 2,02 Гбайт (85%)
Цветовой диапазон : Limited
Основные цвета : BT.709
Характеристики трансфера : BT.709
Коэффициенты матрицы : BT.709
Аудио #1
Идентификатор : 405 (0x195)
Идентификатор меню : 12105 (0x2F49)
Формат : AC-3
Формат/Информация : Audio Coding 3
Коммерческое название : Dolby Digital
Идентификатор кодека : 6
Продолжительность : 42 м. 55 с.
Вид битрейта : Постоянный
Битрейт : 384 Кбит/сек
Каналы : 6 каналов
ChannelLayout : L R C LFE Ls Rs
Частота : 48,0 КГц
Частота кадров : 31,250 кадров/сек (1536 SPF)
Битовая глубина : 16 бит
Метод сжатия : С потерями
Задержка видео : -80 мс.
Размер потока : 118 Мбайт (5%)
Язык : Russian
ServiceKind/String : Complete Main
Аудио #2
Идентификатор : 425 (0x1A9)
Идентификатор меню : 12105 (0x2F49)
Формат : AC-3
Формат/Информация : Audio Coding 3
Коммерческое название : Dolby Digital
Идентификатор кодека : 6
Продолжительность : 42 м. 55 с.
Вид битрейта : Постоянный
Битрейт : 384 Кбит/сек
Каналы : 6 каналов
ChannelLayout : L R C LFE Ls Rs
Частота : 48,0 КГц
Частота кадров : 31,250 кадров/сек (1536 SPF)
Битовая глубина : 16 бит
Метод сжатия : С потерями
Задержка видео : -80 мс.
Размер потока : 118 Мбайт (5%)
Язык : English
ServiceKind/String : Complete Main
Скриншоты:
       

}{@R0N

Post 13-Mar-2017 22:24

[Quote]

Забытая инженерия / Abandoned Engineering - Телекомпания: США, Discovery Channel
Жанр: Документальный, научно-познавательный, исследования, история
Описание:
Технологии развиваются настолько стремительно, что многие инженерные проекты, которые еще недавно считались воплощением самой смелой мечты, теперь никому не нужны: их забросили, словно огромные игрушки, дорогие, но устаревшие и вышедшие из моды. С заброшенными инженерными объектами знакомит новая программа Discovery Channel. «Герои» этого шоу – невероятные сооружения, которые так и не служили по назначению. Вы узнаете их удивительные истории: как и зачем они строились, сколько было потрачено на их создание, сколько специалистов над ними трудились, а также познакомитесь с людьми, которые их проектировали. Однако не исключено, что этим забытым сооружениям будет дана вторая жизнь: для некоторых придумано новое назначение, которое порой радикально отличается от первоначального. Например, недостроенная железнодорожная линия в Нью-Йорке превратилась в знаменитый парк Хай-Лайн, нацистский лагерь на острове Рюген был переделан в пятизвездочные апартаменты, а «Орискани», американский авианосец времен Вьетнамской войны, стал искусственным рифом.
Продолжительность: 4 х ~00:44:00
Качество видео: HDTV
Перевод: Одноголосый закадровый, профессиональный, студия "Кириллица"
Текст читал: Сергей Пономарёв
Видео: AVC/H.264, 1920x1080, ~7 000 Kbps
Аудио: MP2, 2 ch, 224 Kbps

Mediainfo: (тех. данные всех серий идентичны)

Общее
Идентификатор : 1 (0x1)
Полное имя : F:\КИНО\Забытая инженерия 1080p RG HitWay\01 Забытая инженерия.ts
Формат : MPEG-TS
Размер файла : 2,30 Гбайт
Продолжительность : 44 м. 10 с.
Режим общего битрейта : Переменный
Общий поток : 7467 Кбит/сек
Видео
Идентификатор : 224 (0xE0)
Идентификатор меню : 1 (0x1)
Формат : AVC
Формат/Информация : Advanced Video Codec
Профиль формата : [url=mailto:High@L4.1]High@L4.1[/url]
Параметр CABAC формата : Да
Параметр ReFrames формата : 3 кадра
Идентификатор кодека : 27
Продолжительность : 44 м. 10 с.
Вид битрейта : Постоянный
Битрейт : 7000 Кбит/сек
Ширина : 1920 пикселей
Высота : 1080 пикселей
Соотношение сторон : 16:9
Частота кадров : 30,000 кадров/сек
Стандарт вещания : NTSC
Цветовое пространство : YUV
Субдискретизация насыщенности : 4:2:0
Битовая глубина : 8 бит
Тип развёртки : Прогрессивная
Бит/(Пиксели*Кадры) : 0.113
Размер потока : 2,12 Гбайт (92%)
Цветовой диапазон : Limited
Основные цвета : BT.709
Характеристики трансфера : BT.709
Коэффициенты матрицы : BT.709
Аудио
Идентификатор : 4097 (0x1001)
Идентификатор меню : 1 (0x1)
Формат : MPEG Audio
Версия формата : Version 1
Профиль формата : Layer 2
Идентификатор кодека : 3
Продолжительность : 44 м. 10 с.
Вид битрейта : Постоянный
Битрейт : 224 Кбит/сек
Каналы : 2 канала
Частота : 48,0 КГц
Метод сжатия : С потерями
Задержка видео : 8 мс.
Размер потока : 70,8 Мбайт (3%)
Язык : English

Список серий:

01. Безмолвные города.
02. Цель космос
03. Потерянные мосты.
04. Корабли-призраки
05.
06.

Внимание! Раздача ведётся путём добавления новых серий

При каждом добавлении создаётся новый торрент. Чтобы начать докачку новой серии, пользователям необходимо сделать следующее:
- Остановить скачивание.
- Удалить старый торрент у себя из клиента (старые серии удалять не надо).
- Скачать новый торрент и запустить его у себя в клиенте вместо старого, при этом указать клиенту путь в старую папку куда и должно происходить скачивание новых серий.
Скриншоты:
       

Дополнительные скриншоты:

       

}{@R0N

Post 30-Jan-2017 13:40

[Quote]

Взрывая историю. Пирамиды майя / Secrets of The Maya Pyramid - Телекомпания: Windfall Films Ltd. (США)
Жанр: Документальный
Режиссёр: Люси Хэйкен

Описание:
Исчезнувший город Чичен-Ица в Мексике хранит древние тайны загадочной цивилизации. Как его построили и как человеческие жертвоприношения повлияли на его облик?
Глядя на дошедшие до нас памятники древних цивилизаций, трудно поверить, что задолго до появления современных технологий и мощной строительной техники удавалось возводить столь величественные сооружения. Программа ищет ответ на вопрос, как архитекторам и строителям давних эпох удавалось опередить свое время. С помощью компьютерных технологий здания будут разобраны буквально по кирпичикам, чтобы проследить их судьбу, а заодно выяснить, что скрывают каменные стены.
Продолжительность: 00:44:04
Качество видео: HDTVRip
Перевод: Одноголосый закадровый, профессиональный
Видео: AVC/H.264, 1280х720, ~6 999 Kbps
Аудио: MP3, 2 ch, 128 Kbps

Mediainfo:

General
Format : AVI
Format/Info : Audio Video Interleave
Format profile : OpenDML
File size : 2.20 GiB
Duration : 44mn 4s
Overall bit rate : 7 157 Kbps
Writing application : Lavf56.40.101
Video
ID : 0
Format : AVC
Format/Info : Advanced Video Codec
Format profile : [url=mailto:High@L4.2]High@L4.2[/url]
Format settings, CABAC : Yes
Format settings, ReFrames : 1 frame
Codec ID : H264
Duration : 44mn 4s
Bit rate : 6 999 Kbps
Width : 1 280 pixels
Height : 720 pixels
Display aspect ratio : 16:9
Frame rate mode : Variable
Frame rate : 120.000 (24/30) fps
Minimum frame rate : 24.000 fps
Maximum frame rate : 30.000 fps
Color space : YUV
Chroma subsampling : 4:2:0
Bit depth : 8 bits
Scan type : Progressive
Bits/(Pixel*Frame) : 0.063
Stream size : 2.15 GiB (98%)
Audio
ID : 1
Format : MPEG Audio
Format version : Version 1
Format profile : Layer 3
Mode : Joint stereo
Mode extension : MS Stereo
Codec ID : 55
Codec ID/Hint : MP3
Duration : 44mn 4s
Bit rate mode : Constant
Bit rate : 128 Kbps
Channel(s) : 2 channels
Sampling rate : 44.1 KHz
Compression mode : Lossy
Stream size : 40.4 MiB (2%)
Alignment : Aligned on interleaves
Interleave, duration : 26 ms (3.13 video frames)
Скриншоты:
       

Дополнительные скриншоты:

       

}{@R0N

Post 08-Nov-2016 21:45

[Quote]

Discovery. Как работают машины / Machines: How They Work (2016) HDTVRip (1-10 серий из 10) - Телекомпания: Канада, Discovery Channel
Жанр: документальный, техника
Описание:
Описание сериала, собственно, заложено в его названии. Многие видели подобные программы - "Как это устроено?", "Как это работает?", из этой передачи вы узнаете о работе самых разных по устройству и назначению машин.

Продолжительность: 10 x ~ 00:44:00
Качество видео: HDTVRip
Перевод: Одноголосый закадровый, профессиональный
Видео: Xvid, 720x400, ~1540 kbp
Аудио: AC3, 2 ch, 192 kbps, CBR

Mediainfo: (тех. данные всех серий идентичны)

Общее
Полное имя : F:\КИНО\Как работают машины\01 Как работают машины.avi
Формат : AVI
Формат/Информация : Audio Video Interleave
Размер файла : 545 Мбайт
Продолжительность : 43 м. 42 с.
Общий поток : 1744 Кбит/сек
Программа кодирования : VirtualDubMod 1.5.10.3 | www.virtualdub-fr.org || (build 2550/release)
Библиотека кодирования : VirtualDubMod build 2550/release
Видео
Идентификатор : 0
Формат : MPEG-4 Visual
Профиль формата : Advanced Simple@L5
Параметр BVOP формата : 1
Параметр QPel формата : Нет
Параметр GMC формата : Без точки перехода
Параметр матрицы формата : Выборочная
Идентификатор кодека : XVID
Идентификатор кодека/Подсказка : XviD
Продолжительность : 43 м. 42 с.
Битрейт : 1541 Кбит/сек
Ширина : 720 пикселей
Высота : 400 пикселей
Соотношение сторон : 16:9
Частота кадров : 30,000 кадров/сек
Цветовое пространство : YUV
Субдискретизация насыщенности : 4:2:0
Битовая глубина : 8 бит
Тип развёртки : Прогрессивная
Метод сжатия : С потерями
Бит/(Пиксели*Кадры) : 0.178
Размер потока : 482 Мбайт (88%)
Библиотека кодирования : XviD 73
Аудио
Идентификатор : 1
Формат : AC-3
Формат/Информация : Audio Coding 3
Расширение режима : CM (complete main)
Параметр Endianness формата : Big
Идентификатор кодека : 2000
Продолжительность : 43 м. 42 с.
Вид битрейта : Постоянный
Битрейт : 192 Кбит/сек
Каналы : 2 канала
Расположение каналов : Front: L R
Частота : 48,0 КГц
Частота кадров : 31,250 кадров/сек (1536 spf)
Метод сжатия : С потерями
Размер потока : 60,0 Мбайт (11%)
Выравнивание : Разделение по промежуткам
Продолжительность промежутка : 33 мс. (1,00 видеокадр)
Время предзагрузки промежутка : 500 мс.
Скриншоты:
       

Omen

Post 18-Oct-2015 19:36

[Quote]

Discovery: Разрушители легенд. Полёт фантазии
MythBusters. Flights of Fantasy
- Телекомпания: Discovery
Жанр: Познавательное шоу
Ведущий: Adam Savage, Jamie Hyneman, Kari Byron, Grant Imahara, Tory Belleci
Режиссер: Steve Christiansen, Lauren Williams
Описание:
«Разрушители легенд» (англ. MythBusters) — американская научно-популярная телепередача на канале Discovery Channel. Передачу ведут специалисты по спецэффектам Джейми Хайнеман и Адам Севидж, использующие свои навыки и опыт для экспериментальной проверки различных баек, слухов, городских легенд и других порождений популярной культуры. Съёмки передачи обычно проходят в области залива Сан-Франциско.
Каждый из часовых выпусков «Разрушители легенд» посвящён двум или трём городским легендам, распространённым убеждениям или слухам из интернета. Основной миф часто требует всесторонней подготовки и полигона, кроме него в передачу также включают один-два не столь хлопотных в плане подготовки и проведения мифа. На сегодняшний день, однако, три эксперимента (35, 40, и 46) были настолько сложными, что заняли весь час, отведённый на передачу.
Перевод: Профессиональный (многоголосый, закадровый)
Релиз от: vn_tuzhilin
Продолжительность: ~ 00:43:59
Качество видео: SATRip
Видео: MPEG4, XviD, 720x400 (16:9), 25.000 fps, 1 427 Kbps (0.198 bit/pixel)
Аудио: MP3, 44.1 KHz, 2 ch, 128 Kbps, CBR

Mediainfo:

Код:
Формат                                   : AVI
Формат/Информация                        : Audio Video Interleave
Размер файла                             : 492 Мбайт
Продолжительность                        : 43 м.
Общий поток                              : 1565 Кбит/сек
Программа кодирования                    : VirtualDubMod 1.5.10.2 (build 2540/release)
Библиотека кодирования                   : VirtualDubMod build 2540/release
Видео
Идентификатор                            : 0
Формат                                   : MPEG-4 Visual
Профиль формата                          : Advanced Simple@L5
Параметр BVOP формата                    : 1
Параметр QPel формата                    : Нет
Параметр GMC формата                     : Без точки перехода
Параметр матрицы формата                 : Default (H.263)
Идентификатор кодека                     : XVID
Идентификатор кодека/Подсказка           : XviD
Продолжительность                        : 43 м.
Битрейт                                  : 1427 Кбит/сек
Ширина                                   : 720 пикселей
Высота                                   : 400 пикселей
Соотношение сторон                       : 16:9
Частота кадров                           : 25,000 кадров/сек
Цветовое пространство                    : YUV
Субдискретизация насыщенности            : 4:2:0
Битовая глубина                          : 8 бит
Тип развёртки                            : Прогрессивная
Метод сжатия                             : С потерями
Бит/(Пиксели*Кадры)                      : 0.198
Размер потока                            : 449 Мбайт (91%)
Библиотека кодирования                   : XviD 1.2.1 (UTC 2008-12-04)
Аудио
Идентификатор                            : 1
Формат                                   : MPEG Audio
Версия формата                           : Version 1
Профиль формата                          : Layer 3
Идентификатор кодека                     : 55
Идентификатор кодека/Подсказка           : MP3
Продолжительность                        : 43 м.
Вид битрейта                             : Постоянный
Битрейт                                  : 128 Кбит/сек
Каналы                                   : 2 канала
Частота                                  : 44,1 КГц
Метод сжатия                             : С потерями
Размер потока                            : 40,3 Мбайт (8%)
Выравнивание                             : Разделение по промежуткам
Продолжительность промежутка             : 40  мс. (1,00 видеокадр)
Время предзагрузки промежутка            : 500  мс.
Библиотека кодирования                   : LAME3.98r
Настройки программы                      : -m s -V 4 -q 2 -lowpass 17 -b 128

В выпуске:

Добро пожаловать на борт к разрушителям легенд, пристегните ремни, откиньте спинку кресла и наслаждайтесь полётом с нашими пилотами Адамом и Джейми.
Скриншоты:
       

Omen

Post 18-Oct-2015 19:36

[Quote]

Discovery: Разрушители легенд. Взрыв на воде
MythBusters. Blow It Out Of The Water
- Телекомпания: Discovery
Жанр: Познавательное шоу
Ведущий: Adam Savage, Jamie Hyneman, Kari Byron, Grant Imahara, Tory Belleci
Режиссер: Steve Christiansen, Lauren Williams
Описание:
«Разрушители легенд» (англ. MythBusters) — американская научно-популярная телепередача на канале Discovery Channel. Передачу ведут специалисты по спецэффектам Джейми Хайнеман и Адам Севидж, использующие свои навыки и опыт для экспериментальной проверки различных баек, слухов, городских легенд и других порождений популярной культуры. Съёмки передачи обычно проходят в области залива Сан-Франциско.
Каждый из часовых выпусков «Разрушители легенд» посвящён двум или трём городским легендам, распространённым убеждениям или слухам из интернета. Основной миф часто требует всесторонней подготовки и полигона, кроме него в передачу также включают один-два не столь хлопотных в плане подготовки и проведения мифа. На сегодняшний день, однако, три эксперимента (35, 40, и 46) были настолько сложными, что заняли весь час, отведённый на передачу.
Перевод: Профессиональный (многоголосый, закадровый)
Релиз от: vn_tuzhilin
Продолжительность: ~ 00:43:46
Качество видео: SATRip
Видео: MPEG4, XviD, 720x400 (16:9), 25.000 fps, 1 554 Kbps (0.216 bit/pixel)
Аудио: MP3, 44.1 KHz, 2 ch, 128 Kbps, CBR

Mediainfo:

Код:
Формат                                   : AVI
Формат/Информация                        : Audio Video Interleave
Размер файла                             : 530 Мбайт
Продолжительность                        : 43 м.
Общий поток                              : 1692 Кбит/сек
Программа кодирования                    : VirtualDubMod 1.5.10.2 (build 2540/release)
Библиотека кодирования                   : VirtualDubMod build 2540/release
Видео
Идентификатор                            : 0
Формат                                   : MPEG-4 Visual
Профиль формата                          : Advanced Simple@L5
Параметр BVOP формата                    : 1
Параметр QPel формата                    : Нет
Параметр GMC формата                     : Без точки перехода
Параметр матрицы формата                 : Default (H.263)
Идентификатор кодека                     : XVID
Идентификатор кодека/Подсказка           : XviD
Продолжительность                        : 43 м.
Битрейт                                  : 1554 Кбит/сек
Ширина                                   : 720 пикселей
Высота                                   : 400 пикселей
Соотношение сторон                       : 16:9
Частота кадров                           : 25,000 кадров/сек
Цветовое пространство                    : YUV
Субдискретизация насыщенности            : 4:2:0
Битовая глубина                          : 8 бит
Тип развёртки                            : Прогрессивная
Метод сжатия                             : С потерями
Бит/(Пиксели*Кадры)                      : 0.216
Размер потока                            : 487 Мбайт (92%)
Библиотека кодирования                   : XviD 1.2.1 (UTC 2008-12-04)
Аудио
Идентификатор                            : 1
Формат                                   : MPEG Audio
Версия формата                           : Version 1
Профиль формата                          : Layer 3
Идентификатор кодека                     : 55
Идентификатор кодека/Подсказка           : MP3
Продолжительность                        : 43 м.
Вид битрейта                             : Постоянный
Битрейт                                  : 128 Кбит/сек
Каналы                                   : 2 канала
Частота                                  : 44,1 КГц
Метод сжатия                             : С потерями
Размер потока                            : 40,1 Мбайт (8%)
Выравнивание                             : Разделение по промежуткам
Продолжительность промежутка             : 40  мс. (1,00 видеокадр)
Время предзагрузки промежутка            : 500  мс.
Библиотека кодирования                   : LAME3.98r
Настройки программы                      : -m s -V 4 -q 2 -lowpass 17 -b 128

В выпуске:

Адам и Джейми вновь берутся за проверку! Может ли лодка выдержать взрыв бомбы, которая будет находится под ней в воде?
Возможно ли установить в багажник автомобиля пулемет на дистанционное управление и использовать его для расстрела полной комнаты людей, как в финале сериала "Во все тяжкие"?
Скриншоты:
       

NarDok

Post 05-Aug-2015 22:32

[Quote]

Discovery. Катастрофа на колесах / Wheels That Fail - Телекомпания: США, Discovery Channel
Жанр: Документальный, Телепередача
Описание:
Герои этой программы съехали с катушек – когда они за рулем, это просто катастрофа! Такой подборки видео о происшествиях на колесах вы еще не видели: Discovery Channel выбрал самые смешные, самые опасные и самые захватывающие ролики, где автомобили и мотоциклы сталкиваются, переворачиваются, взрываются, падают в воду, летят под откос – и этот список можно продолжать бесконечно. Эти кадры были запечатлены на дорожные камеры, видеорегистраторы и смартфоны случайных очевидцев, - какие-то из них невозможно смотреть без страха, а какие-то вызывают смех.Вы увидите неудавшиеся трюки каскадеров, примеры неудачного стечения обстоятельств, а также последствия глупого и неумелого вождения – вам даже в голову не придет, на что порой решаются горе-водители. Расплата не заставляет себя ждать: тачка вдребезги, а над ее владельцем смеются миллионы зрителей.
Продолжительность: Серия по ~00:22:00
Качество видео: HDTVRip
Перевод: Одноголосый закадровый, профессиональный
Видео: Xvid, 720x400, ~1540 Кбит/сек
Аудио: AC3, 2 ch, 192 Кбит/cек

Mediainfo:

Код:
Общее
Формат                                   : AVI
Формат/Информация                        : Audio Video Interleave
Размер файла                             : 274 Мбайт
Продолжительность                        : 21 м.
Общий поток                              : 1743 Кбит/сек
Программа кодирования                    : VirtualDubMod 1.5.10.3 | [url=http://www.virtualdub-fr.org]www.virtualdub-fr.org[/url] || (build 2550/release)
Библиотека кодирования                   : VirtualDubMod build 2550/release
Видео
Идентификатор                            : 0
Формат                                   : MPEG-4 Visual
Профиль формата                          : Advanced Simple@L5
Параметр BVOP формата                    : 1
Параметр QPel формата                    : Нет
Параметр GMC формата                     : Без точки перехода
Параметр матрицы формата                 : Default (H.263)
Идентификатор кодека                     : XVID
Идентификатор кодека/Подсказка           : XviD
Продолжительность                        : 21 м.
Битрейт                                  : 1540 Кбит/сек
Ширина                                   : 720 пикселей
Высота                                   : 400 пикселей
Соотношение сторон                       : 16:9
Частота кадров                           : 30,000 кадров/сек
Цветовое пространство                    : YUV
Субдискретизация насыщенности            : 4:2:0
Битовая глубина                          : 8 бит
Тип развёртки                            : Прогрессивная
Метод сжатия                             : С потерями
Бит/(Пиксели*Кадры)                      : 0.178
Размер потока                            : 242 Мбайт (88%)
Библиотека кодирования                   : XviD 1.2.1 (UTC 2008-12-04)
Аудио
Идентификатор                            : 1
Формат                                   : AC-3
Формат/Информация                        : Audio Coding 3
Расширение режима                        : CM (complete main)
Параметр Endianness формата              : Big
Идентификатор кодека                     : 2000
Продолжительность                        : 21 м.
Вид битрейта                             : Постоянный
Битрейт                                  : 192 Кбит/сек
Каналы                                   : 2 канала
Расположение каналов                     : Front: L R
Частота                                  : 48,0 КГц
Метод сжатия                             : С потерями
Размер потока                            : 30,2 Мбайт (11%)
Выравнивание                             : Разделение по промежуткам
Продолжительность промежутка             : 33  мс. (1,00 видеокадр)
Время предзагрузки промежутка            : 500  мс.
Скриншоты:
       

Omen

Post 23-Jul-2015 18:13

[Quote]

Discovery. Византия: Утраченная Империя
Byzantium: The Lost Empire
-Год выпуска: 1997
Год выхода дисков: 2006
Страна: США
Жанр: Документальный
Режиссер: Рон Джонсон
Перевод: Профессиональный (одноголосый)- Название на русском: Византия: Утраченная Империя – Рай на земле
Оригинальное название: Byzantium: The Lost Empire – Heaven on Earth
Продолжительность: 00:52:07
Совершите путешествие вглубь веков в поисках происхождения западной веры. История Византии, первого христианского государства, – это история торжества веры. Византийские императоры стремились превратить Константинополь, «око веры христианской», в Новый Иерусалим, который стал бы раем на Земле. Эта программа расскажет об удивительном духовном наследии Византии: рукописях, мозаиках и иконах.
.
Звук: 1 - русский, 2 - английский
Video: XVID 624x384 25.00fps 2497Kbps [Video 0]
Audio: Dolby AC3 48000Hz stereo 192Kbps [Audio 1]
Audio: MPEG Audio Layer 3 48000Hz stereo 112Kbps [Audio 2]- Название на русском: Византия: Утраченная империя – На пороге вечности
Оригинальное название: Byzantium: The Lost Empire – Forever and Ever
Продолжительность: 00:46:51
За свою тысячелетнюю историю Византия знала и величие славы, и горечь сокрушительных поражений. Центр христианского мира, Византия сыграла огромную роль в становлении культуры многих государств и народов, вовлеченных в орбиту имперской «вселенной». В период расцвета ее влияние распространялось от Древней Руси до Африки. Византийцы умели искусно приобретать союзников даже среди своих врагов, не раз пытавшихся завоевать эту могущественную империю. Но распри византийской знати и борьба за императорский престол разрушали Византию. В 1453 Константинополь был взят штурмом турецкой армией и разграблен. Византия прекратила своё существование, а её территория вошла в состав Османской империи.
Звук: 1 - русский, 2 - английский
Video: XVID 720x464 25.00fps 2812Kbps [Video 0]
Audio: Dolby AC3 48000Hz stereo 192Kbps [Audio 1]
Audio: MPEG Audio Layer 3 48000Hz stereo 114Kbps [Audio 2]
Скриншоты:- Название на русском: Византия: Утраченная Империя – Воплощение мечты
Оригинальное название: Byzantium: The Lost Empire – Building the Dream
Продолжительность: 00:52:21
В 330 г. император Константин основал новую столицу Римской империи на месте торгового греческого города Византия. Впоследствии империя разделилась на две части – Западную и Восточную. Первая пала под натиском германских племен, а вторая – «Империя ромеев и греков», или Византия – просуществовала целое тысячелетие, создав на стыке Востока и Запада уникальную культуру, удивительным образом соединявшую в себе черты греко-римской цивилизации и восточной деспотии. Эта программа, открывающая цикл фильмов о истории и культуре Византии, расскажет о становлении великой древней империи.
Звук: 1 - русский, 2 - английский
Video: XVID 688x432 25.00fps 2482Kbps [Video 0]
Audio: Dolby AC3 48000Hz stereo 192Kbps [Audio 1]
Audio: MPEG Audio Layer 3 48000Hz stereo 114Kbps [Audio 2]- Название на русском: Византия: Утраченная империя – На зависть всем
Оригинальное название: Byzantium: The Lost Empire – Envy of the World
Продолжительность: 00:52:19
На Византию с жадным интересом смотрели многие европейские монархи. Ни один правитель не обладал таким могуществом, как император Византии. Дорогие ткани, сверкающие эмали, убранные золотом и драгоценными камнями одежды, изделия из слоновой кости, бесценные благовония – эти несметные богатства восхищали и притягивали взоры. Огромные сокровища хранили в себе византийские храмы, императорские дворцы, дома знати. Узнайте больше об изумительной культуре средневековой Византии и ее столицы Константинополя - неправдоподобно богатого города, который называли «предметом желаний всего мира»!
Звук: 1 - русский, 2 - английский
Video: XVID 688x432 25.00fps 2486Kbps [Video 0]
Audio: Dolby AC3 48000Hz stereo 192Kbps [Audio 1]
Audio: MPEG Audio Layer 3 48000Hz stereo 113Kbps [Audio 2]

Omen

Post 23-Jul-2015 18:04

[Quote]

Discovery.
Дорожные ковбои
Аsphalt Сowboys
- Телекомпания: Германия, Discovery Channel
Жанр: Документальный, Телепередача
Описание:
Дальнобойщики Германии – уже своего рода водительская элита, а для тех, кто хочет почувствовать себя за рулем фуры, даже придумали компьютерный симулятор. Теперь же на работу дальнобойщиков можно посмотреть со всех ракурсов: программа Discovery Channel «Дорожные ковбои» расскажет о том, каково это – наматывать километры по автобанам, сидя в кабине немецкого грузовика.
В Германии для водителей разработан целый свод правил, упрощающих им жизнь. Например, время поездки строго регулируется – за сутки можно проводить в дороге не более 9 часов, а переработка всего на 1 час допускается только два раза в неделю. Кроме того, в целях повышения безопасности каждый грузовик в Германии оснащается автоматическим самописцем, а во многих из них есть еще и встроенные передатчики, позволяющие отследить местоположение машины в реальном времени. Личный комфорт работника тоже играет не последнюю роль – каждые 4,5 часа водитель должен останавливаться и делать перерыв, а на сон отводится как минимум 11 часов. Немецкие компании ценят своих перевозчиков, ведь стать дальнобойщиком в Германии не так-то просто. Тогда почему люди выбирают эту профессию?
Продолжительность: Серия по ~00:44:00
Качество видео: HDTVRip
Перевод: Одноголосый закадровый, профессиональный
Видео: Xvid, 720x400, 720x392, ~1540 Кбит/сек
Аудио: AC3, 2 ch, 192 Кбит/cек

Mediainfo:

720x392:

Код:
Общее
Формат                                   : AVI
Формат/Информация                        : Audio Video Interleave
Размер файла                             : 545 Мбайт
Продолжительность                        : 43 м.
Общий поток                              : 1743 Кбит/сек
Программа кодирования                    : VirtualDubMod 1.5.10.3 | [url=http://www.virtualdub-fr.org]www.virtualdub-fr.org[/url] || (build 2550/release)
Библиотека кодирования                   : VirtualDubMod build 2550/release
Видео
Идентификатор                            : 0
Формат                                   : MPEG-4 Visual
Профиль формата                          : Advanced Simple@L5
Параметр BVOP формата                    : 1
Параметр QPel формата                    : Нет
Параметр GMC формата                     : Без точки перехода
Параметр матрицы формата                 : Default (H.263)
Идентификатор кодека                     : XVID
Идентификатор кодека/Подсказка           : XviD
Продолжительность                        : 43 м.
Битрейт                                  : 1539 Кбит/сек
Ширина                                   : 704 пикселя
Высота                                   : 392 пикселя
Соотношение сторон                       : 16:9
Частота кадров                           : 30,000 кадров/сек
Цветовое пространство                    : YUV
Субдискретизация насыщенности            : 4:2:0
Битовая глубина                          : 8 бит
Тип развёртки                            : Прогрессивная
Метод сжатия                             : С потерями
Бит/(Пиксели*Кадры)                      : 0.186
Размер потока                            : 481 Мбайт (88%)
Библиотека кодирования                   : XviD 1.2.1 (UTC 2008-12-04)
Аудио
Идентификатор                            : 1
Формат                                   : AC-3
Формат/Информация                        : Audio Coding 3
Расширение режима                        : CM (complete main)
Параметр Endianness формата              : Big
Идентификатор кодека                     : 2000
Продолжительность                        : 43 м.
Вид битрейта                             : Постоянный
Битрейт                                  : 192 Кбит/сек
Каналы                                   : 2 канала
Расположение каналов                     : Front: L R
Частота                                  : 48,0 КГц
Метод сжатия                             : С потерями
Размер потока                            : 60,0 Мбайт (11%)
Выравнивание                             : Разделение по промежуткам
Продолжительность промежутка             : 33  мс. (1,00 видеокадр)
Время предзагрузки промежутка            : 500  мс.

720x400:

Код:
Общее
Формат                                   : AVI
Формат/Информация                        : Audio Video Interleave
Размер файла                             : 541 Мбайт
Продолжительность                        : 43 м.
Общий поток                              : 1743 Кбит/сек
Программа кодирования                    : VirtualDubMod 1.5.10.3 | [url=http://www.virtualdub-fr.org]www.virtualdub-fr.org[/url] || (build 2550/release)
Библиотека кодирования                   : VirtualDubMod build 2550/release
Видео
Идентификатор                            : 0
Формат                                   : MPEG-4 Visual
Профиль формата                          : Advanced Simple@L5
Параметр BVOP формата                    : 1
Параметр QPel формата                    : Нет
Параметр GMC формата                     : Без точки перехода
Параметр матрицы формата                 : Default (H.263)
Идентификатор кодека                     : XVID
Идентификатор кодека/Подсказка           : XviD
Продолжительность                        : 43 м.
Битрейт                                  : 1539 Кбит/сек
Ширина                                   : 720 пикселей
Высота                                   : 400 пикселей
Соотношение сторон                       : 16:9
Частота кадров                           : 30,000 кадров/сек
Цветовое пространство                    : YUV
Субдискретизация насыщенности            : 4:2:0
Битовая глубина                          : 8 бит
Тип развёртки                            : Прогрессивная
Метод сжатия                             : С потерями
Бит/(Пиксели*Кадры)                      : 0.178
Размер потока                            : 478 Мбайт (88%)
Библиотека кодирования                   : XviD 1.2.1 (UTC 2008-12-04)
Аудио
Идентификатор                            : 1
Формат                                   : AC-3
Формат/Информация                        : Audio Coding 3
Расширение режима                        : CM (complete main)
Параметр Endianness формата              : Big
Идентификатор кодека                     : 2000
Продолжительность                        : 43 м.
Вид битрейта                             : Постоянный
Битрейт                                  : 192 Кбит/сек
Каналы                                   : 2 канала
Расположение каналов                     : Front: L R
Частота                                  : 48,0 КГц
Метод сжатия                             : С потерями
Размер потока                            : 59,6 Мбайт (11%)
Выравнивание                             : Разделение по промежуткам
Продолжительность промежутка             : 33  мс. (1,00 видеокадр)
Время предзагрузки промежутка            : 500  мс.
Скриншоты:
       

720x400:

       

Omen

Post 19-May-2015 21:59

[Quote]

Discovery. В погоне за кометой: Розетта
Landing on a Comet: The Rosetta Mission
- Режиссер / Телекомпания: Шилли Айрс / Discovery Science
Страна: США
Год выпуска: 2014
Жанр: Документальный, научно-познавательный, космос
Продолжительность: 00:48:07
Перевод: Одноголосый закадровый (профессиональный)
Видеокодек: MPEG-4 AVC/H.264
Битрейт видео: ~4 000 Kбит/с
Размер кадра: 1280 x 720
Качество видео: HDTVRip [720p]
Аудио: MP3, 2 ch, 128 Кбит/с
Описание: 12 января 2003 года ракета-носитель "Ариан-5" была доставлена на космодром "Куру", расположенный в Южной Америке с аппаратом "Розетта", приготовленным для запуска, однако запуск не состоялся: при старте произошел отказ двигателей. Старт был перенесен на 26 февраля 2004 года, однако времени для подготовки не хватило. После двух провальных попыток ESA предприняли третью: 2 марта 2004 года ракета "Ариан 5G+" оторвалась от Земли. В ноябре 2014 года от Розетты отделиться спускаемый модуль "Филы". Спустя несколько часов произойдет контакт с кометой и пружинный механизм выпустит гарпун, призванный надежно закрепить устройство на комете и исключить риск ухода в открытый космос.

MediaInfo

Общее
Уникальный идентификатор : 58854025133541602049218642520999822375 (0x2C46DF78AF163A91C83B0C9578618427)
Полное имя : D:\Temp\DiscoveryScience.Landing.on.a.comet.Rosetta.HDTVRip.720p.mkv
Формат : Matroska
Версия формата : Version 2
Размер файла : 1,39 Гбайт
Продолжительность : 48 м.
Общий поток : 4124 Кбит/сек
Программа кодирования : Lavf52.39.0
Библиотека кодирования : Lavf52.39.0
Видео
Идентификатор : 1
Формат : AVC
Формат/Информация : Advanced Video Codec
Профиль формата : [url=mailto:Main@L3.1]Main@L3.1[/url]
Параметр CABAC формата : Да
Параметр ReFrames формата : 2 кадра
Идентификатор кодека : V_MPEG4/ISO/AVC
Продолжительность : 48 м.
Битрейт : 4000 Кбит/сек
Ширина : 1280 пикселей
Высота : 720 пикселей
Соотношение сторон : 16:9
Режим частоты кадров : Постоянный
Частота кадров : 25,000 кадров/сек
Цветовое пространство : YUV
Субдискретизация насыщенности : 4:2:0
Битовая глубина : 8 бит
Тип развёртки : Прогрессивная
Бит/(Пиксели*Кадры) : 0.174
Размер потока : 1,32 Гбайт (95%)
Библиотека кодирования : x264 core 77
Настройки программы : cabac=1 / ref=1 / deblock=1:0:0 / analyse=0x1:0x11 / me=hex / subme=5 / psy=1 / psy_rd=0.0:0.0 / mixed_ref=0 / me_range=16 / chroma_me=1 / trellis=1 / 8x8dct=0 / cqm=0 / deadzone=21,11 / chroma_qp_offset=0 / threads=2 / nr=0 / decimate=1 / mbaff=0 / constrained_intra=0 / bframes=2 / b_pyramid=0 / b_adapt=1 / b_bias=0 / direct=1 / wpredb=0 / keyint=250 / keyint_min=25 / scenecut=40 / rc_lookahead=40 / rc=abr / mbtree=1 / bitrate=4000 / ratetol=1.0 / qcomp=0.60 / qpmin=10 / qpmax=51 / qpstep=4 / ip_ratio=1.41 / aq=1:1.00
Default : Да
Forced : Нет
Аудио
Идентификатор : 2
Формат : MPEG Audio
Версия формата : Version 1
Профиль формата : Layer 3
Режим : Joint stereo
Расширение режима : MS Stereo
Идентификатор кодека : A_MPEG/L3
Идентификатор кодека/Подсказка : MP3
Продолжительность : 48 м.
Вид битрейта : Постоянный
Битрейт : 128 Кбит/сек
Каналы : 2 канала
Частота : 44,1 КГц
Метод сжатия : С потерями
Задержка видео : -40 мс.
Размер потока : 44,1 Мбайт (3%)
Default : Да
Forced : Нет
Скриншоты:
         
         
 

The time now is: Today 23:30

All times are GMT + 3 Hours