Today is a free download without charge Download

Search found 105 matches

Author Message

Clavik

Post 13-Sep-2019 19:17

[Quote]

Удивительный мир животных (часть 2) / How do Animals do That (2019) HDTV [H.264/1080i] (эпизоды 21-25, 27-28) - Производство: США, Animal Planet
Жанр: Документальный, природа, флора, фауна
Режиссер: Кети Бакланд, Гаретч Сакала
Участники: Хью Бонневилль
Описание:
Животные делают самые невероятные вещи, но задумывались ли вы когда-нибудь, как или почему? Ответы на самые острые вопросы мира природы. Например, как светлячки светятся в темноте? Как слоны слушают сквозь ноги? Почему собаки виляют хвостами? Всё, чтобы понять: как животные делают это?
Релиз от: Zakol
Продолжительность: серии x ~ 00:22:00
Качество видео: HDTV
Перевод: Одноголосый закадровый, профессиональный
Субтитры: отсутствуют
Видео: AVC/H.264, 1920x1080, ~10,7 Mbps
Аудио#1: MP2, 2 ch, 192 Kbps | Русский
Аудио#2: MP2, 2 ch, 192 Kbps | Английский

Mediainfo: (тех. данные всех серий идентичны)

Общее
Идентификатор : 1 (0x1)
Полное имя : F:\КИНО\Удивительный мир животных 1080 (2019)\22 Удивительный мир животных.ts
Формат : MPEG-TS
Размер файла : 1,77 Гбайт
Продолжительность : 21 м. 46 с.
Режим общего битрейта : Переменный
Общий поток : 11,6 Мбит/сек
Видео
Идентификатор : 1026 (0x402)
Идентификатор меню : 119 (0x77)
Формат : AVC
Формат/Информация : Advanced Video Codec
Профиль формата : High@L4
Настройки формата : CABAC / 4 Ref Frames
Параметр CABAC формата : Да
Параметр RefFrames формата : 4 кадра
Идентификатор кодека : 27
Продолжительность : 21 м. 46 с.
Битрейт : 10,7 Мбит/сек
Ширина : 1920 пикселей
Высота : 1080 пикселей
Соотношение сторон : 16:9
Частота кадров : 25,000 кадров/сек
Стандарт вещания : Component
Цветовое пространство : YUV
Субдискретизация насыщенности : 4:2:0
Битовая глубина : 8 бит
Тип развёртки : Чересстрочная
Метод сохранения типа развёртки : Раздельные поля
Порядок развёртки : Верхнее поле первое
Бит/(Пиксели*Кадры) : 0.206
Размер потока : 1,62 Гбайт (92%)
Цветовой диапазон : Limited
Основные цвета : BT.709
Характеристики трансфера : BT.709
Коэффициенты матрицы : BT.709
Аудио #1
Идентификатор : 1027 (0x403)
Идентификатор меню : 119 (0x77)
Формат : MPEG Audio
Версия формата : Version 1
Профиль формата : Layer 2
Идентификатор кодека : 3
Продолжительность : 21 м. 46 с.
Вид битрейта : Постоянный
Битрейт : 192 Кбит/сек
Каналы : 2 канала
Частота : 48,0 КГц
Частота кадров : 41,667 кадра/сек (1152 SPF)
Метод сжатия : С потерями
Задержка видео : -80 мс.
Размер потока : 29,9 Мбайт (2%)
Язык : Russian
Аудио #2
Идентификатор : 1028 (0x404)
Идентификатор меню : 119 (0x77)
Формат : MPEG Audio
Версия формата : Version 1
Профиль формата : Layer 2
Идентификатор кодека : 3
Продолжительность : 21 м. 46 с.
Вид битрейта : Постоянный
Битрейт : 192 Кбит/сек
Каналы : 2 канала
Частота : 48,0 КГц
Частота кадров : 41,667 кадра/сек (1152 SPF)
Метод сжатия : С потерями
Задержка видео : -80 мс.
Размер потока : 29,9 Мбайт (2%)
Язык : English
Скриншоты:
       

RazBoyNik

Post 15-Jul-2019 10:32

[Quote]

Живой или вымерший. Додо Севера / Extinct or Alive (2018) HDTV [H.264/1080i] - Год выпуска: 2018
Страна: США, Hot Snakes Media, Animal Planet
Жанр: Документальный, природа, флора, фауна
Режиссер: Форрест Галанте
Описание:
Что если вымершие животные на самом деле не вымерли? Биолог Форрест Галланте путешествует по земному шару и, вооружившись новейшими технологиями, ищет виды, которые мир уже прекратил искать. Поиски доказательств и свидетельств, благодаря которым, возможно, удастся выследить и вернуть к жизни животных, ошибочно считающихся исчезнувшими, приводят энтузиаста Форреста в далекие и иногда опасные места.
Форрест отправляется на Фарерские острова, где ищет признаки присутствия бескрылой гагарки - большой нелетающей морской птицы, объявленной вымершей 175 лет назад.
Продолжительность: 00:43:57
Качество видео: HDTV
Перевод: Одноголосый закадровый, профессиональный
Субтитры: отсутствуют
Видео: AVC/H.264, 1920x1080, ~10,7 Mbps
Аудио#1: MP2, 2 ch, 192 Kbps | Русский
Аудио#2: MP2, 2 ch, 192 Kbps | Английский

Mediainfo:

Общее
Идентификатор : 1 (0x1)
Полное имя : F:\КИНО\Живой или вым. Додо Севера 1080 (2018).ts
Формат : MPEG-TS
Размер файла : 3,57 Гбайт
Продолжительность : 43 м. 58 с.
Режим общего битрейта : Переменный
Общий поток : 11,6 Мбит/сек
Видео
Идентификатор : 1026 (0x402)
Идентификатор меню : 119 (0x77)
Формат : AVC
Формат/Информация : Advanced Video Codec
Профиль формата : High@L4
Настройки формата : CABAC / 4 Ref Frames
Параметр CABAC формата : Да
Параметр RefFrames формата : 4 кадра
Идентификатор кодека : 27
Продолжительность : 43 м. 57 с.
Битрейт : 10,7 Мбит/сек
Ширина : 1920 пикселей
Высота : 1080 пикселей
Соотношение сторон : 16:9
Частота кадров : 25,000 кадров/сек
Стандарт вещания : Component
Цветовое пространство : YUV
Субдискретизация насыщенности : 4:2:0
Битовая глубина : 8 бит
Тип развёртки : Чересстрочная
Метод сохранения типа развёртки : Раздельные поля
Порядок развёртки : Верхнее поле первое
Бит/(Пиксели*Кадры) : 0.205
Размер потока : 3,27 Гбайт (92%)
Цветовой диапазон : Limited
Основные цвета : BT.709
Характеристики трансфера : BT.709
Коэффициенты матрицы : BT.709
Аудио #1
Идентификатор : 1027 (0x403)
Идентификатор меню : 119 (0x77)
Формат : MPEG Audio
Версия формата : Version 1
Профиль формата : Layer 2
Идентификатор кодека : 3
Продолжительность : 43 м. 57 с.
Вид битрейта : Постоянный
Битрейт : 192 Кбит/сек
Каналы : 2 канала
Частота : 48,0 КГц
Частота кадров : 41,667 кадра/сек (1152 SPF)
Метод сжатия : С потерями
Задержка видео : -80 мс.
Размер потока : 60,4 Мбайт (2%)
Язык : Russian
Аудио #2
Идентификатор : 1028 (0x404)
Идентификатор меню : 119 (0x77)
Формат : MPEG Audio
Версия формата : Version 1
Профиль формата : Layer 2
Идентификатор кодека : 3
Продолжительность : 43 м. 58 с.
Вид битрейта : Постоянный
Битрейт : 192 Кбит/сек
Каналы : 2 канала
Частота : 48,0 КГц
Частота кадров : 41,667 кадра/сек (1152 SPF)
Метод сжатия : С потерями
Задержка видео : -80 мс.
Размер потока : 60,4 Мбайт (2%)
Язык : English
Скриншоты:
       

RazBoyNik

Post 15-Jul-2019 10:29

[Quote]

Живой или вымерший. Гигант Мадагаскара / Extinct or Alive (2018) HDTV [H.264/1080p-LQ] - Год выпуска: 2018
Страна: США, Hot Snakes Media, Animal Planet
Жанр: Документальный, природа, флора, фауна
Режиссер: Форрест Галанте
Описание:
Что если вымершие животные на самом деле не вымерли? Биолог Форрест Галланте путешествует по земному шару и, вооружившись новейшими технологиями, ищет виды, которые мир уже прекратил искать. Поиски доказательств и свидетельств, благодаря которым, возможно, удастся выследить и вернуть к жизни животных, ошибочно считающихся исчезнувшими, приводят энтузиаста Форреста в далекие и иногда опасные места.
Мадагаскарские пахилемуры были пушистыми гигантами рыжего окраса, размером с высших приматов. Форрест исследует полог леса, чтобы доказать, что эти животные не вымерли.
Продолжительность: 00:43:44
Качество видео: HDTV
Перевод: Одноголосый закадровый, профессиональный
Субтитры: отсутствуют
Видео: AVC/H.264, 1920x1080, ~4272 Kbps
Аудио: AAC, 2 ch, 199 Kbps

Mediainfo:

Общее
Идентификатор : 1 (0x1)
Полное имя : F:\КИНО\Живой или вым. Гигант Мадагаск. 1080 (2018).ts
Формат : MPEG-TS
Размер файла : 1,37 Гбайт
Продолжительность : 43 м. 44 с.
Режим общего битрейта : Переменный
Общий поток : 4472 Кбит/сек
Видео
Идентификатор : 68 (0x44)
Идентификатор меню : 1 (0x1)
Формат : AVC
Формат/Информация : Advanced Video Codec
Профиль формата : High@L4
Настройки формата : CABAC / 4 Ref Frames
Параметр CABAC формата : Да
Параметр RefFrames формата : 4 кадра
Идентификатор кодека : 27
Продолжительность : 43 м. 44 с.
Вид битрейта : Переменный
Максимальный битрейт : 4500 Кбит/сек
Ширина : 1920 пикселей
Высота : 1080 пикселей
Соотношение сторон : 16:9
Частота кадров : 25,000 кадров/сек
Цветовое пространство : YUV
Субдискретизация насыщенности : 4:2:0
Битовая глубина : 8 бит
Тип развёртки : Прогрессивная
Аудио
Идентификатор : 69 (0x45)
Идентификатор меню : 1 (0x1)
Формат : AAC LC
Формат/Информация : Advanced Audio Codec Low Complexity
Версия формата : Version 4
Режим смешивания : ADTS
Идентификатор кодека : 15-2
Продолжительность : 43 м. 44 с.
Вид битрейта : Переменный
Каналы : 2 канала
Channel layout : L R
Частота : 48,0 КГц
Частота кадров : 46,875 кадров/сек (1024 SPF)
Метод сжатия : С потерями

Moo0 Video Info 1.10:

Имя файла: Живой или вым. Гигант Мадагаск. 1080 (2018).ts
File Size: 1.36 GB
[Container]
Format: MPEGTS (MPEG-TS (MPEG-2 Transport Stream))
Duration: 00:43:44.93
Bit Rate: 4,472 kbps
[Video]
Codec: H264 (H.264 / AVC / MPEG-4 AVC / MPEG-4 part 10)
Codec Tag: [27][0][0][0] (0x0000001b)
Picture Size: 1920x1080 (PAR 1:1, DAR 16:9)
Frame Rate: 25.00 fps
Bit Rate: 4,272 kbps
[Audio]
Codec: AAC (AAC (Advanced Audio Coding))
Channels: Stereo
Sample Rate: 48,000 Hz
Sample Data Format: 32 bits (Float)
Bit Rate: 199 kbps
Скриншоты:
       

RazBoyNik

Post 15-Jul-2019 10:25

[Quote]

Человек и львы (История одного сафари) / The Lion Man: One World African Safari (2013) HDTVRip [H.264/720p-LQ] (серии 1-10 из 10) - Год выпуска: 2013
Страна: США, One World Pictures, New Visions Pictures, Animal Planet
Жанр: Документальный, природа, флора, фауна
Режиссер: Грэм Свейнпол
Участники: Крейг Буш
Описание:
Крейг Буш вырос на ферме и сам научился всем премудростям общения с большими кошками. Крейг помогает ловить браконьеров и бороться с лесными пожарами. В заповеднике под Йоханнесбургом он создал рай для редких представителей кошачьих: белых бенгальских тигров, барбарийских львов и белых львов. Крейг Буш вместе с группой энтузиастов, посвятивших свою жизнь животным, ищет пропавших гепардов, лечит безнадёжно больных тигров, выслеживает безжалостных убийц-охотников на носорогов. Параллельно, он по всему миру собирает единомышленников (среди них и "человек-волк" Шон Эллис). Крейг взял к себе и выкормил осиротевшего белого львёнка по кличке Джабулла, поставил на ноги несколько барбарийских львят. Он ездит по миру, предлагая котят на обмен, чтобы улучшить генетику редчайших кошек, которых Крейг помог спасти от полного исчезновения.
Продолжительность: серии x ~ 00:22:00
Качество видео: HDTVRip
Перевод: Одноголосый закадровый, профессиональный (АРК-ТВ)
Субтитры: отсутствуют
Видео: AVC/H.264, 1280x720, ~4766 Kbps
Аудио: AC3, 6 ch, 384 Kbps (читает: А. Гаврилин, А. Целенков (5-я серия) )

Mediainfo: (тех. данные всех серий идентичны)

Общее
Уникальный идентификатор : 240128756246278856545646055123810152176 (0xB4A71DC05A419D71BC884226D8EA6EF0)
Полное имя : F:\КИНО\Человек и львы - история одного сафари\The Lionman - African Safari. Episode 05 (Rus-AC3, HDTVRip-720p, h264) [2013].mkv
Формат : Matroska
Версия формата : Version 4
Размер файла : 796 Мбайт
Продолжительность : 21 м. 38 с.
Общий поток : 5145 Кбит/сек
Название фильма : The Lionman - African Safari. Episode 05
Дата кодирования : UTC 2013-11-19 12:55:35
Программа кодирования : mkvmerge v6.5.0 ('Isn't she lovely') built on Oct 20 2013 12:50:05
Библиотека кодирования : libebml v1.3.0 + libmatroska v1.4.1
Видео
Идентификатор : 1
Формат : AVC
Формат/Информация : Advanced Video Codec
Профиль формата : High@L4
Настройки формата : CABAC / 4 Ref Frames
Параметр CABAC формата : Да
Параметр RefFrames формата : 4 кадра
Идентификатор кодека : V_MPEG4/ISO/AVC
Продолжительность : 21 м. 38 с.
Битрейт : 4766 Кбит/сек
Ширина : 1280 пикселей
Высота : 720 пикселей
Соотношение сторон : 16:9
Режим частоты кадров : Постоянный
Частота кадров : 25,000 кадров/сек
Цветовое пространство : YUV
Субдискретизация насыщенности : 4:2:0
Битовая глубина : 8 бит
Тип развёртки : Прогрессивная
Бит/(Пиксели*Кадры) : 0.207
Размер потока : 721 Мбайт (91%)
Заголовок : The Lionman - African Safari. Episode 05
Библиотека кодирования : x264 core 129 r2245 bc13772
Настройки программы : cabac=1 / ref=3 / deblock=1:0:0 / analyse=0x3:0x113 / me=umh / subme=10 / psy=1 / psy_rd=1.00:0.00 / mixed_ref=1 / me_range=26 / chroma_me=1 / trellis=2 / 8x8dct=1 / cqm=0 / deadzone=21,11 / fast_pskip=1 / chroma_qp_offset=-2 / threads=6 / lookahead_threads=1 / sliced_threads=0 / nr=0 / decimate=1 / interlaced=0 / bluray_compat=0 / constrained_intra=0 / bframes=3 / b_pyramid=2 / b_adapt=1 / b_bias=0 / direct=3 / weightb=1 / open_gop=0 / weightp=2 / keyint=250 / keyint_min=25 / scenecut=40 / intra_refresh=0 / rc_lookahead=40 / rc=2pass / mbtree=1 / bitrate=4766 / ratetol=1.0 / qcomp=0.60 / qpmin=0 / qpmax=69 / qpstep=4 / cplxblur=20.0 / qblur=0.5 / ip_ratio=1.40 / aq=1:1.00
Язык : English
Default : Да
Forced : Нет
Аудио
Идентификатор : 2
Формат : AC-3
Формат/Информация : Audio Coding 3
Коммерческое название : Dolby Digital
Идентификатор кодека : A_AC3
Продолжительность : 21 м. 38 с.
Вид битрейта : Постоянный
Битрейт : 384 Кбит/сек
Каналы : 6 каналов
Channel layout : L R C LFE Ls Rs
Частота : 48,0 КГц
Частота кадров : 31,250 кадров/сек (1536 SPF)
Битовая глубина : 16 бит
Метод сжатия : С потерями
Размер потока : 59,4 Мбайт (7%)
Заголовок : Александр Гаврилин
Язык : Russian
ServiceKind/String : Complete Main
Default : Да
Forced : Нет
Скриншоты:
       

RazBoyNik

Post 12-Jul-2019 15:01

[Quote]

Живой или вымерший. Яванский тигр / Extinct or Alive (2018) HDTV [H.264/1080i] - Год выпуска: 2018
Страна: США, Hot Snakes Media, Animal Planet
Жанр: Документальный, природа, флора, фауна
Режиссер: Форрест Галанте
Описание:
Что если вымершие животные на самом деле не вымерли? Биолог Форрест Галланте путешествует по земному шару и, вооружившись новейшими технологиями, ищет виды, которые мир уже прекратил искать. Поиски доказательств и свидетельств, благодаря которым, возможно, удастся выследить и вернуть к жизни животных, ошибочно считающихся исчезнувшими, приводят энтузиаста Форреста в далекие и иногда опасные места.
Форрест посещает остров Ява в Индонезии в поисках яванского тигра. Этот вид объявили вымершим в 2003 году, но недавно появились сообщения о том, что его видели.
Продолжительность: 00:43:33
Качество видео: HDTV
Перевод: Одноголосый закадровый, профессиональный
Субтитры: отсутствуют
Видео: AVC/H.264, 1920x1080, ~10,6 Mbps
Аудио#1: MP2, 2 ch, 192 Kbps | Русский
Аудио#2: MP2, 2 ch, 192 Kbps | Английский

Mediainfo:

Общее
Идентификатор : 1 (0x1)
Полное имя : F:\КИНО\Живой или вым. Яванский тигр 1080 (2018).ts
Формат : MPEG-TS
Размер файла : 3,53 Гбайт
Продолжительность : 43 м. 33 с.
Режим общего битрейта : Переменный
Общий поток : 11,6 Мбит/сек
Видео
Идентификатор : 1026 (0x402)
Идентификатор меню : 119 (0x77)
Формат : AVC
Формат/Информация : Advanced Video Codec
Профиль формата : High@L4
Настройки формата : CABAC / 4 Ref Frames
Параметр CABAC формата : Да
Параметр RefFrames формата : 4 кадра
Идентификатор кодека : 27
Продолжительность : 43 м. 33 с.
Битрейт : 10,6 Мбит/сек
Ширина : 1920 пикселей
Высота : 1080 пикселей
Соотношение сторон : 16:9
Частота кадров : 25,000 кадров/сек
Стандарт вещания : Component
Цветовое пространство : YUV
Субдискретизация насыщенности : 4:2:0
Битовая глубина : 8 бит
Тип развёртки : Чересстрочная
Метод сохранения типа развёртки : Раздельные поля
Порядок развёртки : Верхнее поле первое
Бит/(Пиксели*Кадры) : 0.205
Размер потока : 3,24 Гбайт (92%)
Цветовой диапазон : Limited
Основные цвета : BT.709
Характеристики трансфера : BT.709
Коэффициенты матрицы : BT.709
Аудио #1
Идентификатор : 1027 (0x403)
Идентификатор меню : 119 (0x77)
Формат : MPEG Audio
Версия формата : Version 1
Профиль формата : Layer 2
Идентификатор кодека : 3
Продолжительность : 43 м. 33 с.
Вид битрейта : Постоянный
Битрейт : 192 Кбит/сек
Каналы : 2 канала
Частота : 48,0 КГц
Частота кадров : 41,667 кадра/сек (1152 SPF)
Метод сжатия : С потерями
Задержка видео : -40 мс.
Размер потока : 59,8 Мбайт (2%)
Язык : Russian
Аудио #2
Идентификатор : 1028 (0x404)
Идентификатор меню : 119 (0x77)
Формат : MPEG Audio
Версия формата : Version 1
Профиль формата : Layer 2
Идентификатор кодека : 3
Продолжительность : 43 м. 33 с.
Вид битрейта : Постоянный
Битрейт : 192 Кбит/сек
Каналы : 2 канала
Частота : 48,0 КГц
Частота кадров : 41,667 кадра/сек (1152 SPF)
Метод сжатия : С потерями
Задержка видео : -40 мс.
Размер потока : 59,8 Мбайт (2%)
Язык : English
Скриншоты:
       

RazBoyNik

Post 12-Jul-2019 14:58

[Quote]

Жуткие, настоящие и странные / Weird, True & Freaky (2018) HDTVRip (Сезон 4, серии 1-10 из 10) - Год выпуска: 2018
Страна: США, Animal Planet
Жанр: Документальный, природа, фауна
Описание:
Столкновения с природой, которые обернулись дурной стороной. Вас ждут десять самых невероятных встреч с животными, заснятые на видео.
Продолжительность: серии x ~ 00:47:00
Качество видео: HDTVRip
Перевод: Одноголосый закадровый, профессиональный
Субтитры: отсутствуют
Видео: XviD, 720х400@720x406, ~1800 Kbps
Аудио: AC3, 2 ch, 128 Kbps

Mediainfo: (тех. данные всех серий идентичны)

Общее
Полное имя : F:\КИНО\Жуткие, настоящие 1400M (2018)\5 Жуткие, настоящие.avi
Формат : AVI
Формат/Информация : Audio Video Interleave
Размер файла : 652 Мбайт
Продолжительность : 46 м. 59 с.
Общий поток : 1939 Кбит/сек
Программа кодирования : Lavf57.71.100
Видео
Идентификатор : 0
Формат : MPEG-4 Visual
Профиль формата : Advanced Simple@L5
Настройки формата : BVOP1
Параметр BVOP формата : 1
Параметр QPel формата : Нет
Параметр GMC формата : Без точки перехода
Параметр матрицы формата : Default (H.263)
Идентификатор кодека : XVID
Идентификатор кодека/Подсказка : XviD
Продолжительность : 46 м. 59 с.
Битрейт : 1800 Кбит/сек
Ширина : 720 пикселей
Высота : 400 пикселей
Соотношение сторон : 16:9
Частота кадров : 25,000 кадров/сек
Цветовое пространство : YUV
Субдискретизация насыщенности : 4:2:0
Битовая глубина : 8 бит
Тип развёртки : Прогрессивная
Метод сжатия : С потерями
Бит/(Пиксели*Кадры) : 0.250
Размер потока : 605 Мбайт (93%)
Библиотека кодирования : XviD 67
Аудио
Идентификатор : 1
Формат : AC-3
Формат/Информация : Audio Coding 3
Коммерческое название : Dolby Digital
Идентификатор кодека : 2000
Продолжительность : 46 м. 59 с.
Вид битрейта : Постоянный
Битрейт : 128 Кбит/сек
Каналы : 2 канала
Channel layout : L R
Частота : 48,0 КГц
Частота кадров : 31,250 кадров/сек (1536 SPF)
Битовая глубина : 16 бит
Метод сжатия : С потерями
Размер потока : 43,0 Мбайт (7%)
Выравнивание : Соединение по промежуткам
Продолжительность промежутка : 32 мс. (0,80 видеокадр)
ServiceKind/String : Complete Main
Скриншоты:
       

RazBoyNik

Post 12-Jul-2019 14:52

[Quote]

Живой или вымерший. В поисках сумчатого волка / Extinct or Alive (2018) HDTV [H.264/1080i] - Год выпуска: 2018
Страна: США, Hot Snakes Media, Animal Planet
Жанр: Документальный, природа, флора, фауна
Режиссер: Форрест Галанте
Описание:
Что если вымершие животные на самом деле не вымерли? Биолог Форрест Галланте путешествует по земному шару и, вооружившись новейшими технологиями, ищет виды, которые мир уже прекратил искать. Поиски доказательств и свидетельств, благодаря которым, возможно, удастся выследить и вернуть к жизни животных, ошибочно считающихся исчезнувшими, приводят энтузиаста Форреста в далекие и иногда опасные места.
После многочисленных сообщений о встречах с сумчатым волком в Австралии, Форрест посещает полуостров Кейп-Йорк в поисках этого удивительного животного.
Продолжительность: 00:43:37
Качество видео: HDTV
Перевод: Одноголосый закадровый, профессиональный
Субтитры: отсутствуют
Видео: AVC/H.264, 1920x1080, ~10,7 Mbps
Аудио#1: MP2, 2 ch, 192 Kbps | Русский
Аудио#2: MP2, 2 ch, 192 Kbps | Английский

Mediainfo:

Общее
Идентификатор : 1 (0x1)
Полное имя : F:\КИНО\Живой или вым. В поисках сум. волка 1080 (2018).ts
Формат : MPEG-TS
Размер файла : 3,54 Гбайт
Продолжительность : 43 м. 38 с.
Режим общего битрейта : Переменный
Общий поток : 11,6 Мбит/сек
Видео
Идентификатор : 1026 (0x402)
Идентификатор меню : 119 (0x77)
Формат : AVC
Формат/Информация : Advanced Video Codec
Профиль формата : High@L4
Настройки формата : CABAC / 4 Ref Frames
Параметр CABAC формата : Да
Параметр RefFrames формата : 4 кадра
Идентификатор кодека : 27
Продолжительность : 43 м. 37 с.
Битрейт : 10,7 Мбит/сек
Ширина : 1920 пикселей
Высота : 1080 пикселей
Соотношение сторон : 16:9
Частота кадров : 25,000 кадров/сек
Стандарт вещания : Component
Цветовое пространство : YUV
Субдискретизация насыщенности : 4:2:0
Битовая глубина : 8 бит
Тип развёртки : Чересстрочная
Метод сохранения типа развёртки : Раздельные поля
Порядок развёртки : Верхнее поле первое
Бит/(Пиксели*Кадры) : 0.206
Размер потока : 3,25 Гбайт (92%)
Цветовой диапазон : Limited
Основные цвета : BT.709
Характеристики трансфера : BT.709
Коэффициенты матрицы : BT.709
Аудио #1
Идентификатор : 1027 (0x403)
Идентификатор меню : 119 (0x77)
Формат : MPEG Audio
Версия формата : Version 1
Профиль формата : Layer 2
Идентификатор кодека : 3
Продолжительность : 43 м. 37 с.
Вид битрейта : Постоянный
Битрейт : 192 Кбит/сек
Каналы : 2 канала
Частота : 48,0 КГц
Частота кадров : 41,667 кадра/сек (1152 SPF)
Метод сжатия : С потерями
Задержка видео : -40 мс.
Размер потока : 59,9 Мбайт (2%)
Язык : Russian
Аудио #2
Идентификатор : 1028 (0x404)
Идентификатор меню : 119 (0x77)
Формат : MPEG Audio
Версия формата : Version 1
Профиль формата : Layer 2
Идентификатор кодека : 3
Продолжительность : 43 м. 38 с.
Вид битрейта : Постоянный
Битрейт : 192 Кбит/сек
Каналы : 2 канала
Частота : 48,0 КГц
Частота кадров : 41,667 кадра/сек (1152 SPF)
Метод сжатия : С потерями
Задержка видео : -40 мс.
Размер потока : 59,9 Мбайт (2%)
Язык : English
Скриншоты:
       

RazBoyNik

Post 12-Jul-2019 14:47

[Quote]

Дикие реки Африки / Wild Africa. Rivers of Life (2016) HDTV [H.264/1080i] (Сезон 1, серии 7 из 7) - Год выпуска: 2016
Страна: Южная Африка, Lion Mountain Media, Warehouse 51 Productions, ZDF Enterprises, Animal Planet
Жанр: Документальный, природа, флора, фауна
Участники: Bray Poor
Описание:
Африка - не безжизненная пустыня. Ее земли питают реки, артерии черного континента. Животворящие потоки подстраиваются под ландшафт и формируют облик материка, пробегая по выжженным солнцем пустыням, пробивая дорогу через кустарниковые заросли, мирно журча по травянистым саваннам. Программа исследует, как река рождается и набирает силу, каким образом влияет на окружающую природу и как связывает людей и животных, населяющих её берега. Будь то Лимпопо с её засушливой долиной, Луангва - родина самой большой в мире популяции гиппопотамов, или же Замбези, протекающая по территории девяти африканских стран - у каждой реки есть своя история, которую может рассказать только она одна.
Продолжительность: 00:44:00
Качество видео: HDTV
Перевод: Дублированный
Субтитры: отсутствуют
Видео: AVC/H.264, 1920x1080, ~10,7 Mbps
Аудио#1: MP2, 2 ch, 192 Kbps | Русский
Аудио#2: MP2, 2 ch, 192 Kbps | Английский

Mediainfo: (тех. данные всех серий идентичны)

Общее
Идентификатор : 1 (0x1)
Полное имя : F:\КИНО\Дикие реки Африки 1080 (2016)\3 Дикие реки Африки.ts
Формат : MPEG-TS
Размер файла : 3,57 Гбайт
Продолжительность : 43 м. 59 с.
Режим общего битрейта : Переменный
Общий поток : 11,6 Мбит/сек
Видео
Идентификатор : 1026 (0x402)
Идентификатор меню : 119 (0x77)
Формат : AVC
Формат/Информация : Advanced Video Codec
Профиль формата : High@L4
Настройки формата : CABAC / 4 Ref Frames
Параметр CABAC формата : Да
Параметр RefFrames формата : 4 кадра
Идентификатор кодека : 27
Продолжительность : 43 м. 59 с.
Битрейт : 10,7 Мбит/сек
Ширина : 1920 пикселей
Высота : 1080 пикселей
Соотношение сторон : 16:9
Частота кадров : 25,000 кадров/сек
Стандарт вещания : Component
Цветовое пространство : YUV
Субдискретизация насыщенности : 4:2:0
Битовая глубина : 8 бит
Тип развёртки : Чересстрочная
Метод сохранения типа развёртки : Раздельные поля
Порядок развёртки : Верхнее поле первое
Бит/(Пиксели*Кадры) : 0.206
Размер потока : 3,27 Гбайт (92%)
Цветовой диапазон : Limited
Основные цвета : BT.709
Характеристики трансфера : BT.709
Коэффициенты матрицы : BT.709
Аудио #1
Идентификатор : 1027 (0x403)
Идентификатор меню : 119 (0x77)
Формат : MPEG Audio
Версия формата : Version 1
Профиль формата : Layer 2
Идентификатор кодека : 3
Продолжительность : 43 м. 59 с.
Вид битрейта : Постоянный
Битрейт : 192 Кбит/сек
Каналы : 2 канала
Частота : 48,0 КГц
Частота кадров : 41,667 кадра/сек (1152 SPF)
Метод сжатия : С потерями
Задержка видео : -40 мс.
Размер потока : 60,4 Мбайт (2%)
Язык : Russian
Аудио #2
Идентификатор : 1028 (0x404)
Идентификатор меню : 119 (0x77)
Формат : MPEG Audio
Версия формата : Version 1
Профиль формата : Layer 2
Идентификатор кодека : 3
Продолжительность : 43 м. 59 с.
Вид битрейта : Постоянный
Битрейт : 192 Кбит/сек
Каналы : 2 канала
Частота : 48,0 КГц
Частота кадров : 41,667 кадра/сек (1152 SPF)
Метод сжатия : С потерями
Задержка видео : -40 мс.
Размер потока : 60,4 Мбайт (2%)
Язык : English

Содержание:

1-я серия
Жизнь в бассейне реки Лимпопо - это вечная борьба за выживание. После окончания сильной засухи животные ждут разлива реки, но дожди запаздывают, и это настоящая беда для долины.
2-я серия
В краю, где со сменой сезонов условия экстремально меняются, река Луангва является центром жизни. Здесь обитает самая большая в мире популяция гиппопотамов.
3-я серия
Познакомьтесь с представителями животного и растительного миров, которые обитают на берегах африканских рек.
4-я серия
Дельта реки Окаванго - заболоченное место, окружённое засушливыми равнинами. Раз в год гигантский разлив затопляет болота и образует заливные луга - пристанище для диких животных.
5-я серия
Река Санд славится разнообразием животного мира. Но её обитателям непросто выживать и растить потомство в этом суровом африканском краю.
6-я серия
Протекая по территории девяти стран, река Замбези создаёт много уникальных экосистем. Как выживают животные, обитающие на ее берегах?
7-я серия
Древняя река Нил веками определяла облик Африки. Могучие нильские крокодилы, жирафы и шимпанзе взращивают свое потомство на ее берегах.
Скриншоты:
       

RazBoyNik

Post 11-Jul-2019 14:05

[Quote]

Animal Planet: Удивительный мир животных / How do Animals do That (2019) HDTVRip [H.264] (эпизоды 1-20) - Год выпуска: 2019
Страна: США, Animal Planet
Жанр: Документальный, природа, флора, фауна
Режиссер: Кети Бакланд, Гаретч Сакала
Описание:
Животные делают самые невероятные вещи, но задумывались ли вы когда-нибудь, как или почему? Ответы на самые острые вопросы мира природы. Например, как светлячки светятся в темноте? Как слоны слушают сквозь ноги? Почему собаки виляют хвостами? Всё, чтобы понять: как животные делают это?
Продолжительность: серии x ~ 00:22:00
Качество видео: HDTVRip
Перевод: Одноголосый закадровый, профессиональный
Субтитры: отсутствуют
Видео: AVC/H.264, 1024х576, ~3000 Kbps
Аудио: AC3, 2 ch, 192 Kbps

Mediainfo: (тех. данные всех серий идентичны)

Общее
Уникальный идентификатор : 34215615100709361218449819318919371344 (0x19BDB0119DDB64A2DF857E7C4D141A50)
Полное имя : F:\КИНО\Удивительный мир животных AVC (2019)\1 Удивительный мир животных.mkv
Формат : Matroska
Версия формата : Version 4
Размер файла : 501 Мбайт
Продолжительность : 21 м. 55 с.
Общий поток : 3196 Кбит/сек
Программа кодирования : XviD4PSP 7.0.468 DAILY
Библиотека кодирования : Lavf57.71.100
ErrorDetectionType : Per level 1
ENCODING_INFO : MPEGTS > MKV / H264 > X264 VBR-2P 3000kbps HQ / MP2 > AC3 CBR 192kbps
Видео
Идентификатор : 1
Формат : AVC
Формат/Информация : Advanced Video Codec
Профиль формата : [url=mailto:High@L3.1]High@L3.1[/url]
Настройки формата : CABAC / 4 Ref Frames
Параметр CABAC формата : Да
Параметр RefFrames формата : 4 кадра
Идентификатор кодека : V_MPEG4/ISO/AVC
Продолжительность : 21 м. 55 с.
Битрейт : 3000 Кбит/сек
Ширина : 1024 пикселя
Высота : 576 пикселей
Соотношение сторон : 16:9
Режим частоты кадров : Постоянный
Частота кадров : 25,000 кадров/сек
Цветовое пространство : YUV
Субдискретизация насыщенности : 4:2:0
Битовая глубина : 8 бит
Тип развёртки : Прогрессивная
Бит/(Пиксели*Кадры) : 0.203
Размер потока : 461 Мбайт (92%)
Библиотека кодирования : x264 core 157 r2935 545de2f
Настройки программы : cabac=1 / ref=3 / deblock=1:-1:-1 / analyse=0x3:0x133 / me=hex / subme=7 / psy=1 / psy_rd=1.00:0.20 / mixed_ref=1 / me_range=16 / chroma_me=1 / trellis=1 / 8x8dct=1 / cqm=0 / deadzone=21,11 / fast_pskip=1 / chroma_qp_offset=-3 / threads=9 / lookahead_threads=1 / sliced_threads=0 / nr=0 / decimate=1 / interlaced=0 / bluray_compat=0 / constrained_intra=0 / bframes=3 / b_pyramid=2 / b_adapt=2 / b_bias=0 / direct=3 / weightb=1 / open_gop=0 / weightp=2 / keyint=250 / keyint_min=25 / scenecut=40 / intra_refresh=0 / rc_lookahead=40 / rc=2pass / mbtree=1 / bitrate=3000 / ratetol=1.0 / qcomp=0.60 / qpmin=0 / qpmax=69 / qpstep=4 / cplxblur=20.0 / qblur=0.5 / ip_ratio=1.40 / aq=1:1.00
Default : Да
Forced : Нет
Цветовой диапазон : Limited
Основные цвета : BT.709
Характеристики трансфера : BT.709
Коэффициенты матрицы : BT.709
Аудио
Идентификатор : 2
Формат : AC-3
Формат/Информация : Audio Coding 3
Коммерческое название : Dolby Digital
Идентификатор кодека : A_AC3
Продолжительность : 21 м. 55 с.
Вид битрейта : Постоянный
Битрейт : 192 Кбит/сек
Каналы : 2 канала
Channel layout : L R
Частота : 48,0 КГц
Частота кадров : 31,250 кадров/сек (1536 SPF)
Битовая глубина : 16 бит
Метод сжатия : С потерями
Размер потока : 30,1 Мбайт (6%)
Язык : Russian
ServiceKind/String : Complete Main
Default : Да
Forced : Нет

Содержание:

1 Левитирующие ящерицы и бессмертные медузы
Новейшие научные данные раскрывают, почему и как ящерицы могут в буквальном смысле ходить по воде. А также, могут ли медузы жить вечно?
2 Сверхзвуковые совы и невидимые осьминоги
Орнитолог рассказывает, как амбарная сова ловит добычу, даже не видя её. И что делает осьминога мастером маскировки?
5 Ясновидящие кошки и пушистые выдры
Новейшие научные данные объясняют способность кошки предсказывать землетрясение за секунды до его начала. И как морские выдры сохраняют тепло в ледяной воде?
6 Хобот слона и древние животные
Новейшие научные данные раскрывают интересные факты о хоботе слонов. А так же, почему кошки мурлычут и кого из животных можно назвать долгожителями?
7 Суперумные дельфины и голодные гиены
Так ли умны дельфины, как считается? Как гиены едят свою добычу вместе с костями? И как гекконы бросают вызов гравитации?
8 Космические жуки и ментальные карты белок
Любят ли аллигаторы музыку? Как белки могут прятать до 10 000 орехов за один сезон и при этом находить большинство из них? И может ли микроорганизм выжить в космосе?
9 Летучие мыши и слизни
Как стаи слепых летучих мышей избегают столкновений? Действительно ли мыши любят сыр? Что делает газы в кишечнике ламантинов такими особенными? И почему слизни такие скользкие?
10 Горбатые киты и пауки
Эксперты изучают, каким образом горбатые киты выпрыгивают так далеко из воды. Почему собаки наклоняют головы? От чего животные собираются в стаи? И как пауки сбрасывают кожу?
11-я серия
С помощью интересного эксперимента ученые проверяют, умнее ли дикие волки домашних собак. А также, могут ли пауки летать? И как белые медведи сохраняют тепло?
12-я серия
Эксперты выясняют, почему тонущие муравьи не тонут, почему у дятлов не болит голова, и как 4,5-метровый осьминог проникает сквозь отверстие в 7 сантиметров?
13-я серия
Многие животные обладают уникальными и удивительными способностями. Новые научные данные и захватывающие съемки позволят разгадать тайны мира животных.
14-я серия
Многие животные обладают уникальными и удивительными способностями. Новые научные данные и захватывающие съемки позволят разгадать тайны мира животных.
Скриншоты:
       

RazBoyNik

Post 11-Jul-2019 14:00

[Quote]

Герои среди нас / Dodo Heroes (2018) HDTV [H.264/1080i] (cерии 6 из 6) - Год выпуска: 2018
Страна: США, Nomadic Films, Animal Planet
Жанр: Документальный, природа, флора, фауна
Продюсер: Кейт Хоффман
Описание:
Вдохновитесь примером отважных людей, которые спасают животных. Они делают всё возможное, выручая из беды братьев наших меньших. Познакомьтесь с настоящими героями!
Продолжительность: серии x ~00:44:00
Качество видео: HDTV
Перевод: Одноголосый закадровый, профессиональный
Субтитры: отсутствуют
Видео: AVC/H.264, 1920x1080, ~10,6 Mbps
Аудио#1: MP2, 2 ch, 192 Kbps | Русский
Аудио#2: MP2, 2 ch, 192 Kbps | Английский

Mediainfo: (тех. данные всех серий идентичны)

Общее
Идентификатор : 1 (0x1)
Полное имя : F:\КИНО\Герои среди нас 1080 (2018)\2 Герои среди нас.ts
Формат : MPEG-TS
Размер файла : 3,56 Гбайт
Продолжительность : 43 м. 57 с.
Режим общего битрейта : Переменный
Общий поток : 11,6 Мбит/сек
Видео
Идентификатор : 1026 (0x402)
Идентификатор меню : 119 (0x77)
Формат : AVC
Формат/Информация : Advanced Video Codec
Профиль формата : High@L4
Настройки формата : CABAC / 4 Ref Frames
Параметр CABAC формата : Да
Параметр RefFrames формата : 4 кадра
Идентификатор кодека : 27
Продолжительность : 43 м. 57 с.
Битрейт : 10,6 Мбит/сек
Ширина : 1920 пикселей
Высота : 1080 пикселей
Соотношение сторон : 16:9
Частота кадров : 25,000 кадров/сек
Стандарт вещания : Component
Цветовое пространство : YUV
Субдискретизация насыщенности : 4:2:0
Битовая глубина : 8 бит
Тип развёртки : Чересстрочная
Метод сохранения типа развёртки : Раздельные поля
Порядок развёртки : Верхнее поле первое
Бит/(Пиксели*Кадры) : 0.205
Размер потока : 3,27 Гбайт (92%)
Цветовой диапазон : Limited
Основные цвета : BT.709
Характеристики трансфера : BT.709
Коэффициенты матрицы : BT.709
Аудио #1
Идентификатор : 1027 (0x403)
Идентификатор меню : 119 (0x77)
Формат : MPEG Audio
Версия формата : Version 1
Профиль формата : Layer 2
Идентификатор кодека : 3
Продолжительность : 43 м. 57 с.
Вид битрейта : Постоянный
Битрейт : 192 Кбит/сек
Каналы : 2 канала
Частота : 48,0 КГц
Частота кадров : 41,667 кадра/сек (1152 SPF)
Метод сжатия : С потерями
Задержка видео : -80 мс.
Размер потока : 60,4 Мбайт (2%)
Язык : Russian
Аудио #2
Идентификатор : 1028 (0x404)
Идентификатор меню : 119 (0x77)
Формат : MPEG Audio
Версия формата : Version 1
Профиль формата : Layer 2
Идентификатор кодека : 3
Продолжительность : 43 м. 57 с.
Вид битрейта : Постоянный
Битрейт : 192 Кбит/сек
Каналы : 2 канала
Частота : 48,0 КГц
Частота кадров : 41,667 кадра/сек (1152 SPF)
Метод сжатия : С потерями
Задержка видео : -80 мс.
Размер потока : 60,4 Мбайт (2%)
Язык : English

Содержание:

1 Псы войны
Бывший десантник из Англии Пен Фартинг организовал единственный в Афганистане официальный приют для животных. Он намерен передать шесть собак спасшему их солдату в Техасе.
2 Одинокий шимпанзе
Специалист Эстель Рабалланд ищет подругу для "самого одинокого в мире шимпанзе" по кличке Понзо. Сможет ли она найти ему пару?
3 Протез для слона
Вы увидите, как ветеринар-ортопед Деррик Кампана создает уникальные протезы для самых разных, больших и маленьких, животных.
4 Величайшее шоу мира
Международное общество "Защитники животных" способствовало запрету цирковых представлений с животными в 40 странах. Но в Перу их ждёт самая трудная спасательная операция.
5 Заклинательница коал
Семья, занимающаяся спасением животных в Австралии, целый год выхаживала спасенного детеныша коалы по кличке Крикей, и теперь пришло время выпустить его в дикую природу.
6 Рай для слонов
Кэтрин Коннор содержит приют для слонов в Таиланде. Она хочет спасти пожилую слониху и навсегда избавить ее от цепей.
Скриншоты:
       

RazBoyNik

Post 11-Jul-2019 13:46

[Quote]

Амба, русский тигр / Amba the Russian Tiger (2008) HDTV [H.264/1080p-LQ] - Год выпуска: 2008
Страна: США, Animal Planet International
Жанр: Документальный, природа, флора, фауна
Режиссер: Сарита Уилкинсон
Описание:
Оператор-анималист Гордон Бьюканан отправляется во Владивосток, а оттуда - в Уссурийский край, чтобы познакомить весь мир с тайнами, которые хранит уссурийская тайга, и встретиться с грозным и царственным хозяином здешних мест, амурским тигром. Гордону в его поисках помогают местные жители, охотники, лесники, биологи. С каждым найденным на снегу отпечатком тигриной лапы кажется, что между деревьями вот-вот мелькнет грациозный черно-рыжий силуэт, но с каждым днем надежда на встречу становится все меньше. Удастся ли Гордону исполнить заветную мечту и встретиться с хозяином уссурийской тайги Амбой, как называют тигра в этих краях?
Продолжительность: 00:44:59
Качество видео: HDTV
Перевод: Одноголосый закадровый, профессиональный
Субтитры: отсутствуют
Видео: AVC/H.264, 1920x1080, ~6591 Kbps
Аудио: AAC, 2 ch, 256 Kbps

Mediainfo:

Общее
Уникальный идентификатор : 163229125298449393532800068609032626990 (0x7ACCC938A972468F9851727485C4A32E)
Полное имя : F:\КИНО\Amba the Russian Tiger.mkv
Формат : Matroska
Версия формата : Version 4
Размер файла : 2,15 Гбайт
Продолжительность : 44 м. 59 с.
Общий поток : 6851 Кбит/сек
Дата кодирования : UTC 2019-07-09 14:42:38
Программа кодирования : mkvmerge v35.0.0 ('All The Love In The World') 64-bit
Библиотека кодирования : libebml v1.3.9 + libmatroska v1.5.2
Видео
Идентификатор : 1
Формат : MPEG-4 Visual
Профиль формата : Simple@L1
Параметр BVOP формата : Нет
Параметр QPel формата : Нет
Параметр GMC формата : Без точки перехода
Параметр матрицы формата : Default (H.263)
Идентификатор кодека : V_MS/VFW/FOURCC / DIVX
Идентификатор кодека/Информация : Project Mayo
Идентификатор кодека/Подсказка : DivX 4
Продолжительность : 44 м. 59 с.
Битрейт : 6591 Кбит/сек
Ширина : 1920 пикселей
Высота : 1080 пикселей
Соотношение сторон : 16:9
Режим частоты кадров : Постоянный
Частота кадров : 25,000 кадров/сек
Цветовое пространство : YUV
Субдискретизация насыщенности : 4:2:0
Битовая глубина : 8 бит
Тип развёртки : Прогрессивная
Метод сжатия : С потерями
Бит/(Пиксели*Кадры) : 0.127
Размер потока : 2,07 Гбайт (96%)
Библиотека кодирования : Lavc56.26.100
Default : Да
Forced : Нет
Аудио
Идентификатор : 2
Формат : AAC LC
Формат/Информация : Advanced Audio Codec Low Complexity
Идентификатор кодека : A_AAC-2
Продолжительность : 44 м. 59 с.
Битрейт : 256 Кбит/сек
Каналы : 2 канала
ChannelLayout : L R
Частота : 48,0 КГц
Частота кадров : 46,875 кадров/сек (1024 SPF)
Метод сжатия : С потерями
Задержка видео : -21 мс.
Размер потока : 82,5 Мбайт (4%)
Язык : Russian
Default : Да
Forced : Нет
Скриншоты:
       

RazBoyNik

Post 09-Jul-2019 08:42

[Quote]

В дикие края с Эваном. Киты и акулы / Evan Goes Wild (2019) HDTV [H.264/1080i] - Год выпуска: 2019
Страна: США, Industrial Media, Animal Planet
Жанр: Документальный, исследование, фауна
Описание:
Ветеринар Эван Энтин путешествует по миру, спасает и лечит диких зверей. Пусть он родился в Канзасе, но его любовь к братьям нашим меньшим не знает границ, и у него есть длинный список животных, которых он мечтает увидеть в их естественной среде обитания.
Прибыв на остров Таити, Эван отправляется плавать с горбатыми китами. Также он помогает собрать образцы ДНК желтых акул и спасает выводок брошенных котят.
Продолжительность: 00:43:51
Качество видео: HDTV
Перевод: Двуголосый закадровый, профессиональный
Субтитры: отсутствуют
Видео: AVC/H.264, 1920x1080, ~10,7 Mbps
Аудио#1: MP2, 2 ch, 192 Kbps | Русский
Аудио#2: MP2, 2 ch, 192 Kbps | Английский

Mediainfo:

Общее
Идентификатор : 1 (0x1)
Полное имя : F:\КИНО\В дикие кр. с Эваном. Киты и акулы 1080 (2019).ts
Формат : MPEG-TS
Размер файла : 3,56 Гбайт
Продолжительность : 43 м. 51 с.
Режим общего битрейта : Переменный
Общий поток : 11,6 Мбит/сек
Видео
Идентификатор : 1026 (0x402)
Идентификатор меню : 119 (0x77)
Формат : AVC
Формат/Информация : Advanced Video Codec
Профиль формата : High@L4
Настройки формата : CABAC / 4 Ref Frames
Параметр CABAC формата : Да
Параметр RefFrames формата : 4 кадра
Идентификатор кодека : 27
Продолжительность : 43 м. 51 с.
Битрейт : 10,7 Мбит/сек
Ширина : 1920 пикселей
Высота : 1080 пикселей
Соотношение сторон : 16:9
Частота кадров : 25,000 кадров/сек
Стандарт вещания : Component
Цветовое пространство : YUV
Субдискретизация насыщенности : 4:2:0
Битовая глубина : 8 бит
Тип развёртки : Чересстрочная
Метод сохранения типа развёртки : Раздельные поля
Порядок развёртки : Верхнее поле первое
Бит/(Пиксели*Кадры) : 0.206
Размер потока : 3,26 Гбайт (92%)
Цветовой диапазон : Limited
Основные цвета : BT.709
Характеристики трансфера : BT.709
Коэффициенты матрицы : BT.709
Аудио #1
Идентификатор : 1027 (0x403)
Идентификатор меню : 119 (0x77)
Формат : MPEG Audio
Версия формата : Version 1
Профиль формата : Layer 2
Идентификатор кодека : 3
Продолжительность : 43 м. 51 с.
Вид битрейта : Постоянный
Битрейт : 192 Кбит/сек
Каналы : 2 канала
Частота : 48,0 КГц
Частота кадров : 41,667 кадра/сек (1152 SPF)
Метод сжатия : С потерями
Задержка видео : -80 мс.
Размер потока : 60,2 Мбайт (2%)
Язык : Russian
Аудио #2
Идентификатор : 1028 (0x404)
Идентификатор меню : 119 (0x77)
Формат : MPEG Audio
Версия формата : Version 1
Профиль формата : Layer 2
Идентификатор кодека : 3
Продолжительность : 43 м. 51 с.
Вид битрейта : Постоянный
Битрейт : 192 Кбит/сек
Каналы : 2 канала
Частота : 48,0 КГц
Частота кадров : 41,667 кадра/сек (1152 SPF)
Метод сжатия : С потерями
Задержка видео : -80 мс.
Размер потока : 60,2 Мбайт (2%)
Язык : English
Скриншоты:
       

RazBoyNik

Post 09-Jul-2019 08:39

[Quote]

В дикие края с Эваном. Спасение детеныша бинтуронга / Evan Goes Wild (2019) HDTV [H.264/1080i] - Год выпуска: 2019
Страна: США, Industrial Media, Animal Planet
Жанр: Документальный, исследование, фауна
Описание:
Ветеринар Эван Энтин путешествует по миру, спасает и лечит диких зверей. Пусть он родился в Канзасе, но его любовь к братьям нашим меньшим не знает границ, и у него есть длинный список животных, которых он мечтает увидеть в их естественной среде обитания.
Эван спасает осиротевших детенышей бинтуронга, встречает питонов и крокодилов на своем пути и имеет дело с полосатым вараном на острове Палаван на Филиппинах.
Продолжительность: 00:43:46
Качество видео: HDTV
Перевод: Двуголосый закадровый, профессиональный
Субтитры: отсутствуют
Видео: AVC/H.264, 1920x1080, ~10,6 Mbps
Аудио#1: MP2, 2 ch, 192 Kbps | Русский
Аудио#2: MP2, 2 ch, 192 Kbps | Английский

Mediainfo:

Общее
Идентификатор : 1 (0x1)
Полное имя : F:\КИНО\В дикие кр. с Эваном. Спасен. дет. бинт. 1080 (2019).ts
Формат : MPEG-TS
Размер файла : 3,55 Гбайт
Продолжительность : 43 м. 46 с.
Режим общего битрейта : Переменный
Общий поток : 11,6 Мбит/сек
Видео
Идентификатор : 1026 (0x402)
Идентификатор меню : 119 (0x77)
Формат : AVC
Формат/Информация : Advanced Video Codec
Профиль формата : High@L4
Настройки формата : CABAC / 4 Ref Frames
Параметр CABAC формата : Да
Параметр RefFrames формата : 4 кадра
Идентификатор кодека : 27
Продолжительность : 43 м. 46 с.
Битрейт : 10,6 Мбит/сек
Ширина : 1920 пикселей
Высота : 1080 пикселей
Соотношение сторон : 16:9
Частота кадров : 25,000 кадров/сек
Стандарт вещания : Component
Цветовое пространство : YUV
Субдискретизация насыщенности : 4:2:0
Битовая глубина : 8 бит
Тип развёртки : Чересстрочная
Метод сохранения типа развёртки : Раздельные поля
Порядок развёртки : Верхнее поле первое
Бит/(Пиксели*Кадры) : 0.205
Размер потока : 3,26 Гбайт (92%)
Цветовой диапазон : Limited
Основные цвета : BT.709
Характеристики трансфера : BT.709
Коэффициенты матрицы : BT.709
Аудио #1
Идентификатор : 1027 (0x403)
Идентификатор меню : 119 (0x77)
Формат : MPEG Audio
Версия формата : Version 1
Профиль формата : Layer 2
Идентификатор кодека : 3
Продолжительность : 43 м. 46 с.
Вид битрейта : Постоянный
Битрейт : 192 Кбит/сек
Каналы : 2 канала
Частота : 48,0 КГц
Частота кадров : 41,667 кадра/сек (1152 SPF)
Метод сжатия : С потерями
Размер потока : 60,1 Мбайт (2%)
Язык : Russian
Аудио #2
Идентификатор : 1028 (0x404)
Идентификатор меню : 119 (0x77)
Формат : MPEG Audio
Версия формата : Version 1
Профиль формата : Layer 2
Идентификатор кодека : 3
Продолжительность : 43 м. 46 с.
Вид битрейта : Постоянный
Битрейт : 192 Кбит/сек
Каналы : 2 канала
Частота : 48,0 КГц
Частота кадров : 41,667 кадра/сек (1152 SPF)
Метод сжатия : С потерями
Размер потока : 60,1 Мбайт (2%)
Язык : English
Скриншоты:
       

RazBoyNik

Post 09-Jul-2019 08:35

[Quote]

В дикие края с Эваном. Приключения Непальского слона / Evan Goes Wild (2019) HDTV [H.264/1080i] - Год выпуска: 2019
Страна: США, Industrial Media, Animal Planet
Жанр: Документальный, исследование, фауна
Описание:
Ветеринар Эван Энтин путешествует по миру, спасает и лечит диких зверей. Пусть он родился в Канзасе, но его любовь к братьям нашим меньшим не знает границ, и у него есть длинный список животных, которых он мечтает увидеть в их естественной среде обитания.
Доктор Эван Энтин путешествует по миру, спасает и изучает диких животных. Основное внимание он уделяет лечению зверей от инфекций и травм.
Продолжительность: 00:43:44
Качество видео: HDTV
Перевод: Двуголосый закадровый, профессиональный
Субтитры: отсутствуют
Видео: AVC/H.264, 1920x1080, ~10,7 Mbps
Аудио#1: MP2, 2 ch, 192 Kbps | Русский
Аудио#2: MP2, 2 ch, 192 Kbps | Английский

Mediainfo:

Общее
Идентификатор : 1 (0x1)
Полное имя : F:\КИНО\В дикие кр. с Эваном. Прикл. Непал. слона 1080 (2019).ts
Формат : MPEG-TS
Размер файла : 3,55 Гбайт
Продолжительность : 43 м. 44 с.
Режим общего битрейта : Переменный
Общий поток : 11,6 Мбит/сек
Видео
Идентификатор : 1026 (0x402)
Идентификатор меню : 119 (0x77)
Формат : AVC
Формат/Информация : Advanced Video Codec
Профиль формата : High@L4
Настройки формата : CABAC / 4 Ref Frames
Параметр CABAC формата : Да
Параметр RefFrames формата : 4 кадра
Идентификатор кодека : 27
Продолжительность : 43 м. 44 с.
Битрейт : 10,7 Мбит/сек
Ширина : 1920 пикселей
Высота : 1080 пикселей
Соотношение сторон : 16:9
Частота кадров : 25,000 кадров/сек
Стандарт вещания : Component
Цветовое пространство : YUV
Субдискретизация насыщенности : 4:2:0
Битовая глубина : 8 бит
Тип развёртки : Чересстрочная
Метод сохранения типа развёртки : Раздельные поля
Порядок развёртки : Верхнее поле первое
Бит/(Пиксели*Кадры) : 0.206
Размер потока : 3,26 Гбайт (92%)
Цветовой диапазон : Limited
Основные цвета : BT.709
Характеристики трансфера : BT.709
Коэффициенты матрицы : BT.709
Аудио #1
Идентификатор : 1027 (0x403)
Идентификатор меню : 119 (0x77)
Формат : MPEG Audio
Версия формата : Version 1
Профиль формата : Layer 2
Идентификатор кодека : 3
Продолжительность : 43 м. 44 с.
Вид битрейта : Постоянный
Битрейт : 192 Кбит/сек
Каналы : 2 канала
Частота : 48,0 КГц
Частота кадров : 41,667 кадра/сек (1152 SPF)
Метод сжатия : С потерями
Задержка видео : -80 мс.
Размер потока : 60,1 Мбайт (2%)
Язык : Russian
Аудио #2
Идентификатор : 1028 (0x404)
Идентификатор меню : 119 (0x77)
Формат : MPEG Audio
Версия формата : Version 1
Профиль формата : Layer 2
Идентификатор кодека : 3
Продолжительность : 43 м. 44 с.
Вид битрейта : Постоянный
Битрейт : 192 Кбит/сек
Каналы : 2 канала
Частота : 48,0 КГц
Частота кадров : 41,667 кадра/сек (1152 SPF)
Метод сжатия : С потерями
Задержка видео : -80 мс.
Размер потока : 60,1 Мбайт (2%)
Язык : English
Скриншоты:
       

RazBoyNik

Post 08-Jul-2019 08:35

[Quote]

В дикие края с Эваном. Лечение носорога / Evan Goes Wild (2019) HDTV [H.264/1080i] - Год выпуска: 2019
Страна: США, Industrial Media, Animal Planet
Жанр: Документальный, исследование, фауна
Описание:
Ветеринар Эван Энтин путешествует по миру, спасает и лечит диких зверей. Пусть он родился в Канзасе, но его любовь к братьям нашим меньшим не знает границ, и у него есть длинный список животных, которых он мечтает увидеть в их естественной среде обитания.
В Мексике Эван обследует ягуара, лечит крокодила от травм и пытается поймать диких фламинго, чтобы пометить их для исследования.
Продолжительность: 00:44:00
Качество видео: HDTV
Перевод: Двуголосый закадровый, профессиональный
Субтитры: отсутствуют
Видео: AVC/H.264, 1920x1080, ~10,7 Mbps
Аудио#1: MP2, 2 ch, 192 Kbps | Русский
Аудио#2: MP2, 2 ch, 192 Kbps | Английский

Mediainfo:

Общее
Идентификатор : 1 (0x1)
Полное имя : F:\КИНО\В дикие кр. с Эваном. Лечение носорога 1080 (2019).ts
Формат : MPEG-TS
Размер файла : 3,57 Гбайт
Продолжительность : 44 м. 0 с.
Режим общего битрейта : Переменный
Общий поток : 11,6 Мбит/сек
Видео
Идентификатор : 1026 (0x402)
Идентификатор меню : 119 (0x77)
Формат : AVC
Формат/Информация : Advanced Video Codec
Профиль формата : High@L4
Настройки формата : CABAC / 4 Ref Frames
Параметр CABAC формата : Да
Параметр RefFrames формата : 4 кадра
Идентификатор кодека : 27
Продолжительность : 44 м. 0 с.
Битрейт : 10,7 Мбит/сек
Ширина : 1920 пикселей
Высота : 1080 пикселей
Соотношение сторон : 16:9
Частота кадров : 25,000 кадров/сек
Стандарт вещания : Component
Цветовое пространство : YUV
Субдискретизация насыщенности : 4:2:0
Битовая глубина : 8 бит
Тип развёртки : Чересстрочная
Метод сохранения типа развёртки : Раздельные поля
Порядок развёртки : Верхнее поле первое
Бит/(Пиксели*Кадры) : 0.206
Размер потока : 3,28 Гбайт (92%)
Цветовой диапазон : Limited
Основные цвета : BT.709
Характеристики трансфера : BT.709
Коэффициенты матрицы : BT.709
Аудио #1
Идентификатор : 1027 (0x403)
Идентификатор меню : 119 (0x77)
Формат : MPEG Audio
Версия формата : Version 1
Профиль формата : Layer 2
Идентификатор кодека : 3
Продолжительность : 44 м. 0 с.
Вид битрейта : Постоянный
Битрейт : 192 Кбит/сек
Каналы : 2 канала
Частота : 48,0 КГц
Частота кадров : 41,667 кадра/сек (1152 SPF)
Метод сжатия : С потерями
Задержка видео : -40 мс.
Размер потока : 60,4 Мбайт (2%)
Язык : Russian
Аудио #2
Идентификатор : 1028 (0x404)
Идентификатор меню : 119 (0x77)
Формат : MPEG Audio
Версия формата : Version 1
Профиль формата : Layer 2
Идентификатор кодека : 3
Продолжительность : 44 м. 0 с.
Вид битрейта : Постоянный
Битрейт : 192 Кбит/сек
Каналы : 2 канала
Частота : 48,0 КГц
Частота кадров : 41,667 кадра/сек (1152 SPF)
Метод сжатия : С потерями
Задержка видео : -40 мс.
Размер потока : 60,4 Мбайт (2%)
Язык : English
Скриншоты:
       
 

The time now is: Today 13:58

All times are GMT + 3 Hours