Today is a free download without charge Download

Search found 500 matches

Author Message

Theseus

Post 21-Feb-2021 13:39

[Quote]

Охотник на монстров / Monster Hunter-Год выхода: 2020
Страна: США, Китай, Германия, Япония
Жанр: фэнтези, боевик, приключения
Продолжительность: 01:43:08
Перевод: Профессиональный дублированный | Чистый звук
Субтитры: Русские (2 x Forced, full) | внешние-Режиссер: Пол У. С. Андерсон-В ролях: Милла Йовович, Тони Джа, Джош Хелман, Ти-Ай, Джин О-Юн, Миган Гуд, Николас Расенти, Рон Перлман, Диего Бонета, Хирона Ямадзаки-О фильме: Параллельно нашему миру существует иной: мир, где правят крайне опасные и наделенные невероятной силой монстры, яростно оберегающие свои владения от чужаков. Именно сюда через пространственный портал попадают лейтенант Артемис и ее отряд элитных бойцов. И теперь им предстоит проверить себя на прочность перед лицом невиданной ранее угрозы. В попытке выжить и найти дорогу домой, Артемис объединяет силы с таинственным Охотником, который научился выживать в этих враждебных землях. Вместе героям предстоит вступить в беспощадную схватку с монстрами, не знающими страха и жалости.- -Качество: HDRip
Формат: AVI
Видео кодек: XviD
Аудио кодек: AC3
Видео: MPEG4, XviD, 720x304 (2.35:1), 23.976 fps, 1 827 kb/s
Аудио: AC3, 48.0 kHz, 2 ch, 192 kb/s-Рекламы нет | Сэмпл-Релиз - Theseus-

MI

Код:
General
Complete name                            : Monster.Hunter.2020.HDRip.avi
Format                                   : AVI
Format/Info                              : Audio Video Interleave
File size                                : 1.46 GiB
Duration                                 : 1 h 43 min
Overall bit rate                         : 2 030 kb/s
Video
ID                                       : 0
Format                                   : MPEG-4 Visual
Format profile                           : Advanced Simple@L5
Format settings                          : BVOP2 / Custom Matrix
Format settings, BVOP                    : 2
Format settings, QPel                    : No
Format settings, GMC                     : No warppoints
Format settings, Matrix                  : Custom
Codec ID                                 : XVID
Codec ID/Hint                            : XviD
Duration                                 : 1 h 43 min
Bit rate                                 : 1 827 kb/s
Width                                    : 720 pixels
Height                                   : 304 pixels
Display aspect ratio                     : 2.35:1
Frame rate                               : 23.976 (24000/1001) FPS
Color space                              : YUV
Chroma subsampling                       : 4:2:0
Bit depth                                : 8 bits
Scan type                                : Progressive
Compression mode                         : Lossy
Bits/(Pixel*Frame)                       : 0.348
Stream size                              : 1.32 GiB (90%)
Writing library                          : XviD 69
Audio
ID                                       : 1
Format                                   : AC-3
Format/Info                              : Audio Coding 3
Commercial name                          : Dolby Digital
Codec ID                                 : 2000
Duration                                 : 1 h 43 min
Bit rate mode                            : Constant
Bit rate                                 : 192 kb/s
Channel(s)                               : 2 channels
Channel layout                           : L R
Sampling rate                            : 48.0 kHz
Frame rate                               : 31.250 FPS (1536 SPF)
Bit depth                                : 16 bits
Compression mode                         : Lossy
Stream size                              : 142 MiB (9%)
Alignment                                : Aligned on interleaves
Interleave, duration                     : 32  ms (0.77 video frame)
Service kind                             : Complete Main

Трейлер

-    - -

}{@R0N

Post 16-Feb-2021 20:36

[Quote]

Охотник на монстров / Monster Hunter - Производство: США, Китай, Германия, Япония, Constantin Film, Impact Pictures, Capcom Company
Жанр: Фэнтези, боевик, приключения
Режиссер: Пол У. С. Андерсон
Актеры: Милла Йовович, Тони Джа, Джош Хелман, Ти-Ай, Джин О-Юн, Миган Гуд, Николас Расенти, Рон Перлман, Диего Бонета, Хирона Ямадзаки
Описание:
Параллельно нашему миру существует иной: мир, где правят крайне опасные и наделенные невероятной силой монстры, яростно оберегающие свои владения от чужаков. Именно сюда через пространственный портал попадают лейтенант Артемис и ее отряд элитных бойцов. И теперь им предстоит проверить себя на прочность перед лицом невиданной ранее угрозы. В попытке выжить и найти дорогу домой, Артемис объединяет силы с таинственным Охотником, который научился выживать в этих враждебных землях. Вместе героям предстоит вступить в беспощадную схватку с монстрами, не знающими страха и жалости.

Возраст: 16+ (зрителям, достигшим 16 лет)
Рейтинг MPAA: PG-13 (детям до 13 лет просмотр нежелателен)
Дата мировой премьеры: 3 декабря 2020
Дата российской премьеры: 28 января 2021
Релиз от: BadBajo
Продолжительность: 01:43:06
Качество видео: WEB-DL Сэмпл
Перевод: Авторский (BadBajo)
Субтитры: Английские
Видео: AVC/H.264, 1920x800, ~8 132 Kbps
Аудио 1: AC3, 6 ch, 640 Kbps - Русский (BadBajo)
Аудио 2: Е-AC3, 6 ch, 640 Kbps - Английский

MediaInfo:

General
Unique ID : 73521248087912134612878449980569248887 (0x374FAD651D1E4631A4E55DC17F976477)
Complete name : G:\Downloads\Monster.Hunter.2020\Monster.Hunter.2020.AC3_rus_BadBajo.mkv
Format : Matroska
Format version : Version 4
File size : 6.78 GiB
Duration : 1 h 43 min
Overall bit rate : 9 415 kb/s
Movie name : Monster.Hunter.2020.AC3_rus_BadBajo
Encoded date : UTC 2021-02-16 14:06:59
Writing application : mkvmerge v42.0.0 ('Overtime') 64-bit
Writing library : libebml v1.3.10 + libmatroska v1.5.2
Cover : Yes
Attachments : cover.jpg / small_cover.jpg
Video
ID : 1
Format : AVC
Format/Info : Advanced Video Codec
Format profile : High@L4
Format settings : CABAC / 4 Ref Frames
Format settings, CABAC : Yes
Format settings, Reference : 4 frames
Codec ID : V_MPEG4/ISO/AVC
Duration : 1 h 43 min
Bit rate mode : Constant
Bit rate : 8 132 kb/s
Nominal bit rate : 10 000 kb/s
Width : 1 920 pixels
Height : 800 pixels
Display aspect ratio : 2.40:1
Frame rate mode : Constant
Frame rate : 23.976 (24000/1001) FPS
Color space : YUV
Chroma subsampling : 4:2:0
Bit depth : 8 bits
Scan type : Progressive
Bits/(Pixel*Frame) : 0.221
Stream size : 5.86 GiB (86%)
Default : Yes
Forced : No
Color range : Limited
Color primaries : BT.709
Transfer characteristics : BT.709
Matrix coefficients : BT.709
Audio #1
ID : 2
Format : AC-3
Format/Info : Audio Coding 3
Commercial name : Dolby Digital
Codec ID : A_AC3
Duration : 1 h 43 min
Bit rate mode : Constant
Bit rate : 640 kb/s
Channel(s) : 6 channels
Channel layout : L R C LFE Ls Rs
Sampling rate : 48.0 kHz
Frame rate : 31.250 FPS (1536 SPF)
Compression mode : Lossy
Stream size : 472 MiB (7%)
Title : Monster.Hunter.2020.AC3_rus_BadBajo
Language : Russian
Service kind : Complete Main
Default : Yes
Forced : Yes
Audio #2
ID : 3
Format : E-AC-3
Format/Info : Enhanced AC-3
Commercial name : Dolby Digital Plus
Codec ID : A_EAC3
Duration : 1 h 43 min
Bit rate mode : Constant
Bit rate : 640 kb/s
Channel(s) : 6 channels
Channel layout : L R C LFE Ls Rs
Sampling rate : 48.0 kHz
Frame rate : 31.250 FPS (1536 SPF)
Compression mode : Lossy
Stream size : 472 MiB (7%)
Title : Monster.Hunter.2020.EAC3_eng
Language : English
Service kind : Complete Main
Default : No
Forced : No
Text #1
ID : 4
Format : UTF-8
Codec ID : S_TEXT/UTF8
Codec ID/Info : UTF-8 Plain Text
Duration : 1 h 29 min
Bit rate : 19 b/s
Count of elements : 515
Stream size : 12.5 KiB (0%)
Language : English
Default : No
Forced : No
Text #2
ID : 5
Format : UTF-8
Codec ID : S_TEXT/UTF8
Codec ID/Info : UTF-8 Plain Text
Duration : 1 h 42 min
Bit rate : 25 b/s
Count of elements : 986
Stream size : 19.2 KiB (0%)
Title : SDH
Language : English
Default : No
Forced : No

Дополнительная информация:

Приглашаю всех в мою группу в контакте
Если решили подкинуть "на чай", то жмите на баннер внизу. Если не видите баннера - отключите блокировшик рекламы. Спасибо.
Скриншоты:
         

kilmister777

Post 09-Dec-2020 09:41

[Quote]

Ограбление с ограничениями / Die Goldfische- Год выпуска: 2019
Страна: Германия
Жанр: комедия
Продолжительность: 01:47:00
Перевод: Профессиональный(дублированный) iTunes- -Режиссер: Алиреза Голафшан-В ролях: Том Шиллинг, Клаас Хойфер-Умлауф, Лиза Биттер, Сабрина Дитль, Кристиан Аммермюллер, Пауль Дикхаут, Михаэль Кранц, Штефан Мерки, Мария Хаппель, Йелла Хаазе-Описание: После серьезной аварии новые жизненные обстоятельства вынуждают еще недавно успешного банкира Оливера к реализации дерзкого преступного плана. Ему нужно доставить в Швейцарию большую сумму чёрных денег, а его помощниками и прикрытием в этом авантюрном путешествии становится команда весьма необычных сотрудников - людей с ограниченными возможностями и безграничным чувством юмора.-Качество: HDRip
Формат: AVI
Видео кодек: XviD
Аудио кодек: AC3
Видео: 720x304 (2.37:1), 24.000 fps, XviD build 73 ~1563 kbps avg, 0.30 bit/pixel
Аудио: 48 kHz, AC3 Dolby Digital, 3/2 (L,C,R,l,r) + LFE ch, ~384 kbps avg-

Скриншоты

       

kilmister777

Post 20-Nov-2020 20:33

[Quote]

Телохранитель бабушки / Lucky Grandma- Год выпуска: 2019
Страна: США
Жанр: драма, комедия, криминал
Продолжительность: 01:27:38
Перевод: Профессиональный (многоголосый закадровый) [iTunes]- -Режиссер: Сеси Сили-В ролях: Цай Чинь, Ха Сяоюань, Майкл Тоу, Вуди Фу, Янь Си, Вай Чин Хо, Клем Чун, Эдди Юй, Мэйсон Ям, Лиман Чен-Описание: Где-то в Нью-Йорке гадалка предсказала бабушке большую удачу. Никогда не поздно начать жить в свое удовольствие. Бабушка сняла все деньги со счета и отправилась в казино. Сорвать огромный куш в казино? Да легко! Нанять телохранителя? Не проблема! Черпая вдохновение из остросюжетных телесериалов, бабушка оказывается в эпицентре настоящих бандитских разборок. Теперь несладко будет всем!-Качество: BDRip
Формат: AVI
Видео кодек: XviD
Аудио кодек: AC3
Видео: 704x384 (1.83:1), 23.976 fps, XviD build 73 ~1930 kbps avg, 0.30 bit/pixel
Аудио: 48 kHz, AC3 Dolby Digital, 3/2 (L,C,R,l,r) + LFE ch, ~384 kbps avg-

Скриншоты

       

БАНДИТ

Post 12-Nov-2020 09:35

[Quote]

Капоне. Лицо со шрамом / Capone
Год выхода: 2020
Жанр: Драма, биография, криминал
Страна: Канада, США
Студия: A Band Apart, Addictive Pictures, Bron Studios, Creative Wealth Media Finance, Lawrence Bender Productions
Продолжительность: 01:43:52
Перевод: Профессиональный (полное дублирование) | iTunes
Субтитры: Русские (Forced) отдельно
Режиссер: Джош Транк
В ролях: Том Харди, Линда Карделлини, Мэтт Диллон, Ал Сапиенца, Кэтрин Нардуччи, Ноэль Фишер, Джино Кафарелли, Мэйсон Гуччионе, Джек Лауден, Кайл МакЛоклен
О фильме:
Вернувшись из тюрьмы, Аль Капоне продолжает оставаться предметом пристального внимания ФБР. Ведь при аресте так и не была найдена крупная сумма денег — итог всей криминальной деятельности знаменитого мафиози. По всему дому расставлены жучки, под подозрением каждый член большой семьи Капоне. Удастся ли спецслужбам добиться от теряющего память гангстера информации, где и при каких обстоятельствах он спрятал деньги?

Качество: BDRip
Исходник: Capone.2020.1080p.BluRay.REMUX.AVC.DTS-HD.MA.5.1-FGT
Формат: AVI
Кодек: XviD
Видео: 720x304 (2,35:1), 23,976 fps, XviD ~ 1617 Kbps avg, 0.308 bit/pixel
Аудио: AC3, 48 kHz, 6 ch, ~384.00 kbps avg | русский | iTunes

Скриншоты

kilmister777

Post 10-Nov-2020 13:37

[Quote]

Эффект Манделы / The Mandela Effect- Год выпуска: 2019
Страна: США
Жанр: фантастика, триллер, драма
Продолжительность: 01:19:54
Перевод: Профессиональный(дублированный) [iTunes]- -Режиссер: Дэвид Гай Леви-В ролях: Чарли Хофхаймер, Алекса Палладино, Робин Лорд Тейлор, Кларк Питерс, Мадлен Макгроу, Тим Рэнсом, Птолеми Слокам, Верни Уотсон, Элена Кэмпбелл-Мартинес, Стивен Даниэль Брюн-Описание: В семье талантливого программиста произошла трагедия. После этого в его жизни стали происходить странные вещи. Пытаясь понять происходящее, мужчина вступает в противостояние со своей реальностью, чтобы нарушить цепь пугающих событий.-Качество: BDRip
Формат: AVI
Видео кодек: XviD
Аудио кодек: AC3
Видео: 720x304 (2.37:1), 23.976 fps, XviD build 73 ~2222 kbps avg, 0.42 bit/pixel
Аудио: 48 kHz, AC3 Dolby Digital, 3/2 (L,C,R,l,r) + LFE ch, ~384 kbps avg-

Скриншоты

       

seanko

Post 03-Nov-2020 21:38

[Quote]

Игорь спасибо !!

kilmister777

Post 03-Nov-2020 12:03

[Quote]

Ужасные истории: Древние римляне / Horrible Histories: The Movie - Rotten Romans- Год выпуска: 2019
Страна: Великобритания
Жанр: комедия, история
Продолжительность: 01:32:12
Перевод: Профессиональный(дублированный) iTunes- -Режиссер: Доминик Бригсток-В ролях: Себастьян Крофт, Эмилия Джонс, Ник Фрост, Крэйг Робертс, Кейт Нэш, Руперт Грейвз, Алекс МакКуин, Ли Мак, Уорвик Дэвис, Санджив Бхаскар-Описание: Рим. Начало нашей эры. Умный и пронырливый подросток Атти попадает в немилость императора Нерона и за это отправляется проходить службу в богом забытую Британию как раз в тот момент, когда воительница Будика поднимает восстание на острове и пытается объединить разрозненные кланы. Атти оказывается в центре заварушки, выбраться из которой ему помогают его новые друзья.-Качество: BDRip
Формат: AVI
Видео кодек: XviD
Аудио кодек: AC3
Видео: 704x352 (2, 000:1), 24 fps, XviD ~ 1874 Kbps avg, 0.315 bit/pixel
Аудио: 48 kHz, AC3 Dolby Digital, 3/2 (L,C,R,l,r) + LFE ch, ~384 kbps avg-

Скриншоты

 
 
 
 

kilmister777

Post 02-Nov-2020 09:41

[Quote]

Мы призываем тьму / We Summon the Darkness- Год выпуска: 2019
Страна: США
Жанр: ужасы, триллер
Продолжительность: 01:31:01
Перевод: Профессиональный(дублированный) iTunes- -Режиссер: Марк Мейерс-В ролях: Александра Даддарио, Джонни Ноксвилл, Киан Джонсон, Мэдди Хассон, Логан Миллер, Эми Форсайт, Эллисон МакЭти, Остин Свифт, Стефани Мороз, Эрик Атхавале, Тэннер Бирд, Дэннис Скаллард, Стив Пако, Дерек Джеймс Трапп-Описание: Жуткие события развернулись в штате Индиана в 1988 году. Буквально все средства массовой информации твердят о том, что в Америке одно за другим происходят ритуальные убийства. В это самое время популярный проповедник постоянно твердит о том, что молодые люди подвергаются негативному влиянию тяжелого рока. В разгар этой шумихи три подруги отправляются на концерт, чтобы послушать «хеви-метал». На концерте они встречают трех парней, и вместе с ними едут за город на тусовку в загородном доме. Но в какой-то момент ситуация резко меняется, и веселье оборачивается совсем не смешным продолжением.-Качество: HDRip
Формат: AVI
Видео кодек: XviD
Аудио кодек: AC3
Видео: 720x304 (2.37:1), 24.000 fps, XviD build 73 ~1886 kbps avg, 0.30 bit/pixel
Аудио: 48 kHz, AC3 Dolby Digital, 3/2 (L,C,R,l,r) + LFE ch, ~384 kbps avg-

Скриншоты

     

БАНДИТ

Post 22-Oct-2020 11:44

[Quote]

Призраки войны / Ghosts of War Год выпуска: 2020
Жанр: Ужасы, триллер, военный
Страна: Великобритания
Студия: Miscellaneous Entertainment
Продолжительность: 01:34:45
Перевод: Дублированный | iTunes
Режиссер: Эрик Бресс
В ролях: Брентон Туэйтс, Тео Росси, Кайл Галлнер, Скайлар Эстин, Алан Ричсон, Билли Зейн, Шон Тоуб, Мэттью Рис (II), Лайла Банки, Шеннон МакКэйн, Нэйтан Купер, Александер Беранг Кесхткар, Яница Михайлова, Ребекка Флинн, Калоян Христов
О фильме:
Последние месяцы Второй мировой войны. Французская провинция. Пятеро опытных американских солдат получают приказ охранять замок, в котором еще недавно располагалось нацистское верховное командование. Эта неожиданная передышка перерастает в безумие, когда они сталкиваются со сверхъестественными силами, гораздо более страшными, чем то, что творилось на поле боя.

Формат: AVI
Качество: BDRip
Видео: 720x304 (2.37:1), 24 fps, XviD build 69 ~1813 kbps avg, 0.34 bit/pixel
Звук: 48 kHz, AC3 Dolby Digital, 3/2 (L, C, R, l, r) + LFE ch, ~384 kbps

Скриншоты

     

БАНДИТ

Post 22-Oct-2020 11:34

[Quote]

Призраки войны / Ghosts of WarГод выхода: 2020
Жанр: Ужасы, триллер, военный
Страна: Великобритания
Студия: Miscellaneous Entertainment
Продолжительность: 01:34:45
Перевод: Профессиональный (полное дублирование) | iTunes
Субтитры: Русские (форсированные, полные)
Режиссер: Эрик Бресс
В ролях: Брентон Туэйтс, Кайл Галлнер, Алан Ричсон, Тео Росси, Скайлар Эстин, Билли Зейн, Вивиан Грэй, Шон Тоуб, Лайла Банки, Яница Михайлова
О фильме:
Французская провинция, 1944 год. Отряд из пяти американских солдат получает приказ охранять особняк, в котором ещё недавно располагалось нацистское верховное командование. Передав дежурство прибывшим, предыдущий отряд, несколько дней проживший в этом доме, подозрительно быстро ретируется, а новенькие надеются на долгожданную передышку и относительный комфорт. Но почти сразу они начинают слышать и видеть нечто, что заставляет содрогаться даже видавших ужасы войны.

Качество: BDRip-AVC
Формат: MKV
Кодек: MPEG-4 AVC
Видео: 832x346 (2.40:1), 24 fps, MPEG-4 AVC ~ 1754 Kbps avg, 0.254 bit/pixel
Аудио: AC3, 48 kHz, 6 ch, ~384.00 kbps avg | русский | iTunes

Инфо-файл

Общее
Уникальный идентификатор : 138910010961256241157614797211435485709 (0x6881184FDBC7B9EA1159CFD919774A0D)
Полное имя : Ghosts.of.War.2020.BDRip.1.41Gb.x264.mkv
Формат : Matroska
Версия формата : Version 4
Размер файла : 1,41 Гбайт
Продолжительность : 1 ч. 34 м.
Общий поток : 2 138 Кбит/сек
Название фильма : Призраки войны / Ghosts of War (2020)
Дата кодирования : UTC 2020-10-22 05:56:06
Программа кодирования : mkvmerge v47.0.0 ('Black Flag') 64-bit
Библиотека кодирования : libebml v1.3.10 + libmatroska v1.5.2
Обложка : Yes
Attachments : cover.jpg
Видео
Идентификатор : 1
Формат : AVC
Формат/Информация : Advanced Video Codec
Профиль формата : High@L4.1
Настройки формата : CABAC / 11 Ref Frames
Параметр CABAC формата : Да
Параметр RefFrames формата : 11 кадров
Идентификатор кодека : V_MPEG4/ISO/AVC
Продолжительность : 1 ч. 34 м.
Битрейт : 1 754 Кбит/сек
Ширина : 832 пикселя
Высота : 346 пикселей
Соотношение сторон : 2,40:1
Режим частоты кадров : Постоянный
Частота кадров : 24,000 кадра/сек
Цветовое пространство : YUV
Субдискретизация насыщенности : 4:2:0
Битовая глубина : 8 бит
Тип развёртки : Прогрессивная
Бит/(Пиксели*Кадры) : 0.254
Размер потока : 1,16 Гбайт (82%)
Заголовок : #stillet
Библиотека кодирования : x264 core 152 r2851bm ba24899
Настройки программы : cabac=1 / ref=11 / deblock=1:-2:-2 / analyse=0x3:0x113 / me=umh / subme=10 / psy=1 / psy_rd=1.00:0.15 / mixed_ref=1 / me_range=32 / chroma_me=1 / trellis=2 / 8x8dct=1 / cqm=0 / deadzone=21,11 / fast_pskip=0 / chroma_qp_offset=-3 / threads=8 / lookahead_threads=3 / sliced_threads=0 / nr=0 / decimate=0 / interlaced=0 / bluray_compat=0 / constrained_intra=0 / bframes=10 / b_pyramid=2 / b_adapt=2 / b_bias=0 / direct=3 / weightb=1 / open_gop=0 / weightp=2 / keyint=240 / keyint_min=24 / scenecut=40 / intra_refresh=0 / rc=2pass / mbtree=0 / bitrate=1754 / ratetol=1.0 / qcomp=0.60 / qpmin=0 / qpmax=69 / qpstep=4 / cplxblur=20.0 / qblur=0.5 / ip_ratio=1.40 / pb_ratio=1.30 / aq=1:1.00
Язык : German
Default : Да
Forced : Нет
Аудио
Идентификатор : 2
Формат : AC-3
Формат/Информация : Audio Coding 3
Коммерческое название : Dolby Digital
Идентификатор кодека : A_AC3
Продолжительность : 1 ч. 34 м.
Вид битрейта : Постоянный
Битрейт : 384 Кбит/сек
Каналы : 6 каналов
Channel layout : L R C LFE Ls Rs
Частота : 48,0 КГц
Частота кадров : 31,250 кадров/сек (1536 SPF)
Метод сжатия : С потерями
Размер потока : 260 Мбайт (18%)
Заголовок : iTunes
Язык : Russian
Service kind : Complete Main
Default : Да
Forced : Да
Текст #1
Идентификатор : 3
Формат : UTF-8
Идентификатор кодека : S_TEXT/UTF8
Идентификатор кодека/Информация : UTF-8 Plain Text
Продолжительность : 1 ч. 26 м.
Битрейт : 5 бит/сек
Count of elements : 83
Размер потока : 3,72 Кбайт (0%)
Заголовок : Forced
Язык : Russian
Default : Да
Forced : Нет
Текст #2
Идентификатор : 4
Формат : UTF-8
Идентификатор кодека : S_TEXT/UTF8
Идентификатор кодека/Информация : UTF-8 Plain Text
Продолжительность : 1 ч. 27 м.
Битрейт : 68 бит/сек
Count of elements : 807
Размер потока : 43,9 Кбайт (0%)
Заголовок : Full
Язык : Russian
Default : Нет
Forced : Нет
Меню
00:00:00.000 : de:Глава 01
00:02:47.833 : de:Глава 02
00:09:47.542 : de:Глава 03
00:19:08.625 : de:Глава 04
00:22:22.333 : de:Глава 05
00:25:54.083 : de:Глава 06
00:29:59.292 : de:Глава 07
00:36:36.625 : de:Глава 08
00:46:54.583 : de:Глава 09
00:51:20.500 : de:Глава 10
00:56:07.417 : de:Глава 11
01:03:42.750 : de:Глава 12
01:08:02.833 : de:Глава 13
01:15:33.083 : de:Глава 14
01:23:25.250 : de:Глава 15
01:27:49.542 : de:Глава 16

Скриншоты

БАНДИТ

Post 22-Oct-2020 11:30

[Quote]

Призраки войны / Ghosts of WarГод выхода: 2020
Жанр: Ужасы, триллер, военный
Страна: Великобритания
Студия: Miscellaneous Entertainment
Продолжительность: 01:34:45
Перевод:
• Профессиональный (полное дублирование) | iTunes
• Профессиональный (многоголосый, закадровый) | HDRezka Studio
Субтитры: Русские (Forced [for HDRezka Studio], Full)), английские (Full, SDH)
Режиссер: Эрик Бресс
В ролях: Брентон Туэйтс, Кайл Галлнер, Алан Ричсон, Тео Росси, Скайлар Эстин, Билли Зейн, Вивиан Грэй, Шон Тоуб, Лайла Банки, Яница Михайлова
О фильме:
Французская провинция, 1944 год. Отряд из пяти американских солдат получает приказ охранять особняк, в котором ещё недавно располагалось нацистское верховное командование. Передав дежурство прибывшим, предыдущий отряд, несколько дней проживший в этом доме, подозрительно быстро ретируется, а новенькие надеются на долгожданную передышку и относительный комфорт. Но почти сразу они начинают слышать и видеть нечто, что заставляет содрогаться даже видавших ужасы войны.

Качество: BDRip-AVC
Формат: MKV
Кодек: MPEG-4 AVC
Видео: 1024x426 (2.40:1), 24 fps, MPEG-4 AVC ~ 2791 Kbps avg, 0.267 bit/pixel
Аудио: AC3, 48 kHz, 6 ch, ~384.00 kbps avg | русский | iTunes
Аудио: AC3, 48 kHz, 6 ch, ~448.00 kbps avg | русский | HDRezka Studio
Аудио: AC3, 48 kHz, 6 ch, ~448.00 kbps avg | английский | Оригинал

Инфо-файл

Общее
Уникальный идентификатор : 338379714324107065260720260636226119867 (0xFE918FFC0095652DEFF8DD9B7B2468BB)
Полное имя : Ghosts.of.War.2020.BDRip.2.69Gb.x264.mkv
Формат : Matroska
Версия формата : Version 4
Размер файла : 2,69 Гбайт
Продолжительность : 1 ч. 34 м.
Общий поток : 4 065 Кбит/сек
Название фильма : Призраки войны / Ghosts of War (2020)
Дата кодирования : UTC 2020-10-22 07:42:25
Программа кодирования : mkvmerge v47.0.0 ('Black Flag') 64-bit
Библиотека кодирования : libebml v1.3.10 + libmatroska v1.5.2
Обложка : Yes
Attachments : cover.jpg
Видео
Идентификатор : 1
Формат : AVC
Формат/Информация : Advanced Video Codec
Профиль формата : High@L4.1
Настройки формата : CABAC / 10 Ref Frames
Параметр CABAC формата : Да
Параметр RefFrames формата : 10 кадров
Идентификатор кодека : V_MPEG4/ISO/AVC
Продолжительность : 1 ч. 34 м.
Битрейт : 2 791 Кбит/сек
Ширина : 1 024 пикселя
Высота : 426 пикселей
Соотношение сторон : 2,40:1
Режим частоты кадров : Постоянный
Частота кадров : 24,000 кадра/сек
Цветовое пространство : YUV
Субдискретизация насыщенности : 4:2:0
Битовая глубина : 8 бит
Тип развёртки : Прогрессивная
Бит/(Пиксели*Кадры) : 0.267
Размер потока : 1,84 Гбайт (68%)
Заголовок : #stillet
Библиотека кодирования : x264 core 152 r2851bm ba24899
Настройки программы : cabac=1 / ref=10 / deblock=1:-2:-2 / analyse=0x3:0x113 / me=umh / subme=10 / psy=1 / psy_rd=1.00:0.15 / mixed_ref=1 / me_range=32 / chroma_me=1 / trellis=2 / 8x8dct=1 / cqm=0 / deadzone=21,11 / fast_pskip=0 / chroma_qp_offset=-3 / threads=8 / lookahead_threads=3 / sliced_threads=0 / nr=0 / decimate=0 / interlaced=0 / bluray_compat=0 / constrained_intra=0 / bframes=11 / b_pyramid=2 / b_adapt=2 / b_bias=0 / direct=3 / weightb=1 / open_gop=0 / weightp=2 / keyint=240 / keyint_min=24 / scenecut=40 / intra_refresh=0 / rc=2pass / mbtree=0 / bitrate=2791 / ratetol=1.0 / qcomp=0.60 / qpmin=0 / qpmax=69 / qpstep=4 / cplxblur=20.0 / qblur=0.5 / ip_ratio=1.40 / pb_ratio=1.30 / aq=1:1.00
Язык : German
Default : Да
Forced : Нет
Аудио #1
Идентификатор : 2
Формат : AC-3
Формат/Информация : Audio Coding 3
Коммерческое название : Dolby Digital
Идентификатор кодека : A_AC3
Продолжительность : 1 ч. 34 м.
Вид битрейта : Постоянный
Битрейт : 384 Кбит/сек
Каналы : 6 каналов
Channel layout : L R C LFE Ls Rs
Частота : 48,0 КГц
Частота кадров : 31,250 кадров/сек (1536 SPF)
Метод сжатия : С потерями
Размер потока : 260 Мбайт (9%)
Заголовок : iTunes
Язык : Russian
Service kind : Complete Main
Default : Да
Forced : Да
Аудио #2
Идентификатор : 3
Формат : AC-3
Формат/Информация : Audio Coding 3
Коммерческое название : Dolby Digital
Идентификатор кодека : A_AC3
Продолжительность : 1 ч. 34 м.
Вид битрейта : Постоянный
Битрейт : 448 Кбит/сек
Каналы : 6 каналов
Channel layout : L R C LFE Ls Rs
Частота : 48,0 КГц
Частота кадров : 31,250 кадров/сек (1536 SPF)
Метод сжатия : С потерями
Размер потока : 304 Мбайт (11%)
Заголовок : MVO | HDRezka Studio
Язык : Russian
Service kind : Complete Main
Default : Нет
Forced : Нет
Аудио #3
Идентификатор : 4
Формат : AC-3
Формат/Информация : Audio Coding 3
Коммерческое название : Dolby Digital
Идентификатор кодека : A_AC3
Продолжительность : 1 ч. 34 м.
Вид битрейта : Постоянный
Битрейт : 448 Кбит/сек
Каналы : 6 каналов
Channel layout : L R C LFE Ls Rs
Частота : 48,0 КГц
Частота кадров : 31,250 кадров/сек (1536 SPF)
Метод сжатия : С потерями
Размер потока : 304 Мбайт (11%)
Язык : English
Service kind : Complete Main
Default : Нет
Forced : Нет
Текст #1
Идентификатор : 5
Формат : UTF-8
Идентификатор кодека : S_TEXT/UTF8
Идентификатор кодека/Информация : UTF-8 Plain Text
Продолжительность : 1 ч. 26 м.
Битрейт : 5 бит/сек
Count of elements : 83
Размер потока : 3,72 Кбайт (0%)
Заголовок : Forced | For HDRezka Studio
Язык : Russian
Default : Да
Forced : Нет
Текст #2
Идентификатор : 6
Формат : UTF-8
Идентификатор кодека : S_TEXT/UTF8
Идентификатор кодека/Информация : UTF-8 Plain Text
Продолжительность : 1 ч. 27 м.
Битрейт : 68 бит/сек
Count of elements : 807
Размер потока : 43,9 Кбайт (0%)
Заголовок : Full
Язык : Russian
Default : Нет
Forced : Нет
Текст #3
Идентификатор : 7
Формат : UTF-8
Идентификатор кодека : S_TEXT/UTF8
Идентификатор кодека/Информация : UTF-8 Plain Text
Продолжительность : 1 ч. 26 м.
Битрейт : 36 бит/сек
Count of elements : 796
Размер потока : 23,2 Кбайт (0%)
Заголовок : Full
Язык : English
Default : Нет
Forced : Нет
Текст #4
Идентификатор : 8
Формат : UTF-8
Идентификатор кодека : S_TEXT/UTF8
Идентификатор кодека/Информация : UTF-8 Plain Text
Продолжительность : 1 ч. 27 м.
Битрейт : 44 бит/сек
Count of elements : 1073
Размер потока : 28,6 Кбайт (0%)
Заголовок : SDH
Язык : English
Default : Нет
Forced : Нет
Меню
00:00:00.000 : de:Глава 01
00:02:47.833 : de:Глава 02
00:09:47.542 : de:Глава 03
00:19:08.625 : de:Глава 04
00:22:22.333 : de:Глава 05
00:25:54.083 : de:Глава 06
00:29:59.292 : de:Глава 07
00:36:36.625 : de:Глава 08
00:46:54.583 : de:Глава 09
00:51:20.500 : de:Глава 10
00:56:07.417 : de:Глава 11
01:03:42.750 : de:Глава 12
01:08:02.833 : de:Глава 13
01:15:33.083 : de:Глава 14
01:23:25.250 : de:Глава 15
01:27:49.542 : de:Глава 16

Скриншоты

-DOMINION-

Post 14-Oct-2020 15:15

[Quote]

Агент Джонни Инглиш 3.0 / Johnny English Strikes Again Год выхода: 2018
Страна: Великобритания, Франция, США
Жанр: боевик, комедия, приключения
Продолжительность: 01:28:33
Перевод: Профессиональный (полное дублирование) | Лицензия
Субтитры: нет Режиссер: Дэвид Керр / David Kerr В ролях: Роуэн Эткинсон, Ольга Куриленко, Эмма Томпсон, Кевин Элдон, Адам Джеймс, Джейк Лэси, Бен Миллер, Миранда Хеннесси, Адам Джеймс, Пиппа Беннетт-Уорнер, Ирена Тишина, Джеймс Илс, Джордж Тернер
Когда все агенты секретной службы Её Величества внезапно выходят из строя, в игру вступает запасной вариант. Образец английского стиля и любимец роковых красоток; король безвыходных ситуаций и хранитель аналоговых традиций в цифровом мире, агент Джонни Инглиш — боль и гордость британской разведки. Этому парню есть что взбалтывать, и он взболтает не по-детски. Качество: HDRip
Формат: AVI
Видео: 720x304 (2.37:1), 23.976 fps, XviD build 73 ~1879 kbps avg, 0.36 bit/pixel
Аудио: 48 kHz, AC3 Dolby Digital, 3/2 (L,C,R,l,r) + LFE ch, ~448 kbps

Скриншоты:

     

kilmister777

Post 23-Sep-2020 08:01

[Quote]

Тьма: Вторжение / Столкновение с тьмой / Dark Encounter- Год выпуска: 2019
Страна: Великобритания
Жанр: ужасы, фантастика
Продолжительность: 01:38:04
Перевод: Профессиональный (многоголосый закадровый) iTunes- -Режиссер: Карл Страти-В ролях: Лора Фрейзер, Мел Райдо, Сид Феникс, Грант Мастерс, Спайк Уайт, Элис Лоу, Николас Пиннок, Винсент Риган, Шон Нопп-Описание: История разворачивается спустя год после таинственного исчезновения 8-летней девочки. Однажды вечером, после того как ее семья вернулась домой с поминальной службы, в лесу неподалеку от них зажигаются странные огни. Вскоре герои узнают страшные подробности о пропаже маленькой девочки.-Качество: BDRip
Формат: AVI
Видео кодек: XviD
Аудио кодек: AC3
Видео: 720x304 (2.37:1), 23.976 fps, XviD build 69 ~1739 kbps avg, 0.33 bit/pixel
Аудио: 48 kHz, AC3 Dolby Digital, 3/2 (L,C,R,l,r) + LFE ch, ~384 kbps avg-

Скриншоты

       

kilmister777

Post 22-Sep-2020 11:23

[Quote]

10 минут спустя / Обратный отсчёт / 10 Minutes Gone- Год выпуска: 2019
Страна: Канада, США
Жанр: боевик, триллер, криминал, детектив
Продолжительность: 01:36:13
Перевод: Профессиональный(дублированный) iTunes- -Режиссер: Брайан А. Миллер-В ролях: Брюс Уиллис, Майкл Чиклис, Медоу Уильямс, Кайл Шмид, Тексас Бэттл, Лидия Халл, Свен Теммел, Джон Д. Хикман, Серхио Риццуто, Джеффри М. Ривз-Описание: У грабителя-эксперта Фрэнка Салливана никогда не было проблем с работой, пока его брата не убили во время ограбления. После потери сознания Фрэнк просыпается на грязной аллее, не помня, почему ограбление сорвалось и кто застрелил его брата. Для босса Фрэнка, лорда Рекса, все это не имеет значения. Ему нужна добыча, которая была упущена. Теперь Фрэнк должен выяснить, кто из членов команды предал их и найти таинственный портфель, чтобы спасти свою собственную шкуру и отомстить за смерть брата.-Качество: BDRip
Формат: AVI
Видео кодек: XviD
Аудио кодек: AC3
Видео: 704x384 (1.83:1), 23.976 fps, XviD build 69 ~1779 kbps avg, 0.27 bit/pixel
Аудио: 48 kHz, AC3 Dolby Digital, 3/2 (L,C,R,l,r) + LFE ch, ~384 kbps avg-

Скриншоты

       
 

The time now is: Today 10:29

All times are GMT + 3 Hours