Today is a free download without charge Download

Search found 500 matches

Author Message

DED

Post 16-Mar-2020 13:38

[Quote]

--Наркокурьер / The Mule-- Год выхода: 2018/19
Страна: США
Студия: «Warner Bros., Imperative Entertainment, Bron Creative, The Malpaso Company»
Жанр: триллер, драма, криминал
Продолжительность: 01:56:27
Перевод: Дублированный | Лицензия BD EUR
Режиссер: Клинт Иствуд
В ролях: Клинт Иствуд, Брэдли Купер, Таисса Фармига, Элисон Иствуд, Майкл Пенья, Энди Гарсиа, Лоуренс Фишборн, Дайэнн Уист, Игнасио Серричио, Джилл Флинт, ...-Описание: Эрл Стоун - одинокий старик. Его частный бизнес находится на грани разорения, отношения с женой не ладятся, а дети, кажется, давно забыли о его существовании. Неожиданно ему предлагают непыльную, но прибыльную работёнку - просто водить машину. Стоун поначалу соглашается и вскоре понимает, что стал наркокурьером мексиканского картеля и попал в поле зрения оперативника Агентства по контролю за оборотом наркотиков.- -Качество видео: BDRip
Формат видео: AVI
Видеокодек: XviD
Аудиокодек: MP3
Видео: 688x288 (2.39:1), 23.976 fps, XviD MPEG–4, ~760 kbps avg
Аудио: 48.0 kHz, MPEG Audio Layer 3, 2 ch, ~128.00 kbps avg
Cубтитры: нет
-

Скриншоты:

       
- -

DED

Post 16-Mar-2020 13:35

[Quote]

--Наркокурьер / The Mule-- Год выхода: 2018/19
Страна: США
Студия: «Warner Bros., Imperative Entertainment, Bron Creative, The Malpaso Company»
Жанр: триллер, драма, криминал
Продолжительность: 01:56:27
Перевод: Дублированный | Лицензия BD EUR
Режиссер: Клинт Иствуд
В ролях: Клинт Иствуд, Брэдли Купер, Таисса Фармига, Элисон Иствуд, Майкл Пенья, Энди Гарсиа, Лоуренс Фишборн, Дайэнн Уист, Игнасио Серричио, Джилл Флинт, ...-Описание: Эрл Стоун - одинокий старик. Его частный бизнес находится на грани разорения, отношения с женой не ладятся, а дети, кажется, давно забыли о его существовании. Неожиданно ему предлагают непыльную, но прибыльную работёнку - просто водить машину. Стоун поначалу соглашается и вскоре понимает, что стал наркокурьером мексиканского картеля и попал в поле зрения оперативника Агентства по контролю за оборотом наркотиков.- -Качество видео: BDRip
Формат видео: AVI
Видеокодек: XviD
Аудиокодек: AC3
Видео: 720x304 (2.37:1), 23.976 fps, XviD MPEG–4, ~1337 kbps avg
Аудио: 48.0 kHz, AC3 Dolby Digital, 5.1 (L,C,R) + LFE ch, ~448.00 kbps avg
Cубтитры: русские форсированные (внешние .srt)
-

Скриншоты:

       
- -

DED

Post 16-Mar-2020 13:33

[Quote]

--Наркокурьер / The Mule-- Год выхода: 2018/19
Страна: США
Студия: «Warner Bros., Imperative Entertainment, Bron Creative, The Malpaso Company»
Жанр: триллер, драма, криминал
Продолжительность: 01:56:27
Перевод: Дублированный | Лицензия BD EUR
Режиссер: Клинт Иствуд
В ролях: Клинт Иствуд, Брэдли Купер, Таисса Фармига, Элисон Иствуд, Майкл Пенья, Энди Гарсиа, Лоуренс Фишборн, Дайэнн Уист, Игнасио Серричио, Джилл Флинт, ...-Описание: Эрл Стоун - одинокий старик. Его частный бизнес находится на грани разорения, отношения с женой не ладятся, а дети, кажется, давно забыли о его существовании. Неожиданно ему предлагают непыльную, но прибыльную работёнку - просто водить машину. Стоун поначалу соглашается и вскоре понимает, что стал наркокурьером мексиканского картеля и попал в поле зрения оперативника Агентства по контролю за оборотом наркотиков.- -Качество видео: BDRip
Формат видео: AVI
Видеокодек: XviD
Аудиокодек: AC3
Видео: 720x304 (2.37:1), 23.976 fps, XviD MPEG–4, ~1770 kbps avg
Аудио #1: [RUS] 48.0 kHz, AC3 Dolby Digital, 5.1 (L,C,R) + LFE ch, ~448.00 kbps avg
Аудио #2: [ENG] 48.0 kHz, AC3 Dolby Digital, 5.1 (L,C,R) + LFE ch, ~448.00 kbps avg
Cубтитры: нет
-

Скриншоты:

       
- -

DED

Post 16-Mar-2020 13:30

[Quote]

--Наркокурьер / The Mule-- Год выхода: 2018/19
Страна: США
Студия: «Warner Bros., Imperative Entertainment, Bron Creative, The Malpaso Company»
Жанр: триллер, драма, криминал
Продолжительность: 01:56:27
Перевод: Дублированный | Лицензия BD EUR
Режиссер: Клинт Иствуд
В ролях: Клинт Иствуд, Брэдли Купер, Таисса Фармига, Элисон Иствуд, Майкл Пенья, Энди Гарсиа, Лоуренс Фишборн, Дайэнн Уист, Игнасио Серричио, Джилл Флинт, ...-Описание: Эрл Стоун - одинокий старик. Его частный бизнес находится на грани разорения, отношения с женой не ладятся, а дети, кажется, давно забыли о его существовании. Неожиданно ему предлагают непыльную, но прибыльную работёнку - просто водить машину. Стоун поначалу соглашается и вскоре понимает, что стал наркокурьером мексиканского картеля и попал в поле зрения оперативника Агентства по контролю за оборотом наркотиков.- -Качество видео: BDRip–AVC
Формат видео: MKV
Видеокодек: H.264
Аудиокодек: AC3
Видео: 960х402 (2.40:1), 23.976 fps, MPEG-4 AVC, ~1348 kbps avg
Аудио: 48.0 kHz, AC3 Dolby Digital, 5.1 (L,C,R) + LFE ch, ~448.00 kbps avg
Cубтитры: нет
Навигация по главам: есть
-

Скриншоты:

       
- -

DED

Post 16-Mar-2020 13:28

[Quote]

--Наркокурьер / The Mule-- Год выхода: 2018/19
Страна: США
Студия: «Warner Bros., Imperative Entertainment, Bron Creative, The Malpaso Company»
Жанр: триллер, драма, криминал
Продолжительность: 01:56:27
Перевод: Дублированный | Лицензия BD EUR
Режиссер: Клинт Иствуд
В ролях: Клинт Иствуд, Брэдли Купер, Таисса Фармига, Элисон Иствуд, Майкл Пенья, Энди Гарсиа, Лоуренс Фишборн, Дайэнн Уист, Игнасио Серричио, Джилл Флинт, ...-Описание: Эрл Стоун - одинокий старик. Его частный бизнес находится на грани разорения, отношения с женой не ладятся, а дети, кажется, давно забыли о его существовании. Неожиданно ему предлагают непыльную, но прибыльную работёнку - просто водить машину. Стоун поначалу соглашается и вскоре понимает, что стал наркокурьером мексиканского картеля и попал в поле зрения оперативника Агентства по контролю за оборотом наркотиков.- -Качество видео: BDRip–AVC
Формат видео: MKV
Видеокодек: H.264
Аудиокодек: AC3
Видео: 1032x432 (2.40:1), 23.976 fps, MPEG-4 AVC, ~1778 kbps avg
Аудио #1: [RUS] 48.0 kHz, AC3 Dolby Digital, 5.1 (L,C,R) + LFE ch, ~448.00 kbps avg
Аудио #2: [ENG] 48.0 kHz, AC3 Dolby Digital, 5.1 (L,C,R) + LFE ch, ~448.00 kbps avg
Cубтитры: английские (Full), английские (SDH), английские (SDH-Colored)
Навигация по главам: есть
-

Скриншоты:

       
- -

RazBoyNik

Post 17-Feb-2020 10:02

[Quote]

Ангелы Чарли / Charlie's Angels (2019) WEB-DLRip [H.265] [10-bit]- Год: 2019
Производство: США / Columbia Pictures, 2.0 Entertainment, Brownstone Productions
Жанр: Боевик, комедия, приключения
Режиссер: Элизабет Бэнкс
Актеры: Кристен Стюарт, Наоми Скотт, Элла Балинска, Сэм Клафлин, Ноа Сентинео, Элизабет Бэнкс, Джимон Хонсу, Патрик Стюарт, Луис Херардо Мендес, Джонатан Такер
Описание:Частное детективное агентство Таунсенд, возглавляемое таинственным Чарли, открывает свои офисы по всему миру, и теперь в разных уголках земного шара команды суперпрофессиональных Ангелов под началом Босли обеспечивают покой и безопасность своим клиентам.
Возраст: 16+ (зрителям, достигшим 16 лет)
Рейтинг MPAA: PG-13 (детям до 13 лет просмотр нежелателен)
Дата мировой премьеры: 13 ноября 2019
Дата премьеры в России: 14 ноября 2019

Продолжительность: 01:58:28
Качество видео: WEB-DLRip
Перевод: Дублированный (iTunes)
Субтитры: Русские, английские
Видео: HEVC/H.265, 1024x426, 2000 Kbps
Аудио 1: AC3, 6 ch, 384 Kbps | Русский
Аудио 2: AC3, 6 ch, 384 Kbps | Английский

MediaInfo:

Общее
Уникальный идентификатор : 245511250102040633313302660332148024632 (0xB8B3BF2FF5818C9FB088BB512C2CE538)
Полное имя : Charlie's Angels (2019) WEB-DLRip (1024x426) HEVC.mkv
Формат : Matroska
Версия формата : Version 4 / Version 2
Размер файла : 2,29 Гбайт
Продолжительность : 1 ч. 58 м.
Общий поток : 2770 Кбит/сек
Название фильма : Charlie's Angels (2019)
Дата кодирования : UTC 2020-02-17 05:39:16
Программа кодирования : mkvmerge v7.8.0 ('River Man') 32bit built on Apr 3 2015 12:11:22
Библиотека кодирования : libebml v1.3.1 + libmatroska v1.4.2
Видео
Идентификатор : 1
Формат : HEVC
Формат/Информация : High Efficiency Video Coding
Профиль формата : Main [url=mailto:10@L4.1]10@L4.1[/url]@High
Идентификатор кодека : V_MPEGH/ISO/HEVC
Продолжительность : 1 ч. 58 м.
Битрейт : 2000 Кбит/сек
Ширина : 1024 пикселя
Высота : 426 пикселей
Соотношение сторон : 2,40:1
Режим частоты кадров : Постоянный
Частота кадров : 23,976 (24000/1001) кадра/сек
Цветовое пространство : YUV
Субдискретизация насыщенности : 4:2:0
Битовая глубина : 10 бит
Бит/(Пиксели*Кадры) : 0.191
Размер потока : 1,66 Гбайт (72%)
Язык : English
Default : Да
Forced : Нет
Цветовой диапазон : Limited
Основные цвета : BT.709
Характеристики трансфера : BT.709
Коэффициенты матрицы : BT.709
Аудио #1
Идентификатор : 2
Формат : AC-3
Формат/Информация : Audio Coding 3
Параметр Endianness формата : Big
Идентификатор кодека : A_AC3
Продолжительность : 1 ч. 58 м.
Вид битрейта : Постоянный
Битрейт : 384 Кбит/сек
Каналы : 6 каналов
Расположение каналов : Front: L C R, Side: L R, LFE
Частота : 48,0 КГц
Частота кадров : 31,250 кадров/сек (1536 SPF)
Битовая глубина : 16 бит
Метод сжатия : С потерями
Размер потока : 325 Мбайт (14%)
Заголовок : iTunes ELEKTRI4KA.UNIONGANG
Язык : Russian
ServiceKind/String : Complete Main
Default : Да
Forced : Нет
Аудио #2
Идентификатор : 3
Формат : AC-3
Формат/Информация : Audio Coding 3
Параметр Endianness формата : Big
Идентификатор кодека : A_AC3
Продолжительность : 1 ч. 58 м.
Вид битрейта : Постоянный
Битрейт : 384 Кбит/сек
Каналы : 6 каналов
Расположение каналов : Front: L C R, Side: L R, LFE
Частота : 48,0 КГц
Частота кадров : 31,250 кадров/сек (1536 SPF)
Битовая глубина : 16 бит
Метод сжатия : С потерями
Размер потока : 325 Мбайт (14%)
Язык : English
ServiceKind/String : Complete Main
Default : Нет
Forced : Нет
Текст #1
Идентификатор : 4
Формат : UTF-8
Идентификатор кодека : S_TEXT/UTF8
Идентификатор кодека/Информация : UTF-8 Plain Text
Продолжительность : 1 ч. 57 м.
Битрейт : 1 бит/сек
ElementCount : 30
Размер потока : 970 байт (0%)
Заголовок : Fors
Язык : Russian
Default : Да
Forced : Нет
Текст #2
Идентификатор : 5
Формат : UTF-8
Идентификатор кодека : S_TEXT/UTF8
Идентификатор кодека/Информация : UTF-8 Plain Text
Продолжительность : 1 ч. 57 м.
Битрейт : 84 бит/сек
ElementCount : 1613
Размер потока : 73,2 Кбайт (0%)
Заголовок : Ful
Язык : Russian
Default : Нет
Forced : Нет
Текст #3
Идентификатор : 6
Формат : UTF-8
Идентификатор кодека : S_TEXT/UTF8
Идентификатор кодека/Информация : UTF-8 Plain Text
Продолжительность : 1 ч. 52 м.
Битрейт : 59 бит/сек
ElementCount : 1603
Размер потока : 49,4 Кбайт (0%)
Язык : English
Default : Нет
Forced : Нет
Текст #4
Идентификатор : 7
Формат : UTF-8
Идентификатор кодека : S_TEXT/UTF8
Идентификатор кодека/Информация : UTF-8 Plain Text
Продолжительность : 1 ч. 52 м.
Битрейт : 59 бит/сек
ElementCount : 1603
Размер потока : 49,4 Кбайт (0%)
Язык : English
Default : Нет
Forced : Нет
Меню
00:00:00.000 : en:1
00:10:25.625 : en:2
00:16:49.549 : en:3
00:26:27.752 : en:4
00:31:51.783 : en:5
00:37:35.083 : en:6
00:43:54.878 : en:7
00:46:38.249 : en:8
00:51:25.535 : en:9
00:55:09.257 : en:10
01:03:47.691 : en:11
01:11:23.188 : en:12
01:20:13.842 : en:13
01:30:46.558 : en:14
01:40:30.641 : en:15
01:45:23.099 : en:16
Скриншоты:        

mayor

Post 11-Jan-2020 08:50

[Quote]

Гарет Джонс | Mr. Jones-Год выхода: 2019
Страна: Польша, Великобритания, Украина
Жанр: триллер, драма, биография
Продолжительность: 01:59:00
Перевод Украинский дубляж
Субтитры: украинские (вшитые/форс.)-Режиссер: Агнешка Холланд-В ролях: Джеймс Нортон, Ванесса Кирби, Питер Сарсгаард, Джозеф Моул, Кеннет Крэнэм, Селин Джонс, Кшиштоф Печиньский, Фенелла Вулгар, Мартин Бишоп, Джон Эдмондсон-О фильме: В 1930-е годы в СССР приезжает молодой журналист из Уэльса Гарет Джонс, который мечтает взять интервью у Сталина. Став свидетелем жестоких репрессий и народных бедствий, Гарет с угрозой для жизни пишет статью о тёмной стороне советской утопии. Пока спецслужбы и сторонники Сталина ищут способ, как заставить его замолчать, начинающий писатель Джордж Оруэлл под впечатлением от его истории задумывает повесть «Скотный двор».-Качество: WEBRip-AVC
Формат: MKV
Видео кодек: x.264
Аудио кодек: AC3
Видео: AVC, 1024x424 (2.40:1), 24.000 fps, 1 776 kb/s
Аудио: AC3, 48.0 kHz, 6 ch, 384 kb/s | UKR (DUB)-Рекламы нет | Сэмпл-

MI

Код:
General
Unique ID                                : 230921764860659690528704334433857612068 (0xADB9EA076952B448A325490CB1A8A924)
Complete name                            : Mr. Jones.(2019).WEBRip.AVC.UKR.mkv
Format                                   : Matroska
Format version                           : Version 4
File size                                : 1.79 GiB
Duration                                 : 1 h 59 min
Overall bit rate                         : 2 159 kb/s
Encoded date                             : UTC 2020-01-09 11:16:01
Writing application                      : mkvmerge v8.3.0 ('Over the Horizon') 64bit
Writing library                          : libebml v1.3.1 + libmatroska v1.4.2
Video
ID                                       : 1
Format                                   : AVC
Format/Info                              : Advanced Video Codec
Format profile                           : High@L4.1
Format settings                          : CABAC / 9 Ref Frames
Format settings, CABAC                   : Yes
Format settings, ReFrames                : 9 frames
Codec ID                                 : V_MPEG4/ISO/AVC
Duration                                 : 1 h 59 min
Bit rate                                 : 1 776 kb/s
Width                                    : 1 024 pixels
Height                                   : 424 pixels
Display aspect ratio                     : 2.40:1
Frame rate mode                          : Constant
Frame rate                               : 24.000 FPS
Color space                              : YUV
Chroma subsampling                       : 4:2:0
Bit depth                                : 8 bits
Scan type                                : Progressive
Bits/(Pixel*Frame)                       : 0.170
Stream size                              : 1.47 GiB (82%)
Writing library                          : x264 core 142 r2431 ac76440
Encoding settings                        : cabac=1 / ref=9 / deblock=1:-1:-1 / analyse=0x3:0x113 / me=umh / subme=11 / psy=1 / psy_rd=1.00:0.15 / mixed_ref=1 / me_range=48 / chroma_me=1 / trellis=2 / 8x8dct=1 / cqm=0 / deadzone=21,11 / fast_pskip=0 / chroma_qp_offset=-5 / threads=12 / lookahead_threads=2 / sliced_threads=0 / nr=0 / decimate=1 / interlaced=0 / bluray_compat=0 / constrained_intra=0 / bframes=8 / b_pyramid=2 / b_adapt=2 / b_bias=0 / direct=1 / weightb=1 / open_gop=0 / weightp=2 / keyint=240 / keyint_min=23 / scenecut=40 / intra_refresh=0 / rc_lookahead=60 / rc=2pass / mbtree=1 / bitrate=1776 / ratetol=1.0 / qcomp=0.60 / qpmin=10 / qpmax=69 / qpstep=4 / cplxblur=20.0 / qblur=0.5 / vbv_maxrate=50000 / vbv_bufsize=62500 / nal_hrd=none / filler=0 / ip_ratio=1.40 / aq=1:1.00
Language                                 : English
Default                                  : Yes
Forced                                   : No
Audio
ID                                       : 2
Format                                   : AC-3
Format/Info                              : Audio Coding 3
Commercial name                          : Dolby Digital
Codec ID                                 : A_AC3
Duration                                 : 1 h 59 min
Bit rate mode                            : Constant
Bit rate                                 : 384 kb/s
Channel(s)                               : 6 channels
Channel layout                           : L R C LFE Ls Rs
Sampling rate                            : 48.0 kHz
Frame rate                               : 31.250 FPS (1536 SPF)
Bit depth                                : 16 bits
Compression mode                         : Lossy
Stream size                              : 327 MiB (18%)
Language                                 : Ukrainian
Service kind                             : Complete Main
Default                                  : Yes
Forced                                   : No

Рейтинг

Скриншоты

         
- -Сборка релиза - Theseus

mayor

Post 11-Jan-2020 08:48

[Quote]

Фокстер и Макс-Год выхода: 2019
Страна: Украина
Жанр: фэнтези, приключения, семейный
Продолжительность: 01:28:31
Перевод; Украинский язык
Субтитры: Отсутствуют-Режиссер: Анатолий Матешко-В ролях: Томаш Освецинский, Максим Самчик, Дарья Полунина, Владислав Мамчур, Роман Халаимов, Богдан Козий, Максим Родионов, Виталия Турчин, Анастасия Походенко-О фильме: По сюжету, мальчик Макс использовал нано-краски и его мечта сбылась: нарисованное им граффити ожило и превратилось в собаку-супергероя Фокстера.-Качество: WEBRip-AVC
Формат: MKV
Видео кодек: x.264
Аудио кодек: AC3
Видео: AVC, 1024x456 (2.25:1), 24.000 fps, 1 962 kb/s
Аудио: AC-3, 48.0 kHz, 2 ch, 192 kb/s | [UKR / Line]-Рекламы нет | Сэмпл-

MI

Код:
General
Unique ID : 215104204500763337977663310036011134106 (0xA1D39017AB4926839B1FFA7180A92C9A)
Complete name : Foxter.and.Max.(2019).WEBRip.AVC.UKR.mkv
Format : Matroska
Format version : Version 4
File size : 1.33 GiB
Duration : 1 h 28 min
Overall bit rate : 2 154 kb/s
Encoded date : UTC 2020-01-08 12:56:58
Writing application : mkvmerge v8.3.0 ('Over the Horizon') 64bit
Writing library : libebml v1.3.1 + libmatroska v1.4.2
Video
ID : 1
Format : AVC
Format/Info : Advanced Video Codec
Format profile : High@L4.1
Format settings : CABAC / 9 Ref Frames
Format settings, CABAC : Yes
Format settings, ReFrames : 9 frames
Codec ID : V_MPEG4/ISO/AVC
Duration : 1 h 28 min
Bit rate : 1 962 kb/s
Width : 1 024 pixels
Height : 456 pixels
Display aspect ratio : 2.25:1
Frame rate mode : Constant
Frame rate : 24.000 FPS
Color space : YUV
Chroma subsampling : 4:2:0
Bit depth : 8 bits
Scan type : Progressive
Bits/(Pixel*Frame) : 0.175
Stream size : 1.21 GiB (91%)
Writing library : x264 core 142 r2431 ac76440
Encoding settings : cabac=1 / ref=9 / deblock=1:-1:-1 / analyse=0x3:0x113 / me=umh / subme=11 / psy=1 / psy_rd=1.00:0.15 / mixed_ref=1 / me_range=48 / chroma_me=1 / trellis=2 / 8x8dct=1 / cqm=0 / deadzone=21,11 / fast_pskip=0 / chroma_qp_offset=-5 / threads=12 / lookahead_threads=2 / sliced_threads=0 / nr=0 / decimate=1 / interlaced=0 / bluray_compat=0 / constrained_intra=0 / bframes=8 / b_pyramid=2 / b_adapt=2 / b_bias=0 / direct=1 / weightb=1 / open_gop=0 / weightp=2 / keyint=240 / keyint_min=23 / scenecut=40 / intra_refresh=0 / rc_lookahead=60 / rc=2pass / mbtree=1 / bitrate=1962 / ratetol=1.0 / qcomp=0.60 / qpmin=10 / qpmax=69 / qpstep=4 / cplxblur=20.0 / qblur=0.5 / vbv_maxrate=50000 / vbv_bufsize=62500 / nal_hrd=none / filler=0 / ip_ratio=1.40 / aq=1:1.00
Language : Ukrainian
Default : Yes
Forced : No
Audio
ID : 2
Format : AC-3
Format/Info : Audio Coding 3
Commercial name : Dolby Digital
Codec ID : A_AC3
Duration : 1 h 28 min
Bit rate mode : Constant
Bit rate : 192 kb/s
Channel(s) : 2 channels
Channel layout : L R
Sampling rate : 48.0 kHz
Frame rate : 31.250 FPS (1536 SPF)
Bit depth : 16 bits
Compression mode : Lossy
Stream size : 122 MiB (9%)
Default : Yes
Forced : No

Рейтинг

Скриншоты

         
- -Сборка релиза - Theseus

mayor

Post 03-Jan-2020 10:01

[Quote]

- Стоянка / The Layover - Производство: США, Unified Pictures, Bron Studios, Creative Wealth Media Finance
Жанр: Комедия
Режиссер: Уильям Х. Мэйси
Актеры: Кейт Аптон, Александра Даддарио, Мэтт Барр, Мэтт Джонс, Кэл Пенн, Роб Кордри, Молли Шеннон, Уильям Х. Мэйси, Джон Кассини, Кэрри Гензел
Описание:
История весёлых и нецеломудренных похождений двух лучших подруг, решивших сбежать от повседневных проблем в тропическое путешествие. Но из-за штормового предупреждения их самолет неожиданно меняет курс, и, что еще хуже, девушки вступают в борьбу за одного красавца-попутчика.

Возраст: 16+ (зрителям, достигшим 16 лет)
Рейтинг MPAA: R (лицам до 17 лет обязательно присутствие взрослого)
Дата мировой премьеры: 1 сентября 2017
Продолжительность: 01:28:55
Качество видео: WEB-DLRip [http://s2.zalivalka.ru/download/360450/clip20170903195124.avi]
Перевод: Многоголосый закадровый (MUZOBOZ)
Субтитры: отсутствуют
Реклама: Присутствуют голосовые, текстовые и видео вставки рекламы
Видео: Xvid, 720x304, ~1807 kbps
Аудио: AC3, 2 ch, 384 Kbps

MI

General
Complete name : D:\Zona Downloads\The.Layover.2017.P.WEB-DLRip.14OOMB.avi
Format : AVI
Format/Info : Audio Video Interleave
File size : 1.37 GiB
Duration : 1 h 28 min
Overall bit rate : 2 201 kb/s
Writing application : VirtualDubMod 1.5.10.2 (build 2540/release)
Writing library : VirtualDubMod build 2540/release
Video
ID : 0
Format : MPEG-4 Visual
Format profile : Advanced Simple@L5
Format settings, BVOP : 2
Format settings, QPel : No
Format settings, GMC : No warppoints
Format settings, Matrix : Default (MPEG)
Codec ID : XVID
Codec ID/Hint : XviD
Duration : 1 h 28 min
Bit rate : 1 808 kb/s
Width : 720 pixels
Height : 304 pixels
Display aspect ratio : 2.35:1
Frame rate : 23.976 (24000/1001) FPS
Color space : YUV
Chroma subsampling : 4:2:0
Bit depth : 8 bits
Scan type : Progressive
Compression mode : Lossy
Bits/(Pixel*Frame) : 0.344
Stream size : 1.12 GiB (82%)
Writing library : XviD 1.2.1 (UTC 2008-12-04)
Audio
ID : 1
Format : AC-3
Format/Info : Audio Coding 3
Format settings, Endianness : Big
Codec ID : 2000
Duration : 1 h 28 min
Bit rate mode : Constant
Bit rate : 384 kb/s
Channel(s) : 2 channels
Channel positions : Front: L R
Sampling rate : 48.0 kHz
Frame rate : 31.250 FPS (1536 SPF)
Bit depth : 16 bits
Compression mode : Lossy
Stream size : 244 MiB (17%)
Alignment : Split accross interleaves
Interleave, duration : 42 ms (1.00 video frame)
Interleave, preload duratio : 500 ms
Service kind : Complete Main
Скриншоты:
       

mayor

Post 03-Jan-2020 09:59

[Quote]

-Возьми меня штурмом / Raid dingue - Производство: Франция, Бельгия / Artmis Productions
Жанр: комедия
Режиссер: Дэни Бун
Продюсер: Жером Сейду, Вивьен Асланян, Дэни Бун
Актеры: Алис Поль, Дани Бун, Мишель Блан, Иван Атталь, Сабин Азема, Патрик Милле, Франсуа Леванталь, Энн Маривин, Флоран Пейр, Ален Дуте
Описание:
Во французском спецназе нет места чувствам. Но всё меняется, когда в ряды элитного подразделения врывается яркая и сексуальная девушка-полицейский. Она сходу покоряет всех бравых парней, и те моментально влюбляются в новую сотрудницу. Непреклонен только командир отряда: девушкам в спецназе делать нечего! Может ли в борьбе амбиций вспыхнуть настоящая любовь?

Возраст: 12+ (зрителям, достигшим 12 лет)
Дата мировой премьеры: 19 декабря 2016
Дата российской премьеры: 6 апреля 2017, «МВК»

Релиз от: Magnetto83
Продолжительность: 01:46:24
Качество: BDRip 1080p-LQ
Перевод: Дублированный (iTunes)
Субтитры: Английские, Французские | PGS |
Видео: AVC/H.264, 1920x800, (2.40:1), 5 426 Kbps, 23.976 FPS
Аудио: AC3, 6 ch, 384 kbps - Русский

MI

General
Unique ID : 244203086533049731304747192204031299040 (0xB7B7CDBE675419A0BC79A9DD9EDA0DE0)
Complete name : Возьми меня штурмом 2016 Dub Rus iTunes BDRip 1080p.mkv
Format : Matroska
Format version : Version 4 / Version 2
File size : 4.33 GiB
Duration : 1 h 46 min
Overall bit rate : 5 826 kb/s
Movie name : Возьми меня штурмом 2016 Dub Rus BDRip 1080p By R.G. GoldenShara
Encoded date : UTC 2017-07-09 11:32:26
Writing application : mkvmerge v7.8.0 ('River Man') 32bit built on Mar 27 2015 16:18:02
Writing library : libebml v1.3.1 + libmatroska v1.4.2
Video
ID : 1
Format : AVC
Format/Info : Advanced Video Codec
Format profile : [url=mailto:High@L4.1]High@L4.1[/url]
Format settings, CABAC : Yes
Format settings, ReFrames : 5 frames
Codec ID : V_MPEG4/ISO/AVC
Duration : 1 h 46 min
Bit rate : 5 426 kb/s
Width : 1 920 pixels
Height : 800 pixels
Display aspect ratio : 2.40:1
Frame rate mode : Constant
Frame rate : 23.976 (24000/1001) FPS
Color space : YUV
Chroma subsampling : 4:2:0
Bit depth : 8 bits
Scan type : Progressive
Bits/(Pixel*Frame) : 0.147
Stream size : 4.03 GiB (93%)
Title : Возьми меня штурмом 2016 BDRip 1080p By Magnetto 83
Writing library : x264 core 146 r2538 121396c
Encoding settings : cabac=1 / ref=5 / deblock=1:-3:-3 / analyse=0x3:0x113 / me=umh / subme=11 / psy=1 / psy_rd=1.00:0.00 / mixed_ref=1 / me_range=32 / chroma_me=1 / trellis=2 / 8x8dct=1 / cqm=0 / deadzone=21,11 / fast_pskip=0 / chroma_qp_offset=-2 / threads=3 / lookahead_threads=1 / sliced_threads=0 / nr=0 / decimate=1 / interlaced=0 / bluray_compat=0 / constrained_intra=0 / bframes=8 / b_pyramid=2 / b_adapt=2 / b_bias=0 / direct=3 / weightb=1 / open_gop=0 / weightp=2 / keyint=250 / keyint_min=23 / scenecut=40 / intra_refresh=0 / rc=2pass / mbtree=0 / bitrate=5426 / ratetol=1.0 / qcomp=0.60 / qpmin=0 / qpmax=69 / qpstep=4 / cplxblur=20.0 / qblur=0.5 / ip_ratio=1.40 / pb_ratio=1.30 / aq=2:1.00
Language : French
Default : Yes
Forced : No
Audio
ID : 2
Format : AC-3
Format/Info : Audio Coding 3
Format settings, Endianness : Big
Codec ID : A_AC3
Duration : 1 h 46 min
Bit rate mode : Constant
Bit rate : 384 kb/s
Channel(s) : 6 channels
Channel positions : Front: L C R, Side: L R, LFE
Sampling rate : 48.0 kHz
Frame rate : 31.250 FPS (1536 spf)
Bit depth : 16 bits
Compression mode : Lossy
Stream size : 292 MiB (7%)
Title : DD 5.1 @ 384 Kbps - Dub | iTunes |
Language : Russian
Service kind : Complete Main
Default : Yes
Forced : No
Text #1
ID : 3
Format : PGS
Muxing mode : zlib
Codec ID : S_HDMV/PGS
Codec ID/Info : Picture based subtitle format used on BDs/HD-DVDs
Duration : 5 s 5 ms
Bit rate : 11.7 kb/s
Count of elements : 2
Stream size : 7.13 KiB (0%)
Language : Russian
Default : No
Forced : No
Text #2
ID : 4
Format : PGS
Muxing mode : zlib
Codec ID : S_HDMV/PGS
Codec ID/Info : Picture based subtitle format used on BDs/HD-DVDs
Duration : 1 h 45 min
Bit rate : 11.1 kb/s
Count of elements : 3874
Stream size : 8.37 MiB (0%)
Language : French
Default : No
Forced : No
Text #3
ID : 5
Format : PGS
Muxing mode : zlib
Codec ID : S_HDMV/PGS
Codec ID/Info : Picture based subtitle format used on BDs/HD-DVDs
Duration : 1 h 44 min
Bit rate : 9 078 b/s
Count of elements : 3086
Stream size : 6.80 MiB (0%)
Language : English
Default : No
Forced : No
Menu
00:00:00.000 : en:Chapter 1
00:07:39.792 : en:Chapter 2
00:17:45.647 : en:Chapter 3
00:27:53.838 : en:Chapter 4
00:37:35.044 : en:Chapter 5
00:46:48.931 : en:Chapter 6
00:57:19.936 : en:Chapter 7
01:06:35.992 : en:Chapter 8
01:16:37.593 : en:Chapter 9
01:24:14.716 : en:Chapter 10
01:33:08.791 : en:Chapter 11
01:42:39.278 : en:Chapter 12
Скриншоты:
       

mayor

Post 03-Jan-2020 09:57

[Quote]

- Подстава / Set It Up - Производство: США / Treehouse Pictures
Жанр: Мелодрама, Комедия
Режиссер: Клер Скэнлон
Продюсер: Джульетт Берман, Джастин Наппи, Кэрри Фикс
Актеры: Зои Дойч, Люси Лью, Пит Дэвидсон, Титус Берджесс, Глен Пауэлл, Тэй Диггз, Эван Парк, Мередит Хагнер, Ной Роббинс, Ширли Родригес
Описание:
Согласно прологу фильма, ассистенты в Америке — это легальное рабство в почти буквальном смысле. И главные герои в фильме — два таких ассистента. Они знают, какой кофе пьют их боссы, на какую еду у них аллергия, какое место в городе они любят больше всего, какого числа они расстались с бывшими и какой научный проект лучше сделать для их ребенка. Работа, на которой с утра и до ночи приходится быть живым органайзером деспотичного трудоголика.
Но однажды, двум ассистентам приходит в голову свести своих боссов, чтобы те, хотя бы иногда, отсутствовали на работе, и у ассистентов появилась своя жизнь...

Дата мировой премьеры: 15 июня 2018
Релиз от: OlLanDGroup
Продолжительность: 01:45:32
Качество видео: WEB-DLRip [http://sendfile.su/1427772]
Перевод: Многоголосый закадровый (HDrezka Studio)
Субтитры: Английские (полные, SDH)
Реклама: Отсутствует
Видео: AVC/H.264, 1024x426, ~1403 Kbps
Аудио #1: AC-3, 2 ch, 192 Kbps | Многоголосый закадровый
Аудио #2: AC-3, 6 ch, 384 Kbps | Английский (Оригинал)

MI

Общее
Уникальный идентификатор : 243622026549415644485465230866563882694 (0xB747E546542B9A9BAD5CAD3E4E0A5EC6)
Полное имя : D:\CD\Подстава (Комедия-Мелодрама) (2018) WEB-DLRip\Подстава_2018_WEB-DLRip_MVO.mkv
Формат : Matroska
Версия формата : Version 4 / Version 2
Размер файла : 1,46 Гбайт
Продолжительность : 1 ч. 45 м.
Общий поток : 1978 Кбит/сек
Название фильма : Set.It.Up.2018 #TorpedoUK#
Дата кодирования : UTC 2018-06-27 16:21:25
Программа кодирования : mkvmerge v8.3.0 ('Over the Horizon') 64bit
Библиотека кодирования : libebml v1.3.1 + libmatroska v1.4.2
Видео
Идентификатор : 1
Формат : AVC
Формат/Информация : Advanced Video Codec
Профиль формата : [url=mailto:High@L4.1]High@L4.1[/url]
Настройки формата : CABAC / 10 Ref Frames
Параметр CABAC формата : Да
Параметр RefFrames формата : 10 кадров
Идентификатор кодека : V_MPEG4/ISO/AVC
Продолжительность : 1 ч. 45 м.
Битрейт : 1403 Кбит/сек
Ширина : 1024 пикселя
Высота : 426 пикселей
Соотношение сторон : 2,40:1
Режим частоты кадров : Постоянный
Частота кадров : 23,976 (24000/1001) кадра/сек
Цветовое пространство : YUV
Субдискретизация насыщенности : 4:2:0
Битовая глубина : 8 бит
Тип развёртки : Прогрессивная
Бит/(Пиксели*Кадры) : 0.134
Размер потока : 1,03 Гбайт (71%)
Библиотека кодирования : x264 core 146 r2538 121396c
Настройки программы : cabac=1 / ref=10 / deblock=1:-3:-3 / analyse=0x3:0x113 / me=umh / subme=11 / psy=1 / psy_rd=0.99:0.05 / mixed_ref=1 / me_range=48 / chroma_me=1 / trellis=2 / 8x8dct=1 / cqm=0 / deadzone=21,11 / fast_pskip=1 / chroma_qp_offset=-3 / threads=6 / lookahead_threads=1 / sliced_threads=0 / nr=0 / decimate=1 / interlaced=0 / bluray_compat=0 / constrained_intra=0 / bframes=10 / b_pyramid=2 / b_adapt=2 / b_bias=0 / direct=3 / weightb=1 / open_gop=0 / weightp=2 / keyint=240 / keyint_min=23 / scenecut=40 / intra_refresh=0 / rc_lookahead=40 / rc=2pass / mbtree=1 / bitrate=1403 / ratetol=1.0 / qcomp=0.60 / qpmin=0 / qpmax=69 / qpstep=4 / cplxblur=20.0 / qblur=0.5 / vbv_maxrate=50000 / vbv_bufsize=62500 / nal_hrd=none / filler=0 / ip_ratio=1.40 / aq=1:1.00
Default : Да
Forced : Нет
Аудио #1
Идентификатор : 2
Формат : AC-3
Формат/Информация : Audio Coding 3
Идентификатор кодека : A_AC3
Продолжительность : 1 ч. 45 м.
Вид битрейта : Постоянный
Битрейт : 192 Кбит/сек
Каналы : 2 канала
Расположение каналов : Front: L R
Частота : 48,0 КГц
Частота кадров : 31,250 кадров/сек (1536 SPF)
Битовая глубина : 16 бит
Метод сжатия : С потерями
Размер потока : 145 Мбайт (10%)
Заголовок : [HDRezka Studio]
Язык : Russian
ServiceKind/String : Complete Main
Default : Да
Forced : Нет
Аудио #2
Идентификатор : 3
Формат : AC-3
Формат/Информация : Audio Coding 3
Идентификатор кодека : A_AC3
Продолжительность : 1 ч. 45 м.
Вид битрейта : Постоянный
Битрейт : 384 Кбит/сек
Каналы : 6 каналов
Расположение каналов : Front: L C R, Side: L R, LFE
Частота : 48,0 КГц
Частота кадров : 31,250 кадров/сек (1536 SPF)
Битовая глубина : 16 бит
Метод сжатия : С потерями
Размер потока : 290 Мбайт (19%)
Заголовок : Original
Язык : English
ServiceKind/String : Complete Main
Default : Нет
Forced : Нет
Текст #1
Идентификатор : 4
Формат : UTF-8
Идентификатор кодека : S_TEXT/UTF8
Идентификатор кодека/Информация : UTF-8 Plain Text
Продолжительность : 1 ч. 42 м.
Битрейт : 82 бит/сек
ElementCount : 1612
Размер потока : 61,6 Кбайт (0%)
Заголовок : Full
Язык : English
Default : Нет
Forced : Нет
Текст #2
Идентификатор : 5
Формат : UTF-8
Идентификатор кодека : S_TEXT/UTF8
Идентификатор кодека/Информация : UTF-8 Plain Text
Продолжительность : 1 ч. 42 м.
Битрейт : 89 бит/сек
ElementCount : 1705
Размер потока : 67,6 Кбайт (0%)
Заголовок : SDH
Язык : English
Default : Нет
Forced : Нет
Скриншоты:
       

mayor

Post 03-Jan-2020 09:56

[Quote]

-Загадочное убийство / Murder Mystery - Производство: США / Endgame Entertainment, Happy Madison Productions, Tower Hill Entertainment, Vinson Films
Жанр: Комедия, детектив
Режиссер: Кайл Ньюачек
Актеры: Адам Сэндлер, Дженнифер Энистон, Люк Эванс, Джемма Артертон, Джеки Сэндлер, Оулавюр Дарри Оулафссон, Джон Кани, Теренс Стэмп, Сиори Куцуна, Элен Кардона
Описание:
Чтобы оживить семейные отношения полицейский из Нью-Йорка вместе со своей женой отправляются в путешествие по Европе. В самолете они знакомятся с богатым пожилым мужчиной, который приглашает их на свою роскошную яхту. Но там его убивают, а они становятся главными подозреваемыми...

Рейтинг MPAA: PG-13 (детям до 13 лет просмотр нежелателен)
Дата мировой премьеры: 14 июня 2019
Продолжительность: 01:37:47
Качество видео: WEB-DLRip
Перевод: Дублированный (Пифагор)
Субтитры: Русские (форс., полные), Английские (SDH)
Видео: HEVC/H.265, 1024x512, 1797 Kbps
Аудио 1: AC3, 2 ch, 160 Kbps | Русский
Аудио 2: AC3, 2 ch, 160 Kbps | Английский

MI

Общее
Уникальный идентификатор : 165598115061346500987900003403914325925 (0x7C95096F33F75B550FE3D806A400AFA5)
Полное имя : Murder.Mystery.2019.WEB-DLRip.10bit.HEVC.mkv
Формат : Matroska
Версия формата : Version 4 / Version 2
Размер файла : 1,48 Гбайт
Продолжительность : 1 ч. 37 м.
Общий поток : 2160 Кбит/сек
Название фильма : Murder Mystery (2019)
Программа кодирования : XviD4PSP 8.0.91
Библиотека кодирования : Lavf58.20.100
ErrorDetectionType : Per level 1
ENCODING_INFO : MATROSKA,WEBM > MKV
Видео
Идентификатор : 1
Формат : HEVC
Формат/Информация : High Efficiency Video Coding
Профиль формата : Main [url=mailto:10@L4.1]10@L4.1[/url]@High
Идентификатор кодека : V_MPEGH/ISO/HEVC
Продолжительность : 1 ч. 37 м.
Битрейт : 1797 Кбит/сек
Ширина : 1024 пикселя
Высота : 512 пикселей
Соотношение сторон : 2,000
Режим частоты кадров : Постоянный
Частота кадров : 24,000 кадра/сек
Цветовое пространство : YUV
Субдискретизация насыщенности : 4:2:0
Битовая глубина : 10 бит
Бит/(Пиксели*Кадры) : 0.143
Размер потока : 1,23 Гбайт (83%)
Default : Да
Forced : Нет
Цветовой диапазон : Full
ENCODING_INFO : H264 > HEVC NVENC VBR 2000kbps HQ
Аудио #1
Идентификатор : 2
Формат : AC-3
Формат/Информация : Audio Coding 3
Параметр Endianness формата : Big
Идентификатор кодека : A_AC3
Продолжительность : 1 ч. 37 м.
Вид битрейта : Постоянный
Битрейт : 160 Кбит/сек
Каналы : 2 канала
Расположение каналов : Front: L R
Частота : 48,0 КГц
Частота кадров : 31,250 кадров/сек (1536 SPF)
Битовая глубина : 16 бит
Метод сжатия : С потерями
Размер потока : 112 Мбайт (7%)
Заголовок : Dub
Язык : Russian
ServiceKind/String : Complete Main
Default : Да
Forced : Нет
ENCODING_INFO : EAC3 > AC3 CBR 160kbps
Аудио #2
Идентификатор : 3
Формат : AC-3
Формат/Информация : Audio Coding 3
Параметр Endianness формата : Big
Идентификатор кодека : A_AC3
Продолжительность : 1 ч. 37 м.
Вид битрейта : Постоянный
Битрейт : 160 Кбит/сек
Каналы : 2 канала
Расположение каналов : Front: L R
Частота : 48,0 КГц
Частота кадров : 31,250 кадров/сек (1536 SPF)
Битовая глубина : 16 бит
Метод сжатия : С потерями
Размер потока : 112 Мбайт (7%)
Заголовок : Original
Язык : English
ServiceKind/String : Complete Main
Default : Нет
Forced : Нет
ENCODING_INFO : EAC3 > AC3 CBR 160kbps
Текст #1
Идентификатор : 4
Формат : UTF-8
Идентификатор кодека : S_TEXT/UTF8
Идентификатор кодека/Информация : UTF-8 Plain Text
Заголовок : Forced
Язык : Russian
Default : Да
Forced : Да
ENCODING_INFO : SUBRIP > COPY Быстрое
Текст #2
Идентификатор : 5
Формат : UTF-8
Идентификатор кодека : S_TEXT/UTF8
Идентификатор кодека/Информация : UTF-8 Plain Text
Заголовок : Full
Язык : Russian
Default : Нет
Forced : Нет
ENCODING_INFO : SUBRIP > COPY Быстрое
Текст #3
Идентификатор : 6
Формат : UTF-8
Идентификатор кодека : S_TEXT/UTF8
Идентификатор кодека/Информация : UTF-8 Plain Text
Заголовок : SDH
Язык : English
Default : Нет
Forced : Нет
ENCODING_INFO : SUBRIP > COPY Быстрое
Скриншоты:
       

Орлов Владимир

Post 31-Dec-2019 13:09

[Quote]

--Перспектива / Prospect--
Информация о фильме
Название: Перспектива
Оригинальное название: Prospect
Год выхода: 2018
Жанр: [url=/tag/1/Фантастика]Фантастика[/url], [url=/tag/1/триллер]триллер[/url], [url=/tag/1/драма]драма[/url]
Режиссер: Кристофер Колдуэлл, Зик Эрл--В ролях: Софи Тэтчер, Джей Дюпласс, Педро Паскаль, Люк Питцрик, Артур Деранло, Андре Ройо, Алекс МакКоли, Даг Доусон, Криста Джонсон, Брайан Гантер--О фильме:
В надежде разбогатеть отец с дочерью отправляются на отдалённую луну, где планируют добывать драгоценные камни, сокрытые в глубине опасных лесов. Быстро выясняется, что на луне есть и другие люди, желающие поправить собственное финансовое положение. В итоге вся операция превращается в попытку выжить и сохранить свои жизни. Вынужденная сражаться не только с внешними врагами, но и с жадностью отца, девушка понимает, что она должна сама проложить себе путь к спасению.-- --Страна: Канада, США
Студия: Depth of Field, Ground Control, BRON Studios
Продолжительность: 01:39:48
Перевод: Дублированный iTunes--Файл
Формат: MKV
Качество: BDRemux 1080p
Видео: MPEG-4 AVC, 23,6 Mбит/с, 1920x1080, 23,976 кадра/с
Аудио 1: Русский (AC3, 6 ch, 384 Кбит/с) Dub | iTunes
Аудио 2: Английский (DTS-HD MA, 6 ch, 1868 Кбит/с) Original
Субтитры: Русские, английские, датские, финские, норвежские, шведские--Семпл--

Интересно

• Частицы ядовитой пыли в фильме не являются продуктом компьютерных технологий. Пыль действительно собрали, подбросили в воздух, сняли и наложили на изображение в нужных сценах.
• Все сцены на натуре снимали в дождевом лесу национального парка Олимпик на территории одноимённого полуострова в штате Вашингтон, США.

Скриншоты

       

Орлов Владимир

Post 30-Dec-2019 05:06

[Quote]

--Перспектива / Prospect--
Информация о фильме
Название: Перспектива
Оригинальное название: Prospect
Год выхода: 2018
Жанр: Фантастика, драма, триллер
Режиссер: Кристофер Колдуэлл, Зик Эрл--В ролях: Софи Тэтчер, Джей Дюпласс, Педро Паскаль, Люк Питцрик, Артур Деранло, Андре Ройо, Алекс МакКоли, Даг Доусон, Криста Джонсон, Брайан Гантер--О фильме: В надежде разбогатеть отец с дочерью отправляются на отдалённую луну, где планируют добывать драгоценные камни, сокрытые в глубине опасных лесов. Быстро выясняется, что на луне есть и другие люди, желающие поправить собственное финансовое положение. В итоге вся операция превращается в попытку выжить и сохранить свои жизни. Вынужденная сражаться не только с внешними врагами, но и с жадностью отца, девушка понимает, что она должна сама проложить себе путь к спасению.-- --Страна: Канада, США
Студия: Depth of Field, Ground Control, BRON Studios
Продолжительность: 01:39:51
Перевод: Дублированный iTunes--Качество: BDRemux 2160p
Видео: 3840x2160 at 23.976 fps, MPEG-H HEVC HDR Video, 53200 kbps avg
Аудио #01: 48 kHz, AC3, 5.1, 384 Kbps | iTunes | RUS |
Аудио #02: 48 kHz, DTS-HD MA, 5.1, 1800 Kbps | Оригинал | ENG |
Субтитры: Русские (Full), английские

Скриншоты

           

Тех.данные видеофайла

General
Unique ID : 191184001531518365949881639639702488988 (0x8FD4B30830DC57D3C794F2E1F632C79C)
Complete name : E:Video111Prospect.2018.BDREMUX.2160p.HDR.seleZen.mkv
Format : Matroska
Format version : Version 4
File size : 38.6 GiB
Duration : 1 h 39 min
Overall bit rate mode : Variable
Overall bit rate : 55.4 Mb/s
Movie name : Prospect 2018 from селезень
Encoded date : UTC 2019-12-30 00:20:50
Writing application : mkvmerge v40.0.0 ('Old Town Road + Pony') 64-bit
Writing library : libebml v1.3.9 + libmatroska v1.5.2
Video
ID : 1
Format : HEVC
Format/Info : High Efficiency Video Coding
Format profile : Main 10@L5.1@High
HDR format : SMPTE ST 2086, HDR10 compatible
Codec ID : V_MPEGH/ISO/HEVC
Duration : 1 h 39 min
Bit rate : 53.2 Mb/s
Width : 3 840 pixels
Height : 2 160 pixels
Display aspect ratio : 16:9
Frame rate mode : Constant
Frame rate : 23.976 (24000/1001) FPS
Color space : YUV
Chroma subsampling : 4:2:0 (Type 2)
Bit depth : 10 bits
Bits/(Pixel*Frame) : 0.268
Stream size : 37.1 GiB (96%)
Language : English
Default : Yes
Forced : No
Color range : Limited
Color primaries : BT.2020
Transfer characteristics : PQ
Matrix coefficients : BT.2020 non-constant
Mastering display color pri: Display P3
Mastering display luminance: min: 0.0050 cd/m2, max: 1000 cd/m2
Maximum Content Light Level: 1000 cd/m2
Maximum Frame-Average Light: 516 cd/m2
Audio #1
ID : 2
Format : AC-3
Format/Info : Audio Coding 3
Commercial name : Dolby Digital
Codec ID : A_AC3
Duration : 1 h 39 min
Bit rate mode : Constant
Bit rate : 384 kb/s
Channel(s) : 6 channels
Channel layout : L R C LFE Ls Rs
Sampling rate : 48.0 kHz
Frame rate : 31.250 FPS (1536 SPF)
Compression mode : Lossy
Stream size : 274 MiB (1%)
Title : iTunes
Language : Russian
Service kind : Complete Main
Default : Yes
Forced : Yes
Audio #2
ID : 3
Format : DTS XLL
Format/Info : Digital Theater Systems
Commercial name : DTS-HD Master Audio
Codec ID : A_DTS
Duration : 1 h 39 min
Bit rate mode : Variable
Bit rate : 1 800 kb/s
Channel(s) : 6 channels
Channel layout : C L R Ls Rs LFE
Sampling rate : 48.0 kHz
Frame rate : 93.750 FPS (512 SPF)
Bit depth : 16 bits
Compression mode : Lossless
Stream size : 1.25 GiB (3%)
Title : Original
Language : English
Default : No
Forced : No
Text #1
ID : 4
Format : UTF-8
Codec ID : S_TEXT/UTF8
Codec ID/Info : UTF-8 Plain Text
Duration : 1 h 28 min
Bit rate : 51 b/s
Count of elements : 663
Stream size : 33.3 KiB (0%)
Title : Full
Language : Russian
Default : No
Forced : No
Text #2
ID : 5
Format : UTF-8
Codec ID : S_TEXT/UTF8
Codec ID/Info : UTF-8 Plain Text
Duration : 1 h 38 min
Bit rate : 32 b/s
Count of elements : 968
Stream size : 23.6 KiB (0%)
Title : Full
Language : English
Default : No
Forced : No
Text #3
ID : 6
Format : UTF-8
Codec ID : S_TEXT/UTF8
Codec ID/Info : UTF-8 Plain Text
Duration : 1 h 38 min
Bit rate : 44 b/s
Count of elements : 1417
Stream size : 31.9 KiB (0%)
Title : SDH
Language : English
Default : No
Forced : No
Menu
00:00:00.000 : en:Глава 01
00:07:43.922 : en:Глава 02
00:13:02.532 : en:Глава 03
00:20:54.795 : en:Глава 04
00:27:59.845 : en:Глава 05
00:35:11.568 : en:Глава 06
00:46:54.061 : en:Глава 07
00:54:41.737 : en:Глава 08
01:02:19.569 : en:Глава 09
01:12:29.053 : en:Глава 10
01:20:09.304 : en:Глава 11
01:28:26.968 : en:Глава 12

Орлов Владимир

Post 30-Dec-2019 03:50

[Quote]

--Перспектива / Prospect--
Информация о фильме
Название: Перспектива
Оригинальное название: Prospect
Год выпуска: 2018
Жанр: Фантастика
Режиссер: Кристофер Колдуэлл, Зик Эрл--В ролях: Софи Тэтчер, Джей Дюпласс, Педро Паскаль, Люк Питцрик, Артур Деранло, Андре Ройо, Алекс МакКоли, Даг Доусон, Криста Джонсон, Брайан Гантер--О фильме: В надежде разбогатеть отец с дочерью отправляются на отдалённую луну, где планируют добывать драгоценные камни, сокрытые в глубине опасных лесов. Быстро выясняется, что на луне есть и другие люди, желающие поправить собственное финансовое положение. В итоге вся операция превращается в попытку выжить и сохранить свои жизни. Вынужденная сражаться не только с внешними врагами, но и с жадностью отца, девушка понимает, что она должна сама проложить себе путь к спасению.-- --Страна: Канада, США
Студия: Depth of Field, Ground Control, BRON Studios
Продолжительность: 01:40:06
Перевод: Дублированный iTunes--Файл
Формат: AVI
Качество: BDRip
Видео: 704x368 (1.91:1), 23.976 fps, XviD build 73 ~1695 kbps avg, 0.27 bit/pixel
Аудио: 48 kHz, AC3 Dolby Digital, 3/2 (L,C,R,l,r) + LFE ch, ~384 kbps
Субтитры: Нет--

Скриншоты

               
 

The time now is: Today 03:40

All times are GMT + 3 Hours