Today is a free download without charge Download

Search found 293 matches

Author Message

Clavik

Post 25-Sep-2019 16:51

[Quote]

Остров сокровищ (1988) BDRip - Производство: СССР / Киевнаучфильм
Жанр: Детский, Приключения, Комедия, Музыкальный
Режиссер: Давид Черкасский
Описание:
Шхуна «Испаньола» бороздит морские просторы в поисках острова, на котором спрятаны легендарные сокровища капитана пиратов Флинта. На корабле зреет заговор. Разбойники во главе с одноногим Джоном Сильвером, кажется, близки к цели…

Возраст: 12+ (зрителям, достигшим 12 лет)
Продолжительность: 01:51:17
Качество видео: BDRip
Субтитры: отсутствуют
Видео: AVC/H.264, 1448x1080, ~8000 kbps
Аудио: AC3, 6 ch, 448 kbps

MediaInfo:

Общее
Уникальный идентификатор : 222143379471659226035354177511240618981 (0xA71F4236B3AEC07B835629D75FD9D3E5)
Полное имя : D:\MULT\Остров.Сокровищ.BDRip.1080p.mkv
Формат : Matroska
Версия формата : Version 4
Размер файла : 6,57 Гбайт
Продолжительность : 1 ч. 51 м.
Общий поток : 8458 Кбит/сек
Название фильма : Остров сокровищ (1988) BDRemux by Bugman
Дата кодирования : UTC 2019-09-22 14:55:53
Программа кодирования : mkvmerge v8.2.0 ('World of Adventure') 64bit
Библиотека кодирования : libebml v1.3.1 + libmatroska v1.4.2
Обложка : Yes
Attachments : Cover.jpg
Видео
Идентификатор : 1
Формат : AVC
Формат/Информация : Advanced Video Codec
Профиль формата : [url=mailto:High@L4.1]High@L4.1[/url]
Настройки формата : CABAC / 5 Ref Frames
Параметр CABAC формата : Да
Параметр RefFrames формата : 5 кадров
Идентификатор кодека : V_MPEG4/ISO/AVC
Продолжительность : 1 ч. 51 м.
Битрейт : 8000 Кбит/сек
Ширина : 1488 пикселей
Высота : 1080 пикселей
Соотношение сторон : 1,378
Режим частоты кадров : Постоянный
Частота кадров : 24,000 кадра/сек
Цветовое пространство : YUV
Субдискретизация насыщенности : 4:2:0
Битовая глубина : 8 бит
Тип развёртки : Прогрессивная
Бит/(Пиксели*Кадры) : 0.207
Размер потока : 6,22 Гбайт (95%)
Библиотека кодирования : x264 core 155 r2901 7d0ff22
Настройки программы : cabac=1 / ref=5 / deblock=1:-1:-1 / analyse=0x3:0x113 / me=umh / subme=8 / psy=1 / psy_rd=1.00:0.15 / mixed_ref=1 / me_range=24 / chroma_me=1 / trellis=2 / 8x8dct=1 / cqm=0 / deadzone=21,11 / fast_pskip=1 / chroma_qp_offset=-3 / threads=4 / lookahead_threads=1 / sliced_threads=0 / nr=0 / decimate=1 / interlaced=0 / bluray_compat=0 / constrained_intra=0 / bframes=3 / b_pyramid=2 / b_adapt=1 / b_bias=0 / direct=3 / weightb=1 / open_gop=0 / weightp=2 / keyint=240 / keyint_min=24 / scenecut=40 / intra_refresh=0 / rc_lookahead=72 / rc=2pass / mbtree=1 / bitrate=8000 / ratetol=10.0 / qcomp=0.60 / qpmin=10 / qpmax=69 / qpstep=4 / cplxblur=20.0 / qblur=0.5 / vbv_maxrate=50000 / vbv_bufsize=62500 / nal_hrd=none / filler=0 / ip_ratio=1.40 / aq=1:1.00
Default : Да
Forced : Нет
Аудио
Идентификатор : 2
Формат : AC-3
Формат/Информация : Audio Coding 3
Коммерческое название : Dolby Digital
Идентификатор кодека : A_AC3
Продолжительность : 1 ч. 51 м.
Вид битрейта : Постоянный
Битрейт : 448 Кбит/сек
Каналы : 6 каналов
ChannelLayout : L R C LFE Ls Rs
Частота : 48,0 КГц
Частота кадров : 31,250 кадров/сек (1536 SPF)
Битовая глубина : 16 бит
Метод сжатия : С потерями
Размер потока : 357 Мбайт (5%)
Заголовок : Ac3 \ 5.1
Язык : Russian
ServiceKind/String : Complete Main
Default : Да
Forced : Нет
Меню
00:00:00.000 : :Chapter 01
00:04:39.000 : :Chapter 02
00:09:58.000 : :Chapter 03
00:14:41.000 : :Chapter 04
00:18:20.000 : :Chapter 05
00:23:41.000 : :Chapter 06
00:29:22.000 : :Chapter 07
00:31:18.000 : :Chapter 08
00:38:23.000 : :Chapter 09
00:43:27.000 : :Chapter 10
00:53:39.000 : :Chapter 11
00:57:22.000 : :Chapter 12
01:08:48.000 : :Chapter 13
01:23:14.000 : :Chapter 14
01:25:39.000 : :Chapter 15
01:37:47.000 : :Chapter 16
Скриншоты:
       

Clavik

Post 14-Sep-2019 09:21

[Quote]

Пиноккио / Pinocchio (1940) BDRemux - Производство: США / Walt Disney
Жанр: Приключения, Комедия, Детский
Режиссер: Норман Фергюсон, Т. Хи, Уилфред Джексон
Описание:
Голубая фея оживила куклу-марионетку, но чтобы стать настоящим человеком, герою надо в добрых делах проявить свою храбрость и честность. И вот длинноносый непоседа и его совестливый друг сверчок Джимини Крикет отправляются навстречу самым невероятным приключениям.
Они встретят злого кукольника Стромболи, заглянут на обманчивый Остров удовольствий, где непослушных мальчиков превращают в ослов на продажу, и даже побывают в чреве чудовищного кита, проглотившего отца Пиноккио — мастера Джепетто

Возраст: 0+ (для любой зрительской аудитории)
Рейтинг MPAA: G (нет возрастных ограничений)
Продолжительность: 01:27:44
Качество видео: BDRemux
Перевод: Дублированный, профессиональный многоголосый, авторский
Субтитры: русские, английские
Видео: AVC/H.264, 1920x1080, ~28.4 mbps
Аудио 1: AC3, 6 ch, 640 kbps, Русский (DUB)
Аудио 2: AC3, 6 ch, 384 kbps, Русский (MVO R5)
Аудио 3: AC3, 6 ch, 384 kbps, Русский (AVO А.Гаврилов)
Аудио 4: DTS-HD MA, 8 ch, 3446 kbps, Английский

MediaInfo:

Общее
Уникальный идентификатор : 211574644608754093798939527242483220881 (0x9F2BCB5AAF9E587B9714646274DBC191)
Полное имя : D:\MULT\Pinokkio.1940.BD-Remux.1080p.mkv
Формат : Matroska
Версия формата : Version 4
Размер файла : 20,4 Гбайт
Продолжительность : 1 ч. 27 м.
Режим общего битрейта : Переменный
Общий поток : 33,3 Мбит/сек
Дата кодирования : UTC 2019-09-14 00:59:24
Программа кодирования : mkvmerge v8.2.0 ('World of Adventure') 64bit
Библиотека кодирования : libebml v1.3.1 + libmatroska v1.4.2
Видео
Идентификатор : 1
Формат : AVC
Формат/Информация : Advanced Video Codec
Профиль формата : [url=mailto:High@L4.1]High@L4.1[/url]
Настройки формата : CABAC / 3 Ref Frames
Параметр CABAC формата : Да
Параметр RefFrames формата : 3 кадра
Параметр GOP формата : M=3, N=24
Идентификатор кодека : V_MPEG4/ISO/AVC
Продолжительность : 1 ч. 27 м.
Вид битрейта : Переменный
Битрейт : 28,4 Мбит/сек
Максимальный битрейт : 40,0 Мбит/сек
Ширина : 1920 пикселей
Высота : 1080 пикселей
Соотношение сторон : 16:9
Режим частоты кадров : Постоянный
Частота кадров : 23,976 (24000/1001) кадра/сек
Цветовое пространство : YUV
Субдискретизация насыщенности : 4:2:0
Битовая глубина : 8 бит
Тип развёртки : Прогрессивная
Бит/(Пиксели*Кадры) : 0.572
Размер потока : 17,4 Гбайт (85%)
Default : Да
Forced : Нет
Аудио #1
Идентификатор : 2
Формат : AC-3
Формат/Информация : Audio Coding 3
Коммерческое название : Dolby Digital
Идентификатор кодека : A_AC3
Продолжительность : 1 ч. 27 м.
Вид битрейта : Постоянный
Битрейт : 640 Кбит/сек
Каналы : 6 каналов
ChannelLayout : L R C LFE Ls Rs
Частота : 48,0 КГц
Частота кадров : 31,250 кадров/сек (1536 SPF)
Битовая глубина : 16 бит
Метод сжатия : С потерями
Размер потока : 402 Мбайт (2%)
Заголовок : Dub
Язык : Russian
ServiceKind/String : Complete Main
Default : Нет
Forced : Нет
Аудио #2
Идентификатор : 3
Формат : AC-3
Формат/Информация : Audio Coding 3
Коммерческое название : Dolby Digital
Идентификатор кодека : A_AC3
Продолжительность : 1 ч. 27 м.
Вид битрейта : Постоянный
Битрейт : 384 Кбит/сек
Каналы : 2 канала
ChannelLayout : L R
Частота : 48,0 КГц
Частота кадров : 31,250 кадров/сек (1536 SPF)
Битовая глубина : 16 бит
Метод сжатия : С потерями
Размер потока : 241 Мбайт (1%)
Заголовок : MVO
Язык : Russian
ServiceKind/String : Complete Main
Default : Нет
Forced : Нет
Аудио #3
Идентификатор : 4
Формат : AC-3
Формат/Информация : Audio Coding 3
Коммерческое название : Dolby Digital
Идентификатор кодека : A_AC3
Продолжительность : 1 ч. 27 м.
Вид битрейта : Постоянный
Битрейт : 384 Кбит/сек
Каналы : 6 каналов
ChannelLayout : L R C LFE Ls Rs
Частота : 48,0 КГц
Частота кадров : 31,250 кадров/сек (1536 SPF)
Битовая глубина : 16 бит
Метод сжатия : С потерями
Размер потока : 241 Мбайт (1%)
Заголовок : Gavrilov
Язык : Russian
ServiceKind/String : Complete Main
Default : Да
Forced : Да
Аудио #4
Идентификатор : 5
Формат : DTS XLL
Формат/Информация : Digital Theater Systems
Коммерческое название : DTS-HD Master Audio
Идентификатор кодека : A_DTS
Продолжительность : 1 ч. 27 м.
Вид битрейта : Переменный
Битрейт : 3446 Кбит/сек
Каналы : 8 каналов
ChannelLayout : C L R LFE Lb Rb Lss Rss
Частота : 48,0 КГц
Частота кадров : 93,750 кадра/сек (512 SPF)
Битовая глубина : 24 бит
Метод сжатия : Без потерь
Размер потока : 2,11 Гбайт (10%)
Язык : English
Default : Нет
Forced : Нет
Текст #1
Идентификатор : 6
Формат : UTF-8
Идентификатор кодека : S_TEXT/UTF8
Идентификатор кодека/Информация : UTF-8 Plain Text
Продолжительность : 1 ч. 27 м.
Битрейт : 0 бит/сек
ElementCount : 7
Размер потока : 252 байт (0%)
Язык : Russian
Default : Да
Forced : Нет
Текст #2
Идентификатор : 7
Формат : UTF-8
Идентификатор кодека : S_TEXT/UTF8
Идентификатор кодека/Информация : UTF-8 Plain Text
Продолжительность : 38 м. 58 с.
Битрейт : 14 бит/сек
ElementCount : 82
Размер потока : 4,21 Кбайт (0%)
Язык : Russian
Default : Нет
Forced : Нет
Текст #3
Идентификатор : 8
Формат : UTF-8
Идентификатор кодека : S_TEXT/UTF8
Идентификатор кодека/Информация : UTF-8 Plain Text
Продолжительность : 1 ч. 27 м.
Битрейт : 78 бит/сек
ElementCount : 1008
Размер потока : 50,0 Кбайт (0%)
Язык : Russian
Default : Нет
Forced : Нет
Текст #4
Идентификатор : 9
Формат : UTF-8
Идентификатор кодека : S_TEXT/UTF8
Идентификатор кодека/Информация : UTF-8 Plain Text
Продолжительность : 1 ч. 27 м.
Битрейт : 48 бит/сек
ElementCount : 1002
Размер потока : 30,8 Кбайт (0%)
Язык : English
Default : Нет
Forced : Нет
Текст #5
Идентификатор : 10
Формат : UTF-8
Идентификатор кодека : S_TEXT/UTF8
Идентификатор кодека/Информация : UTF-8 Plain Text
Продолжительность : 1 ч. 27 м.
Битрейт : 57 бит/сек
ElementCount : 1211
Размер потока : 36,8 Кбайт (0%)
Язык : English
Default : Нет
Forced : Нет
Текст #6
Идентификатор : 11
Формат : UTF-8
Идентификатор кодека : S_TEXT/UTF8
Идентификатор кодека/Информация : UTF-8 Plain Text
Продолжительность : 1 ч. 23 м.
Битрейт : 27 бит/сек
ElementCount : 78
Размер потока : 16,8 Кбайт (0%)
Язык : Russian
Default : Нет
Forced : Нет
Скриншоты:
       

Орлов Владимир

Post 11-Sep-2019 14:34

[Quote]

-Маугли дикой планеты / Terra Willy: Planète inconnue [2019 г., Мультфильм, фантастика, комедия, приключения, полнометражный, Blu-Ray Remux 1080p] [DUB] - Информация
Название: Маугли дикой планеты
Оригинальное название: Terra Willy: Planète inconnue / Astro Kid
Год выхода: 2019
Жанр: Мультфильм, фантастика, комедия, приключения, полнометражный
Режиссер: Эрик Тости--В ролях: Тимоте Фон Дорп, Эдуард Баэр, Мари-Южени Марешаль, Гийом Лебон, Барбара Тиссье, Джейсон Каннинг, Лэнден Битти--Описание: Попав в метеоритный дождь, юный космический исследователь Вилли оказывается на неизвестной планете. С помощью робота Бака он должен выжить здесь до прибытия спасательной миссии его родителей. Но батарея Бака быстро садится, и, чтобы спасти Бака и вернуться домой, Вилли придется найти новых друзей и научиться жить по законам джунглей дикой планеты.-- --Страна: Франция
Студия: TAT Productions, Bac Films, France 3 Cinéma
Продолжительность: 01:30:03
Перевод: Дублированный | iTunes--Качество: Blu-Ray Remux (1080p)
Видео: MPEG-4 AVC, 22.1 Mбит/с, 1920x1080
Аудио #01: 48 kHz, AC3, 5.1, 384 Kbps | iTunes | RUS |
Аудио #02: DTS-HD MA, 6 ch, 2126 Кбит/с | Оригинал | ENG |
Субтитры: Английские--

Скриншоты

           

Орлов Владимир

Post 11-Sep-2019 14:26

[Quote]

-Маугли дикой планеты / Terra Willy: Planète inconnue (Эрик Тости) [2019 г., Мультфильм, фантастика, комедия, приключения, полнометражный, BDRip 1080p] [DUB] [iTunes]- Информация
Название: Маугли дикой планеты
Оригинальное название: Terra Willy: Planète inconnue / Astro Kid
Год выхода: 2019
Жанр: Мультфильм, фантастика, комедия, приключения, полнометражный
Режиссер: Эрик Тости--В ролях: Тимоте Фон Дорп, Эдуард Баэр, Мари-Южени Марешаль, Гийом Лебон, Барбара Тиссье, Джейсон Каннинг, Лэнден Битти--Описание: Попав в метеоритный дождь, юный космический исследователь Вилли оказывается на неизвестной планете. С помощью робота Бака он должен выжить здесь до прибытия спасательной миссии его родителей. Но батарея Бака быстро садится, и, чтобы спасти Бака и вернуться домой, Вилли придется найти новых друзей и научиться жить по законам джунглей дикой планеты.-- --Страна: Франция
Студия: TAT Productions, Bac Films, France 3 Cinéma
Продолжительность: 01:30:03
Перевод: Дублированный | iTunes--Качество: BDRip 1080p
Видео: MPEG-4 AVC, 1920x804, 8645 Kbit/s, 24 fps
Аудио #01: 48 kHz, AC3, 5.1, 384 Kbps | iTunes | RUS |
Аудио #02: 48 kHz, AC3, 5.1, 640 Kbps | Оригинал | ENG |
Субтитры: Английские--

Скриншоты

         

Тех.данные видеофайла

General
Unique ID : 68013913251882315639468669297556897725 (0x332B00D2CEDC8014226A0FC2617EBFBD)
Complete name : D:Video111Terra.Willy.Planete.Inconnue.aka.Astro.Kid.2019.BDRip.1080p.seleZen.mkv
Format : Matroska
Format version : Version 4
File size : 6.08 GiB
Duration : 1 h 30 min
Overall bit rate : 9 672 kb/s
Movie name : Terra Willy: Planète inconnue / Astro Kid 2019 from селезень
Encoded date : UTC 2019-09-09 02:54:06
Writing application : mkvmerge v22.0.0 ('At The End Of The World') 64-bit
Writing library : libebml v1.3.5 + libmatroska v1.4.8
Video
ID : 1
Format : AVC
Format/Info : Advanced Video Codec
Format profile : High@L4.1
Format settings : CABAC / 5 Ref Frames
Format settings, CABAC : Yes
Format settings, Reference : 5 frames
Codec ID : V_MPEG4/ISO/AVC
Duration : 1 h 30 min
Bit rate : 8 645 kb/s
Width : 1 920 pixels
Height : 804 pixels
Display aspect ratio : 2.40:1
Frame rate mode : Constant
Frame rate : 24.000 FPS
Color space : YUV
Chroma subsampling : 4:2:0
Bit depth : 8 bits
Scan type : Progressive
Bits/(Pixel*Frame) : 0.233
Stream size : 5.44 GiB (89%)
Title : Encoded by seleZen
Writing library : x264 core 148 r2705kMod 3f5ed56
Encoding settings : cabac=1 / ref=5 / deblock=1:-2:-2 / analyse=0x3:0x113 / me=umh / subme=11 / psy=1 / fade_compensate=0.00 / psy_rd=1.01:0.01 / mixed_ref=1 / me_range=32 / chroma_me=1 / trellis=2 / 8x8dct=1 / cqm=0 / deadzone=21,11 / fast_pskip=0 / chroma_qp_offset=-3 / threads=24 / lookahead_threads=6 / sliced_threads=0 / nr=0 / decimate=0 / interlaced=0 / bluray_compat=0 / constrained_intra=0 / fgo=0 / bframes=10 / b_pyramid=2 / b_adapt=2 / b_bias=0 / direct=3 / weightb=1 / open_gop=0 / weightp=2 / keyint=240 / keyint_min=24 / scenecut=40 / intra_refresh=0 / rc_lookahead=50 / rc=2pass / mbtree=0 / bitrate=8645 / ratetol=1.0 / qcomp=0.60 / qpmin=0 / qpmax=51 / qpstep=4 / cplxblur=20.0 / qblur=0.5 / vbv_maxrate=50000 / vbv_bufsize=62500 / nal_hrd=none / filler=0 / ip_ratio=1.40 / pb_ratio=1.30 / aq=3:0.80
Language : English
Default : Yes
Forced : No
Audio #1
ID : 2
Format : AC-3
Format/Info : Audio Coding 3
Commercial name : Dolby Digital
Codec ID : A_AC3
Duration : 1 h 30 min
Bit rate mode : Constant
Bit rate : 384 kb/s
Channel(s) : 6 channels
Channel layout : L R C LFE Ls Rs
Sampling rate : 48.0 kHz
Frame rate : 31.250 FPS (1536 SPF)
Bit depth : 16 bits
Compression mode : Lossy
Stream size : 247 MiB (4%)
Title : iTunes
Language : Russian
Service kind : Complete Main
Default : Yes
Forced : Yes
Audio #2
ID : 3
Format : AC-3
Format/Info : Audio Coding 3
Commercial name : Dolby Digital
Codec ID : A_AC3
Duration : 1 h 30 min
Bit rate mode : Constant
Bit rate : 640 kb/s
Channel(s) : 6 channels
Channel layout : L R C LFE Ls Rs
Sampling rate : 48.0 kHz
Frame rate : 31.250 FPS (1536 SPF)
Bit depth : 16 bits
Compression mode : Lossy
Stream size : 412 MiB (7%)
Title : Original
Language : English
Service kind : Complete Main
Default : No
Forced : No
Text
ID : 4
Format : UTF-8
Codec ID : S_TEXT/UTF8
Codec ID/Info : UTF-8 Plain Text
Duration : 1 h 23 min
Bit rate : 32 b/s
Count of elements : 798
Stream size : 19.7 KiB (0%)
Title : Full
Language : English
Default : No
Forced : No
Menu
00: 00:00.000 : it:00:00:00.000
00: 04:20.417 : it:00:04:20.417
00: 07:44.417 : it:00:07:44.417
00: 11:54.083 : it:00:11:54.083
00: 16:28.208 : it:00:16:28.208
00: 21:05.458 : it:00:21:05.458
00: 25:25.750 : it:00:25:25.750
00: 29:45.083 : it:00:29:45.083
00: 34:37.250 : it:00:34:37.250
00: 39:03.458 : it:00:39:03.458
00: 43:16.417 : it:00:43:16.417
00: 47:32.333 : it:00:47:32.333
00: 51:55.417 : it:00:51:55.417
00: 57:30.667 : it:00:57:30.667
01: 01:45.208 : it:01:01:45.208
01: 06:53.667 : it:01:06:53.667
01: 11:19.042 : it:01:11:19.042
01: 15:46.125 : it:01:15:46.125
01: 20:40.667 : it:01:20:40.667
01:26:54.875 : it:01:26:54.875

Орлов Владимир

Post 11-Sep-2019 14:16

[Quote]

-Маугли дикой планеты / Terra Willy: Planète inconnue (Эрик Тости) [2019 г., Мультфильм, фантастика, комедия, приключения, полнометражный, BDRip 720p] [DUB] [iTunes]- Информация
Название: Маугли дикой планеты
Оригинальное название: Terra Willy: Planète inconnue
Год выпуска: 2019
Жанр: Мультфильм, фантастика, комедия, приключения, полнометражный
Режиссер: Эрик Тости--В ролях: Тимоте Фон Дорп, Эдуард Баэр, Мари-Южени Марешаль, Гийом Лебон, Барбара Тиссье, Джейсон Каннинг, Лэнден Битти--Описание:
Попав в метеоритный дождь, юный космический исследователь Вилли оказывается на неизвестной планете. С помощью робота Бака он должен выжить здесь до прибытия спасательной миссии его родителей. Но батарея Бака быстро садится, и, чтобы спасти Бака и вернуться домой, Вилли придется найти новых друзей и научиться жить по законам джунглей дикой планеты.-- --Страна: Франция
Студия: TAT Productions, Bac Films, France 3 Cinéma
Продолжительность: 01:30:03
Перевод: Дублированный | iTunes--Файл
Формат: MKV
Качество: BDRip (720p)
Видео: MPEG-4 AVC, 3762 Кбит/с, 1280x536
Звук: Русский (AC3, 6 ch, 384 Кбит/с), английский (AC3, 6 ch, 640 Кбит/с)
Субтитры: Английские
--

Скриншоты

           

Theseus

Post 07-Aug-2019 21:22

[Quote]

Королевский корги / The Queen's Corgi- Год выхода: 2019
Страна: Бельгия
Жанр: мультфильм, комедия, семейный
Продолжительность: 01:25:17
Перевод Профессиональный (дублированный) | iTunes
Субтитры: Русские, Английские-Режиссер: Винсент Кестелут, Бен Стассен-В ролях: Расти Шэклфорд, Джо Уайатт, Leo Barakat, Джейн Алан, Дино Андраде, Джои Камен, Николь Шерман, Кирк Торнтон, Мэдисон Браун, Камила Родс-О фильме: Любимая порода собак у очень богатых и влиятельных людей — это корги. Маленькие собачки полностью погружены в жизнь своих больших хозяев. Спасаясь от политических интриг, любимец Британской Королевы вынужден покинуть Букингемский дворец. Теперь ему предстоит не только познакомиться с тайной жизнью улиц Лондона, но и доказать, что он настоящий Королевский Корги…- -Качество: BDRip 1080p
Формат: MKV
Видео кодек: H.265
Аудио кодек: AC3, DTS
Видео: HEVC, 1920x1080 (16:9), 24.000 fps, 6 734 kb/s, 10 bit
Аудио 1: AC3, 48.0 kHz, 6 ch, 384 Kbps | RUS (iTunes)
Аудио 2: AC3, 48.0 kHz, 6 ch, 384 Kbps | UKR (iTunes)
Аудио 3: DTS, 48.0 kHz, 6 ch, 1509 Kbps | ENG (Оригинал)-

MI

Код:
General
Unique ID                                : 248758910947048098503879604387663494447 (0xBB25393ABE634ECE806CA7ECC44ABD2F)
Complete name                            : The Queens Corgi.(2019).BDRip.1080p.HEVC.mkv
Format                                   : Matroska
Format version                           : Version 4
File size                                : 5.37 GiB
Duration                                 : 1 h 25 min
Overall bit rate                         : 9 013 kb/s
Encoded date                             : UTC 2019-08-07 12:53:01
Writing application                      : mkvmerge v8.3.0 ('Over the Horizon') 64bit
Writing library                          : libebml v1.3.1 + libmatroska v1.4.2
Video
ID                                       : 1
Format                                   : HEVC
Format/Info                              : High Efficiency Video Coding
Format profile                           : Main 10@L4.1@High
Codec ID                                 : V_MPEGH/ISO/HEVC
Duration                                 : 1 h 25 min
Bit rate                                 : 6 734 kb/s
Width                                    : 1 920 pixels
Height                                   : 1 080 pixels
Display aspect ratio                     : 16:9
Frame rate mode                          : Constant
Frame rate                               : 24.000 FPS
Color space                              : YUV
Chroma subsampling                       : 4:2:0
Bit depth                                : 10 bits
Bits/(Pixel*Frame)                       : 0.135
Stream size                              : 4.01 GiB (75%)
Language                                 : English
Default                                  : Yes
Forced                                   : No
Color range                              : Limited
Color primaries                          : BT.709
Transfer characteristics                 : BT.709
Matrix coefficients                      : BT.709
Audio #1
ID                                       : 2
Format                                   : AC-3
Format/Info                              : Audio Coding 3
Commercial name                          : Dolby Digital
Codec ID                                 : A_AC3
Duration                                 : 1 h 25 min
Bit rate mode                            : Constant
Bit rate                                 : 384 kb/s
Channel(s)                               : 6 channels
Channel layout                           : L R C LFE Ls Rs
Sampling rate                            : 48.0 kHz
Frame rate                               : 31.250 FPS (1536 SPF)
Bit depth                                : 16 bits
Compression mode                         : Lossy
Stream size                              : 234 MiB (4%)
Title                                    : DUB (iTunes)
Language                                 : Russian
Default                                  : Yes
Forced                                   : No
Audio #2
ID                                       : 3
Format                                   : AC-3
Format/Info                              : Audio Coding 3
Commercial name                          : Dolby Digital
Codec ID                                 : A_AC3
Duration                                 : 1 h 25 min
Bit rate mode                            : Constant
Bit rate                                 : 384 kb/s
Channel(s)                               : 6 channels
Channel layout                           : L R C LFE Ls Rs
Sampling rate                            : 48.0 kHz
Frame rate                               : 31.250 FPS (1536 SPF)
Bit depth                                : 16 bits
Compression mode                         : Lossy
Stream size                              : 234 MiB (4%)
Title                                    : DUB  (iTunes)
Language                                 : Ukrainian
Default                                  : No
Forced                                   : No
Audio #3
ID                                       : 4
Format                                   : DTS
Format/Info                              : Digital Theater Systems
Codec ID                                 : A_DTS
Duration                                 : 1 h 25 min
Bit rate mode                            : Constant
Bit rate                                 : 1 509 kb/s
Channel(s)                               : 6 channels
Channel layout                           : C L R Ls Rs LFE
Sampling rate                            : 48.0 kHz
Frame rate                               : 93.750 FPS (512 SPF)
Bit depth                                : 16 bits
Compression mode                         : Lossy
Stream size                              : 920 MiB (17%)
Language                                 : English
Default                                  : No
Forced                                   : No
Text #1
ID                                       : 5
Format                                   : UTF-8
Codec ID                                 : S_TEXT/UTF8
Codec ID/Info                            : UTF-8 Plain Text
Duration                                 : 1 h 20 min
Bit rate                                 : 90 b/s
Count of elements                        : 953
Stream size                              : 53.4 KiB (0%)
Title                                    : Full
Language                                 : Russian
Default                                  : No
Forced                                   : No
Text #2
ID                                       : 6
Format                                   : UTF-8
Codec ID                                 : S_TEXT/UTF8
Codec ID/Info                            : UTF-8 Plain Text
Duration                                 : 1 h 18 min
Bit rate                                 : 56 b/s
Count of elements                        : 999
Stream size                              : 32.6 KiB (0%)
Title                                    : Full
Language                                 : English
Default                                  : No
Forced                                   : No
Menu
00:00:00.000                             : en:Chapter 01
00:07:42.333                             : en:Chapter 02
00:14:50.708                             : en:Chapter 03
00:22:13.375                             : en:Chapter 04
00:29:44.458                             : en:Chapter 05
00:35:05.458                             : en:Chapter 06
00:40:40.000                             : en:Chapter 07
00:48:05.000                             : en:Chapter 08
00:55:05.667                             : en:Chapter 09
01:03:00.542                             : en:Chapter 10
01:10:06.083                             : en:Chapter 11
01:16:11.792                             : en:Chapter 12

Трейлер

-     - -

XP1971

Post 25-Nov-2018 23:22

[Quote]

Пластилиновая ворона. / Сборник мультфильмов: Пластилиновая ворона, Новогодняя песенка Деда Мороза, Обратная сторона Луны, Падал прошлогодний снег, Будильник, Туда и обратно (1981) DVD5- Год выпуска: 1981
Жанр: Рисованая анимация, Детский, Приключения
Описание:
«Пластилиновая ворона» — мультипликационный фильм 1981 года Александра Татарского.

Режиссер: Татарский, Александр Михайлович
Продолжительность: 00:49:00
Видеокодек: MPEG2
Битрейт видео: ~ 8137.15 kbps avg
Качество видео: Standart 4:3 (1,33:1)
Аудиокодек: Русский Dolby Digital 2.0

Описание

Пластилиновая ворона - 1981г.

Мультфильм повествует о рассказчиках, забывших сюжет басни Крылова «Ворона и лисица» и пытающихся вспомнить его по ходу повествования. Так вместо вороны появляются то собака, то корова (и один раз — даже бегемот), а вместо лисицы — сначала страус, а затем дворник. Полностью исказив сюжет басни, рассказчики исказили и мораль басни — «Не стойте и не прыгайте, не пойте, не пляшите там, где идёт строительство или подвешен груз».

Новогодняя песенка Деда Мороза - 1983г.

Дед Мороз и Снеговик поздравляют зрителей с новым годом. Сцены с праздничными тостами следуют одна за другой.

Обратная сторона Луны - 1984 г.

Мультфильм в шутливой манере рассказывает о традиционном кавказском гостеприимстве.
Герой фильма несёт по пустому экранному пространству сундук. Решив сделать привал, он достаёт из сундука сначала кувшин с вином, затем друга, жену, потом остальных участников застолья и весь остальной мир. Когда же сварливая жена восстанавливает против него всех, герой сворачивает всё обратно в сундук и уходит, чтобы потом начать всё заново.

Падал прошлогодний снег - 1983г.

Главный герой — мужик, глуповатый, хитрый, ленивый, жадный, да ещё к тому же и косноязычный (не выговаривает «некоторые буквы и цифры»). Очень любит пить пиво, постоянно попадает в дурацкие ситуации. К счастью, у него есть жена — «строгая и авторитетная». Вся история начинается с того, что жена посылает мужика принести из лесу ёлку на Новый год. Но новогодний лес — сказочное место, полное неожиданных событий и превращений. Запутавшись в чудесах, неоднократно потеряв и снова обретя собственный облик, мужик возвращается домой ни с чем.
Сюжет разделен на две связанные истории — про мечты мужика и невероятные превращения в волшебной избушке на курьих ножках. В основе первого сюжета лежит сказка, встречаемая во многих народах мира о жадном человеке, который увидав в лесу зайца, размечтался, как разбогатеет на пойманном звере. В итоге он ненароком вспугивает зайца криком и остаётся ни с чем.
Мультфильм заканчивается словами рассказчика о том, как мужик ходил за ёлкой в третий раз и наконец добыл её, но поскольку это было уже весной, ему пришлось отнести ёлку обратно.

Будильник - 1984г.

Веселая заставка-песенка для передачи «Будильник», где главные действующие лица — Петушок и Будильник.

Туда и обратно - 1986г.

Как обезьяна стала человеком, а потом снова обезьяной из-за пристрастия к бутылке.

DVDinfo

Код:
Title: vorona
Size: 2.77 Gb ( 2 906 400,00 KBytes ) - DVD-5
Enabled regions: 1, 2, 3, 4, 5, 6, 7, 8
VTS_01 :
  Play Length: 00:00:28
  Video: PAL 4:3 (720x576) VBR
VTS_02 :
  Play Length: 00:08:55+{00:08:55}+{00:08:55}
  Video: PAL 4:3 (720x576) VBR
  Audio:
      Russian (Dolby AC3, 2 ch)
VTS_03 :
  Play Length: 00:04:24+{00:04:24}+{00:04:24}
  Video: PAL 4:3 (720x576) VBR
  Audio:
      Russian (Dolby AC3, 2 ch)
VTS_04 :
  Play Length: 00:09:39+{00:09:39}+{00:09:39}
  Video: PAL 4:3 (720x576) VBR
  Audio:
      Russian (Dolby AC3, 2 ch)
VTS_05 :
  Play Length: 00:19:51+{00:19:51}+{00:19:51}
  Video: PAL 4:3 (720x576) VBR
  Audio:
      Russian (Dolby AC3, 2 ch)
VTS_06 :
  Play Length: 00:02:24+{00:02:24}+{00:02:24}
  Video: PAL 4:3 (720x576) VBR
  Audio:
      Russian (Dolby AC3, 2 ch)
VTS_07 :
  Play Length: 00:02:11+{00:02:11}+{00:02:11}
  Video: PAL 4:3 (720x576) VBR
  Audio:
      Russian (Dolby AC3, 2 ch)

Обложки для DVD

 
Скриншоты:
           

Theseus

Post 22-Oct-2018 21:21

[Quote]

Суперсемейка 2 / Incredibles 2- Год выхода: 2018
Страна: США
Жанр: мультфильм, фантастика, комедия, приключения, семейный
Продолжительность: 01:57:49
Перевод: Профессиональный (полное дублирование) [Чистый звук]
Субтитры: Отсутствуют-Режиссер: Брэд Бёрд-В ролях: Крэйг Т. Нельсон, Холли Хантер, Сара Вауэлл, Хак Милнер, Кэтрин Кинер, Илай Фучиле, Боб Оденкёрк, Сэмюэл Л. Джексон, Майкл Бёрд, София Буш-О фильме: После событий первой части суперсемейка пользуется повышенным вниманием со стороны журналистов. Неожиданно оказалось, что обаятельная Миссис Исключительная гораздо лучше смотрится на экране телевизора, чем её муж. Мистеру Исключительному все чаще приходится сидеть дома и приглядывать за детьми, у каждого из которых есть свои причины быть недовольным собственными суперспособностями. Однако семейным проблемам предстоит отступить на второй план, когда окажется, что спокойствию Суперсемейки угрожает новый могущественный враг.- -Качество: WEB-DL 1080p
Формат: MKV
Видео кодек: x.264
Аудио кодек: AC3
Видео: AVC, 1920x804 (2.40:1), 23.976 fps, 5 433 Kbps
Аудио: AC-3, 48.0 KHz, 2 ch, 384 Kbps-Сэмпл-Присутствует аудио и текстовая реклама, видеоролики с рекламой вырезаны-

MediaInfo

Общее
Уникальный идентификатор : 225495253854288199119466414796336135449 (0xA9A4CE6141AE9659A8CB58866B75FD19)
Полное имя : Super.Semeyka.2.2O18.D.WEB-DL.1O8Op.mkv
Формат : Matroska
Версия формата : Version 4
Размер файла : 4,79 Гбайт
Продолжительность : 1 ч. 57 м.
Режим общего битрейта : Переменный
Общий поток : 5819 Кбит/сек
Дата кодирования : UTC 2018-10-22 17:45:43
Программа кодирования : mkvmerge v8.3.0 ('Over the Horizon') 64bit
Библиотека кодирования : libebml v1.3.1 + libmatroska v1.4.2
Видео
Идентификатор : 1
Формат : AVC
Формат/Информация : Advanced Video Codec
Профиль формата : High@L4.1
Параметр CABAC формата : Да
Параметр ReFrames формата : 4 кадра / 5 кадров
Идентификатор кодека : V_MPEG4/ISO/AVC
Продолжительность : 1 ч. 57 м.
Вид битрейта : Переменный
Битрейт : 5433 Кбит/сек
Максимальный битрейт : 6100 Кбит/сек
Ширина : 1920 пикселей
Высота : 804 пикселя
Соотношение сторон : 2,40:1
Режим частоты кадров : Переменный
Частота кадров : 23,976 кадра/сек
Стандарт вещания : Component
Цветовое пространство : YUV
Субдискретизация насыщенности : 4:2:0
Битовая глубина : 8 бит
Тип развёртки : Прогрессивная
Бит/(Пиксели*Кадры) : 0.147
Размер потока : 4,47 Гбайт (93%)
Язык : Russian
Default : Да
Forced : Нет
Цветовой диапазон : Limited
Основные цвета : BT.709
Характеристики трансфера : BT.709
Коэффициенты матрицы : BT.709
Аудио
Идентификатор : 2
Формат : AC-3
Формат/Информация : Audio Coding 3
Расширение режима : CM (complete main)
Параметр Endianness формата : Big
Идентификатор кодека : A_AC3
Продолжительность : 1 ч. 57 м.
Вид битрейта : Постоянный
Битрейт : 384 Кбит/сек
Каналы : 2 канала
Расположение каналов : Front: L R
Частота : 48,0 КГц
Частота кадров : 31,250 кадров/сек (1536 spf)
Битовая глубина : 16 бит
Метод сжатия : С потерями
Размер потока : 324 Мбайт (7%)
Default : Да
Forced : Нет
-     - -

XP1971

Post 31-Dec-2017 00:26

[Quote]

Сказ о Петре и Февронии (2017) WEB-DL [H.264/1080p-LQ]- Производство: Россия
Жанр: Мультфильм, Детский, Развивающий
Режиссер: Юрий Рязанов, Юрий Кулаков
Актеры: Владислав Юдин, Юлия Горохова, Иван Охлобыстин, Владимир Антоник, Константин Карасик, Виктор Вержбицкий, Диомид Виноградов, Вадим Медведев, Арзу Сулейманова, Сергей Усков
Описание:
Славным городом Муромом правил князь Павел. И вот однажды злой змей искуситель, принявший облик Павла, стал являться его жене. Одолеть змея смог только брат Петра - Павел чудесным агриковым мечом. Однако кровь поганого попала на тело Петра и он покрылся смертельными язвами, от которых даже самые лучшие врачеватели избавить его не могли. Излечить Петра было под силу только святой Февронии (простой деревенской девушке), на том лишь условии, что Павел возьмёт её в жёны.

Возраст: 6+ (зрителям, достигшим 6 лет)
Дата российской премьеры: 6 июля 2017
Продолжительность: 01:18:04
Качество видео: WEB-DL
Субтитры: Отсутствуют
Видео: AVC, 1920x1080 (16:9), 25.000 fps, 4 072 Kbps (0.079 bit/pixel)
Аудио: AC-3, 48.0 KHz, 6 ch, 448 Kbps, CBR

Mediainfo:

Общее
Уникальный идентификатор : 178987660663807957865858458286594941361 (0x86A7C5003BFA1F65B289E46B9EFF61B1)
Полное имя : D:\[1]\Мультфильмы\Сказ о Петре и Февронии (2017)_1080.mkv
Формат : Matroska
Версия формата : Version 4 / Version 2
Размер файла : 2,46 Гбайт
Продолжительность : 1 ч. 18 м.
Режим общего битрейта : Постоянный
Общий поток : 4518 Кбит/сек
Дата кодирования : UTC 2017-12-29 13:44:26
Программа кодирования : mkvmerge v7.8.0 ('River Man') 64bit built on Mar 27 2015 16:31:37
Библиотека кодирования : libebml v1.3.1 + libmatroska v1.4.2
DURATION : 01:18:04.288000000
NUMBER_OF_FRAMES : 146384
NUMBER_OF_BYTES : 262320128
_STATISTICS_WRITING_APP : mkvmerge v7.8.0 ('River Man') 64bit built on Mar 27 2015 16:31:37
_STATISTICS_WRITING_DATE_UTC : 2017-12-29 13:44:26
_STATISTICS_TAGS : BPS DURATION NUMBER_OF_FRAMES NUMBER_OF_BYTES
Видео
Идентификатор : 1
Формат : AVC
Формат/Информация : Advanced Video Codec
Профиль формата : High@L4
Параметр CABAC формата : Да
Параметр ReFrames формата : 1 кадр
Параметр GOP формата : M=1, N=25
Идентификатор кодека : V_MPEG4/ISO/AVC
Продолжительность : 1 ч. 18 м.
Вид битрейта : Постоянный
Битрейт : 4072 Кбит/сек
Ширина : 1920 пикселей
Высота : 1080 пикселей
Соотношение сторон : 16:9
Режим частоты кадров : Постоянный
Частота кадров : 25,000 кадров/сек
Цветовое пространство : YUV
Субдискретизация насыщенности : 4:2:0
Битовая глубина : 8 бит
Тип развёртки : Прогрессивная
Бит/(Пиксели*Кадры) : 0.079
Размер потока : 2,17 Гбайт (88%)
Язык : Russian
Default : Да
Forced : Нет
Аудио
Идентификатор : 2
Формат : AC-3
Формат/Информация : Audio Coding 3
Расширение режима : CM (complete main)
Параметр Endianness формата : Big
Идентификатор кодека : A_AC3
Продолжительность : 1 ч. 18 м.
Вид битрейта : Постоянный
Битрейт : 448 Кбит/сек
Каналы : 6 каналов
Расположение каналов : Front: L C R, Side: L R, LFE
Частота : 48,0 КГц
Битовая глубина : 16 бит
Метод сжатия : С потерями
Размер потока : 250 Мбайт (10%)
Язык : Russian
Default : Да
Forced : Нет
Скриншоты:
       

Theseus

Post 17-Apr-2017 22:11

[Quote]

Зверопой / Sing- Страна: США
Жанр: мультфильм, комедия, семейный, музыка
Год выпуска: 2016
Премьера (РФ): 2017
Продолжительность: 01:47:53
Перевод: Профессиональный (полное дублирование) | R5 | Лицензия
Режиссер: Кристоф Лурделе, Гарт Дженнингс-В ролях: Мэттью МакКонахи, Риз Уизерспун, Сет МакФарлейн, Скарлетт Йоханссон, Джон Си Райли, Тэрон Эджертон, Тори Келли, Дженнифер Сондерс, Дженнифер Хадсон, Гарт Дженнингс-Описание: В мире, который населяют звери, коала по имени Бастер Мун изо всех сил пытается предотвратить закрытие своего театра. В итоге Бастер и его друг, баран Эдди, устраивают конкурс певцов, предлагая принять участие каждому жителю города.- -Качество: BDRip 1080p
Формат: MKV
Видео кодек: x.264
Аудио кодек: AC3
Видео: 1920x1038 (1,85:1), 23.976 fps, MPEG-4 AVC, 10 Mbps avg, 0.210 bit/pixel
Аудио 1: AC3, 48 kHz, 6 ch, ~384.00 kbps avg | русский
Аудио 2: АС3, 48 kHz, 6 ch, ~640.00 kbps avg | английский
Субтитры: Русские (полные), английские (full, SDH)-

MediaInfo

x264 [info]: frame I:2077 Avg QP:17.56 size:234522
x264 [info]: frame P:29676 Avg QP:19.54 size:112517
x264 [info]: frame B:123460 Avg QP:21.84 size: 34687
Формат : Matroska
Версия формата : Version 4 / Version 2
Размер файла : 8,33 Гбайт
Продолжительность : 1 ч. 47 м.
Общий поток : 11,0 Мбит/сек
Название фильма : Sing.2016.x264.BDRip.1080p.BLUEBIRD
Дата кодирования : UTC 2017-04-16 11:17:05
Программа кодирования : mkvmerge v7.9.0 ('Birds') 32bit
Библиотека кодирования : libebml v1.3.1 + libmatroska v1.4.2
Видео
Идентификатор : 1
Формат : AVC
Формат/Информация : Advanced Video Codec
Профиль формата : High @ L4.1
Параметр CABAC формата : Да
Параметр ReFrames формата : 4 кадра
Идентификатор кодека : V_MPEG4/ISO/AVC
Продолжительность : 1 ч. 47 м.
Битрейт : 10,0 Мбит/сек
Ширина : 1920 пикселей
Высота : 1038 пикселей
Соотношение сторон : 1,85:1
Режим частоты кадров : Постоянный
Частота кадров : 23,976 (24000/1001) кадра/сек
Цветовое пространство : YUV
Субдискретизация насыщенности : 4:2:0
Битовая глубина : 8 бит
Тип развёртки : Прогрессивная
Бит/(Пиксели*Кадры) : 0.210
Размер потока : 7,55 Гбайт (91%)
Заголовок : Sing.2016.x264.BDRip.1080p.BLUEBIRD
Библиотека кодирования : x264 core 148 r2762+56 6284cf3 t_mod_Custom [8-bit@all X86]
Настройки программы : cabac=1 / ref=4 / deblock=1:-3:-3 / analyse=0x3:0x133 / me=umh / subme=10 / psy=1 / fade_compensate=0.00 / psy_rd=1.02:0.04 / mixed_ref=1 / me_range=32 / chroma_me=1 / trellis=2 / 8x8dct=1 / cqm=0 / deadzone=21,11 / fast_pskip=0 / chroma_qp_offset=-3 / threads=12 / lookahead_threads=1 / sliced_threads=0 / nr=0 / decimate=0 / interlaced=0 / bluray_compat=0 / constrained_intra=0 / fgo=0 / bframes=8 / b_pyramid=2 / b_adapt=1 / b_bias=0 / direct=3 / weightb=1 / open_gop=0 / weightp=2 / keyint=240 / keyint_min=23 / scenecut=40 / intra_refresh=0 / rc_lookahead=80 / rc=crf / mbtree=0 / crf=19.7000 / qcomp=0.80 / qpmin=0:0:0 / qpmax=69:69:69 / qpstep=4 / vbv_maxrate=62500 / vbv_bufsize=78125 / crf_max=0.0 / nal_hrd=none / filler=0 / ip_ratio=1.40 / pb_ratio=1.30 / aq=1:0.85 / aq-sensitivity=10.00 / aq-factor=1.00:1.00:1.00 / aq2=0 / aq3=0 / zones=144150,155212,q=26
Язык : English
Default : Да
Forced : Нет
Аудио #1
Идентификатор : 2
Формат : AC-3
Формат/Информация : Audio Coding 3
Параметр Endianness формата : Big
Идентификатор кодека : A_AC3
Продолжительность : 1 ч. 47 м.
Вид битрейта : Постоянный
Битрейт : 384 Кбит/сек
Каналы : 6 каналов
Расположение каналов : Front: L C R, Side: L R, LFE
Частота : 48,0 КГц
Частота кадров : 31,250 кадров/сек (1536 spf)
Битовая глубина : 16 бит
Метод сжатия : С потерями
Размер потока : 296 Мбайт (3%)
Заголовок : Дублированный (R5)
Язык : Russian
ServiceKind/String : Complete Main
Default : Да
Forced : Нет
Аудио #2
Идентификатор : 3
Формат : AC-3
Формат/Информация : Audio Coding 3
Параметр Endianness формата : Big
Идентификатор кодека : A_AC3
Продолжительность : 1 ч. 47 м.
Вид битрейта : Постоянный
Битрейт : 640 Кбит/сек
Каналы : 6 каналов
Расположение каналов : Front: L C R, Side: L R, LFE
Частота : 48,0 КГц
Частота кадров : 31,250 кадров/сек (1536 spf)
Битовая глубина : 16 бит
Метод сжатия : С потерями
Размер потока : 494 Мбайт (6%)
Язык : English
ServiceKind/String : Complete Main
Default : Нет
Forced : Нет
Текст #1
Идентификатор : 4
Формат : UTF-8
Идентификатор кодека : S_TEXT/UTF8
Идентификатор кодека/Информация : UTF-8 Plain Text
Продолжительность : 1 ч. 39 м.
Битрейт : 90 бит/сек
ElementCount : 1379
Размер потока : 65,5 Кбайт (0%)
Заголовок : full
Язык : Russian
Default : Нет
Forced : Нет
Текст #2
Идентификатор : 5
Формат : UTF-8
Идентификатор кодека : S_TEXT/UTF8
Идентификатор кодека/Информация : UTF-8 Plain Text
Продолжительность : 1 ч. 38 м.
Битрейт : 57 бит/сек
ElementCount : 1410
Размер потока : 41,2 Кбайт (0%)
Заголовок : full
Язык : English
Default : Нет
Forced : Нет
Текст #3
Идентификатор : 6
Формат : UTF-8
Идентификатор кодека : S_TEXT/UTF8
Идентификатор кодека/Информация : UTF-8 Plain Text
Продолжительность : 1 ч. 39 м.
Битрейт : 69 бит/сек
ElementCount : 1733
Размер потока : 50,6 Кбайт (0%)
Заголовок : SDH
Язык : English
Default : Нет
Forced : Нет
Меню
00:00:00.000 : :00:00:00.000
00:04:29.352 : :00:04:29.352
00:10:36.469 : :00:10:36.469
00:14:04.677 : :00:14:04.677
00:18:32.653 : :00:18:32.653
00:25:14.722 : :00:25:14.722
00:30:04.052 : :00:30:04.052
00:35:11.776 : :00:35:11.776
00:40:07.405 : :00:40:07.405
00:44:36.132 : :00:44:36.132
00:50:26.649 : :00:50:26.649
00:55:36.208 : :00:55:36.208
01:04:40.710 : :01:04:40.710
01:14:03.981 : :01:14:03.981
01:19:17.962 : :01:19:17.962
01:23:59.159 : :01:23:59.159
01:26:56.461 : :01:26:56.461
01:30:38.266 : :01:30:38.266
01:34:47.181 : :01:34:47.181
01:40:16.010 : :01:40:16.010
-    - - -

Theseus

Post 17-Apr-2017 22:10

[Quote]

Зверопой / Sing- Страна: США
Жанр: мультфильм, комедия, семейный, музыка
Год выпуска: 2016
Премьера (РФ): 2017
Продолжительность: 01:47:53
Перевод: Профессиональный (полное дублирование) | R5 | Лицензия
Режиссер: Кристоф Лурделе, Гарт Дженнингс-В ролях: Мэттью МакКонахи, Риз Уизерспун, Сет МакФарлейн, Скарлетт Йоханссон, Джон Си Райли, Тэрон Эджертон, Тори Келли, Дженнифер Сондерс, Дженнифер Хадсон, Гарт Дженнингс-Описание: В мире, который населяют звери, коала по имени Бастер Мун изо всех сил пытается предотвратить закрытие своего театра. В итоге Бастер и его друг, баран Эдди, устраивают конкурс певцов, предлагая принять участие каждому жителю города.- -Качество: BDRip 720p
Формат: MKV
Видео кодек: x.264
Аудио кодек: AC3
Видео: 1280x692 (1,85:1), 23.976 fps, MPEG-4 AVC ~ 7667 kbps avg, 0.361 bit/pixel
Аудио 1: AC3, 48 kHz, 6 ch, ~384.00 kbps avg | русский
Аудио 2: АС3, 48 kHz, 6 ch, ~640.00 kbps avg | английский
Субтитры: Русские (полные), английские (full, SDH)-

MediaInfo

General
Unique ID : 187062654704952802653431922685068824685 (0x8CBAF4F1FA3E5D1C8A36B2426949D06D)
Complete name : Sing.2016.720p.BluRay.Rus.Eng.mkv
Format : Matroska
Format version : Version 4 / Version 2
File size : 6.55 GiB
Duration : 1 h 47 min
Overall bit rate : 8 694 kb/s
Encoded date : UTC 2017-04-15 22:55:20
Writing application : mkvmerge v9.7.1 ('Pandemonium') 64bit
Writing library : libebml v1.3.4 + libmatroska v1.4.5
Video
ID : 1
Format : AVC
Format/Info : Advanced Video Codec
Format profile : High@L4.1
Format settings, CABAC : Yes
Format settings, ReFrames : 9 frames
Codec ID : V_MPEG4/ISO/AVC
Duration : 1 h 47 min
Bit rate : 7 667 kb/s
Width : 1 280 pixels
Height : 692 pixels
Display aspect ratio : 1.85:1
Frame rate mode : Constant
Frame rate : 23.976 (24000/1001) FPS
Color space : YUV
Chroma subsampling : 4:2:0
Bit depth : 8 bits
Scan type : Progressive
Bits/(Pixel*Frame) : 0.361
Stream size : 5.78 GiB (88%)
Title : Sing.2016.720p.BluRay.Rus.Eng
Writing library : x264 core 148 r2744 b97ae06
Encoding settings : cabac=1 / ref=9 / deblock=1:-3:-3 / analyse=0x3:0x113 / me=umh / subme=10 / psy=1 / psy_rd=1.03:0.00 / mixed_ref=1 / me_range=32 / chroma_me=1 / trellis=2 / 8x8dct=1 / cqm=1 / deadzone=21,11 / fast_pskip=0 / chroma_qp_offset=-1 / threads=12 / lookahead_threads=2 / sliced_threads=0 / nr=0 / decimate=1 / interlaced=0 / bluray_compat=0 / constrained_intra=0 / bframes=8 / b_pyramid=2 / b_adapt=2 / b_bias=0 / direct=3 / weightb=1 / open_gop=0 / weightp=2 / keyint=230 / keyint_min=23 / scenecut=40 / intra_refresh=0 / rc_lookahead=40 / rc=crf / mbtree=0 / crf=15.5 / qcomp=0.61 / qpmin=10 / qpmax=69 / qpstep=4 / vbv_maxrate=62500 / vbv_bufsize=78125 / crf_max=0.0 / nal_hrd=none / filler=0 / ip_ratio=1.30 / pb_ratio=1.20 / aq=1:0.75
Language : English
Default : Yes
Forced : No
Audio #1
ID : 2
Format : AC-3
Format/Info : Audio Coding 3
Format settings, Endianness : Big
Codec ID : A_AC3
Duration : 1 h 47 min
Bit rate mode : Constant
Bit rate : 384 kb/s
Channel(s) : 6 channels
Channel positions : Front: L C R, Side: L R, LFE
Sampling rate : 48.0 kHz
Frame rate : 31.250 FPS (1536 spf)
Bit depth : 16 bits
Compression mode : Lossy
Stream size : 296 MiB (4%)
Title : Dub | DD 5.1 @ 384 kbps (R5)
Language : Russian
Service kind : Complete Main
Default : Yes
Forced : No
Audio #2
ID : 3
Format : AC-3
Format/Info : Audio Coding 3
Format settings, Endianness : Big
Codec ID : A_AC3
Duration : 1 h 47 min
Bit rate mode : Constant
Bit rate : 640 kb/s
Channel(s) : 6 channels
Channel positions : Front: L C R, Side: L R, LFE
Sampling rate : 48.0 kHz
Frame rate : 31.250 FPS (1536 spf)
Bit depth : 16 bits
Compression mode : Lossy
Stream size : 494 MiB (7%)
Title : Original
Language : English
Service kind : Complete Main
Default : No
Forced : No
Text #1
ID : 4
Format : UTF-8
Codec ID : S_TEXT/UTF8
Codec ID/Info : UTF-8 Plain Text
Duration : 1 h 39 min
Bit rate : 90 b/s
Count of elements : 1378
Stream size : 65.6 KiB (0%)
Title : Full
Language : Russian
Default : Yes
Forced : No
Text #2
ID : 5
Format : UTF-8
Codec ID : S_TEXT/UTF8
Codec ID/Info : UTF-8 Plain Text
Duration : 1 h 39 min
Bit rate : 90 b/s
Count of elements : 1378
Stream size : 65.6 KiB (0%)
Title : Full
Language : English
Default : No
Forced : No
Text #3
ID : 6
Format : UTF-8
Codec ID : S_TEXT/UTF8
Codec ID/Info : UTF-8 Plain Text
Duration : 1 h 39 min
Bit rate : 67 b/s
Count of elements : 1733
Stream size : 49.3 KiB (0%)
Title : SDH
Language : English
Default : No
Forced : No
Menu
00:00:00.000 : en:Chapter 1
00:04:29.352 : en:Chapter 2
00:10:36.469 : en:Chapter 3
00:14:04.677 : en:Chapter 4
00:18:32.653 : en:Chapter 5
00:25:14.722 : en:Chapter 6
00:30:04.052 : en:Chapter 7
00:35:11.776 : en:Chapter 8
00:40:07.405 : en:Chapter 9
00:44:36.132 : en:Chapter 10
00:50:26.649 : en:Chapter 11
00:55:36.208 : en:Chapter 12
01:04:40.710 : en:Chapter 13
01:14:03.981 : en:Chapter 14
01:19:17.962 : en:Chapter 15
01:23:59.159 : en:Chapter 16
01:26:56.461 : en:Chapter 17
01:30:38.266 : en:Chapter 18
01:34:47.181 : en:Chapter 19
01:40:16.010 : en:Chapter 20
-     - - -

}{@R0N

Post 07-Jan-2017 21:15

[Quote]

Арти: приключение начинается / The Arti: The Adventure Begins - Производство: Тайвань, PiLi International Multimedia
Жанр: Кукольный, Компьютерная анимация, Фентези
Режиссер: Хуанг Вень Чанг
Персонажи: Рики Хсиао, Хсяо-Шун Хсю, Чиа-Чиа Пенг, Ян Пуи, Хуан Вэнь Тзе
Описание:
Однажды, молодой мастер Мо получил в подарок от отца деревянного робота по имени Арти. Но жителей окрестностей испугало это изобретение и они напали на отца мастера Мо и убили его. Сам Мо сбежал со своей сестрой и своим роботом. Шестнадцать лет спустя, единственный источник силы - Ориджин, питавший Арти, стал иссякать. Мо ничего не остается, как отправиться на поиски нового источника для своего робота...

Возраст: 16+ (зрителям, достигшим 16 лет)
Рейтинг MPAA: R (лицам до 17 лет обязательно присутствие взрослого)
Релиз от: BadBajo
Продолжительность: 01:43:19
Качество видео: BDRip Сэмпл
Перевод: Одноголосый закадровый, любительский
Озвучка / Автор перевода: BadBajo
Реклама: Отсутствует
Видео: AVC/H.264, 1280х674, ~6290 Kbps
Аудио: AC3, 6 ch, 640 Kbps, CBR l Русский (AVO, BadBajo)
Аудио: AC3, 6 ch, 640 Kbps, CBR l Китайский

Mediainfo:

Format                      : Matroska
Format version : Version 4 / Version 2
File size : 5.46 GiB
Duration : 1 h 43 min
Overall bit rate : 7 572 kb/s
Movie name : Jubowo @ WiKi
Encoded date : UTC 2017-01-06 20:47:03
Writing application : mkvmerge v9.5.0 ('Quiet Fire') 64bit
Writing library : libebml v1.3.4 + libmatroska v1.4.5
Cover : Yes
Attachments : cover.jpg
Video
ID : 1
Format : AVC
Format/Info : Advanced Video Codec
Format profile : [url=mailto:High@L4.1]High@L4.1[/url]
Format settings, CABAC : Yes
Format settings, ReFrames : 9 frames
Codec ID : V_MPEG4/ISO/AVC
Duration : 1 h 43 min
Bit rate : 6 290 kb/s
Width : 1 280 pixels
Height : 674 pixels
Display aspect ratio : 1.899
Frame rate mode : Constant
Frame rate : 23.976 (24000/1001) FPS
Color space : YUV
Chroma subsampling : 4:2:0
Bit depth : 8 bits
Scan type : Progressive
Bits/(Pixel*Frame) : 0.304
Stream size : 4.54 GiB (83%)
Writing library : x264 core 129 r2245+704+36 8e61944 tMod+MixAQ [8-bit@4:2:0 X86_64]
Encoding settings : cabac=1 / ref=9 / deblock=1:-3:-3 / analyse=0x3:0x133 / me=umh / subme=11 / psy=1 / fade_compensate=0.00 / psy_rd=1.05:0.10 / mixed_ref=1 / me_range=32 / chroma_me=1 / trellis=2 / 8x8dct=1 / cqm=0 / deadzone=21,11 / fast_pskip=0 / chroma_qp_offset=-3 / threads=18 / lookahead_threads=3 / sliced_threads=0 / nr=0 / decimate=0 / interlaced=0 / bluray_compat=0 / constrained_intra=0 / fgo=0 / bframes=10 / b_pyramid=2 / b_adapt=2 / b_bias=0 / direct=3 / weightb=1 / open_gop=0 / weightp=2 / keyint=250 / keyint_min=23 / scenecut=40 / intra_refresh=0 / rc_lookahead=80 / rc=2pass / mbtree=1 / bitrate=6290 / ratetol=1.0 / qcomp=0.70 / qpmin=0 / qpmax=69 / qpstep=4 / cplxblur=20.0 / qblur=0.5 / ip_ratio=1.40 / aq=1 / aq-strength=0.85 / aq-sensitivity=10.00 / aq-ifactor=1.00 / aq-pfactor=1.00 / aq-bfactor=1.00 / aq2=0
Language : Chinese
Default : Yes
Forced : No
Audio #1
ID : 2
Format : AC-3
Format/Info : Audio Coding 3
Mode extension : CM (complete main)
Format settings, Endianness : Big
Codec ID : A_AC3
Duration : 1 h 43 min
Bit rate mode : Constant
Bit rate : 640 kb/s
Channel(s) : 6 channels
Channel positions : Front: L C R, Side: L R, LFE
Sampling rate : 48.0 kHz
Frame rate : 31.250 FPS (1536 spf)
Compression mode : Lossy
Stream size : 473 MiB (8%)
Title : Arti_rus_BadBajo
Language : Russian
Default : Yes
Forced : Yes
Audio #2
ID : 3
Format : AC-3
Format/Info : Audio Coding 3
Mode extension : CM (complete main)
Format settings, Endianness : Big
Codec ID : A_AC3
Duration : 1 h 43 min
Bit rate mode : Constant
Bit rate : 640 kb/s
Channel(s) : 6 channels
Channel positions : Front: L C R, Side: L R, LFE
Sampling rate : 48.0 kHz
Frame rate : 31.250 FPS (1536 spf)
Compression mode : Lossy
Stream size : 473 MiB (8%)
Language : Chinese
Default : No
Forced : No
Menu
00:00:00.000 : en:00:00:00.000
00:12:04.557 : en:00:12:04.557
00:24:33.013 : en:00:24:33.013
00:35:00.556 : en:00:35:00.556
00:52:13.130 : en:00:52:13.130
01:04:17.645 : en:01:04:17.645
01:17:40.822 : en:01:17:40.822
01:28:08.283 : en:01:28:08.283

Дополнительная информация:

Трейлер
Скриншоты:
       

Ermakov_andrey

Post 03-Oct-2016 21:44

[Quote]

кино было?

Russian Mafia

Post 18-Sep-2016 17:21

[Quote]

Стальной гигант / The Iron Giant (1999) [BDRip 1080p]- Производство: США, Warner Bros. Animation, Warner Bros. Feature Animation, Warner Bros. Pictures
Жанр: Рисованная анимация, Приключения
Режиссер: Брэд Бёрд
Персонажи: Вин Дизель, Дженнифер Энистон, Эли Мариентал, Гарри Конник мл., Джеймс Гэммон, Клорис Личмен, Кристофер МакДональд, Джон Махони, М. Эммет Уолш, Джек Эйнджел
Описание:
Жители тихой американской провинции становятся свидетелями ослепительной вспышки и падения огромного летающего объекта. Спустя несколько дней мальчуган по имени Хогарт Хьюз находит в окрестностях гигантского робота, прилетевшего на Землю из далекой космической галактики. Несмотря на свой грозный вид, инопланетный гость оказывается добрейшим созданием. Между ним и отважным мальчишкой завязывается настоящая дружба. Но узнавшие о существовании робота правительство и военные решили уничтожить пришельца. Хогарт — единственный, кто может спасти стального гиганта…

Возраст: 0+ (для любой зрительской аудитории)
Рейтинг MPAA: PG (рекомендуется присутствие родителей)
Дата мировой премьеры: 31 июля 1999
Продолжительность: 01:29:58
Качество видео: BDRip Сэмпл
Перевод: Дублированный
Субтитры: Русские, Английские (Вшитые отключаемые)
Видео: AVC, 1920x800 (2.40:1), 23.976 fps, 7 496 Kbps (0.204 bit/pixel)
Аудио #1: AC-3, 48.0 KHz, 6 ch, 384 Kbps, CBR (Дублированный)
Аудио #2: AC-3, 48.0 KHz, 6 ch, 640 Kbps, CBR (Авторский одноголосый, Ю.Живов)
Аудио #3: AC-3, 48.0 KHz, 6 ch, 640 Kbps, CBR (Английский, оригинал)

Mediainfo:

Код:
Формат                                   : Matroska
Версия формата                           : Version 2
Размер файла                             : 5,71 Гбайт
Продолжительность                        : 1 ч. 29 м.
Общий поток                              : 9092 Кбит/сек
Название фильма                          : The Iron Giant.(1999).BDRip.1080p.[envy]
Дата кодирования                         : UTC 2016-09-17 08:29:26
Программа кодирования                    : mkvmerge v5.8.0 ('No Sleep / Pillow') built on Sep  2 2012 15:37:04
Библиотека кодирования                   : libebml v1.2.3 + libmatroska v1.3.0
Видео
Идентификатор                            : 1
Формат                                   : AVC
Формат/Информация                        : Advanced Video Codec
Профиль формата                          : [url=mailto:High@L4.1]High@L4.1[/url]
Параметр CABAC формата                   : Да
Параметр ReFrames формата                : 5 кадров
Идентификатор кодека                     : V_MPEG4/ISO/AVC
Продолжительность                        : 1 ч. 29 м.
Битрейт                                  : 7496 Кбит/сек
Ширина                                   : 1920 пикселей
Высота                                   : 800 пикселей
Соотношение сторон                       : 2,40:1
Режим частоты кадров                     : Постоянный
Частота кадров                           : 23,976 кадра/сек
Цветовое пространство                    : YUV
Субдискретизация насыщенности            : 4:2:0
Битовая глубина                          : 8 бит
Тип развёртки                            : Прогрессивная
Бит/(Пиксели*Кадры)                      : 0.204
Размер потока                            : 4,55 Гбайт (80%)
Заголовок                                : The Iron Giant.(1999).BDRip.1080p.[envy]
Библиотека кодирования                   : x264 core 148 r2705 3f5ed56
Настройки программы                      : cabac=1 / ref=5 / deblock=1:0:0 / analyse=0x3:0x113 / me=umh / subme=11 / psy=1 / psy_rd=1.00:0.00 / mixed_ref=1 / me_range=48 / chroma_me=1 / trellis=2 / 8x8dct=1 / cqm=0 / deadzone=21,11 / fast_pskip=0 / chroma_qp_offset=-2 / threads=12 / lookahead_threads=2 / sliced_threads=0 / nr=0 / decimate=1 / interlaced=0 / bluray_compat=0 / constrained_intra=0 / bframes=7 / b_pyramid=2 / b_adapt=2 / b_bias=0 / direct=3 / weightb=1 / open_gop=0 / weightp=2 / keyint=240 / keyint_min=23 / scenecut=40 / intra_refresh=0 / rc=2pass / mbtree=0 / bitrate=7496 / ratetol=2.0 / qcomp=0.60 / qpmin=0 / qpmax=69 / qpstep=4 / cplxblur=20.0 / qblur=0.5 / ip_ratio=1.40 / pb_ratio=1.30 / aq=2:1.00
Язык                                     : English
Default                                  : Да
Forced                                   : Нет
Аудио #1
Идентификатор                            : 2
Формат                                   : AC-3
Формат/Информация                        : Audio Coding 3
Расширение режима                        : CM (complete main)
Параметр Endianness формата              : Big
Идентификатор кодека                     : A_AC3
Продолжительность                        : 1 ч. 29 м.
Вид битрейта                             : Постоянный
Битрейт                                  : 384 Кбит/сек
Каналы                                   : 6 каналов
Расположение каналов                     : Front: L C R, Side: L R, LFE
Частота                                  : 48,0 КГц
Метод сжатия                             : С потерями
Размер потока                            : 247 Мбайт (4%)
Заголовок                                : Dub
Язык                                     : Russian
Default                                  : Да
Forced                                   : Нет
Аудио #2
Идентификатор                            : 3
Формат                                   : AC-3
Формат/Информация                        : Audio Coding 3
Расширение режима                        : CM (complete main)
Параметр Endianness формата              : Big
Идентификатор кодека                     : A_AC3
Продолжительность                        : 1 ч. 29 м.
Вид битрейта                             : Постоянный
Битрейт                                  : 640 Кбит/сек
Каналы                                   : 6 каналов
Расположение каналов                     : Front: L C R, Side: L R, LFE
Частота                                  : 48,0 КГц
Метод сжатия                             : С потерями
Размер потока                            : 412 Мбайт (7%)
Заголовок                                : AVO Живов
Язык                                     : Russian
Default                                  : Нет
Forced                                   : Нет
Аудио #3
Идентификатор                            : 4
Формат                                   : AC-3
Формат/Информация                        : Audio Coding 3
Расширение режима                        : CM (complete main)
Параметр Endianness формата              : Big
Идентификатор кодека                     : A_AC3
Продолжительность                        : 1 ч. 29 м.
Вид битрейта                             : Постоянный
Битрейт                                  : 640 Кбит/сек
Каналы                                   : 6 каналов
Расположение каналов                     : Front: L C R, Side: L R, LFE
Частота                                  : 48,0 КГц
Метод сжатия                             : С потерями
Размер потока                            : 412 Мбайт (7%)
Заголовок                                : Eng
Язык                                     : English
Default                                  : Нет
Forced                                   : Нет
Текст #1
Идентификатор                            : 5
Формат                                   : UTF-8
Идентификатор кодека                     : S_TEXT/UTF8
Идентификатор кодека/Информация          : UTF-8 Plain Text
Заголовок                                : Rus forced
Язык                                     : Russian
Default                                  : Да
Forced                                   : Да
Текст #2
Идентификатор                            : 6
Формат                                   : UTF-8
Идентификатор кодека                     : S_TEXT/UTF8
Идентификатор кодека/Информация          : UTF-8 Plain Text
Заголовок                                : Rus full
Язык                                     : Russian
Default                                  : Нет
Forced                                   : Нет
Текст #3
Идентификатор                            : 7
Формат                                   : UTF-8
Идентификатор кодека                     : S_TEXT/UTF8
Идентификатор кодека/Информация          : UTF-8 Plain Text
Заголовок                                : Eng SDH
Язык                                     : English
Default                                  : Нет
Forced                                   : Нет
Меню
00:00:00.000                             : :Chapter 01
00:02:26.895                             : :Chapter 02
00:06:11.536                             : :Chapter 03
00:08:58.453                             : :Chapter 04
00:10:31.338                             : :Chapter 05
00:12:47.558                             : :Chapter 06
00:14:53.934                             : :Chapter 07
00:17:02.145                             : :Chapter 08
00:18:55.300                             : :Chapter 09
00:21:14.647                             : :Chapter 10
00:24:31.927                             : :Chapter 11
00:26:25.750                             : :Chapter 12
00:28:33.711                             : :Chapter 13
00:30:35.291                             : :Chapter 14
00:32:58.225                             : :Chapter 15
00:34:20.640                             : :Chapter 16
00:36:49.957                             : :Chapter 17
00:38:32.435                             : :Chapter 18
00:41:00.957                             : :Chapter 19
00:44:43.055                             : :Chapter 20
00:46:29.661                             : :Chapter 21
00:48:46.214                             : :Chapter 22
00:51:11.651                             : :Chapter 23
00:53:11.354                             : :Chapter 24
00:56:07.322                             : :Chapter 25
01:00:34.088                             : :Chapter 26
01:03:30.473                             : :Chapter 27
01:05:45.399                             : :Chapter 28
01:07:39.095                             : :Chapter 29
01:11:06.303                             : :Chapter 30
01:12:22.211                             : :Chapter 31
01:16:03.350                             : :Chapter 32
01:18:43.718                             : :Chapter 33
01:21:31.468                             : :Chapter 34

Скриншоты

       
                   

Russian Mafia

Post 01-Sep-2016 13:21

[Quote]

Тайная жизнь домашних животных / The Secret Life of Pets (2016) HDTV 1080p] [Line] - Производство: Япония, США, Illumination Entertainment, Universal Pictures
Жанр: Мультфильм, комедия, приключения, семейный
Режиссер: Крис Рено, Ярроу Чейни
Продюсер: Крис Меледандри, Джанет Хели
Актеры: Луи Секей, Эрик Стоунстрит, Кевин Харт, Элли Кемпер, Бобби Мойнихан, Лейк Белл, Дана Харвей, Ганнибал Бёресс, Джени Слэйт, Альберт Брукс
Описание:
Что делают домашние животные пока хозяева пропадают на работе? С тоской смотрят в окно? Смиренно дремлют на коврике у двери? Как бы не так. Они ведут свою тайную жизнь.

Возраст: 6+ (зрителям, достигшим 6 лет)
Рейтинг MPAA: PG (рекомендуется присутствие родителей)
Дата мировой премьеры: 18 июня 2016
Дата российской премьеры: 18 августа 2016, «UPI»
Продолжительность: 01:25:47
Качество видео: HDTV Сэмпл
Перевод: Дублированный (Чистый звук)
Вид субтитров: Отсутствуют
Реклама: Присутствуют вставки голосовой и текстовой рекламы
Видео: AVC, 1920x1036 (1.853), 29.970 fps, 5 845 Kbps (0.098 bit/pixel)
Аудио: AC-3, 48.0 KHz, 2 ch, 384 Kbps, CBR

Mediainfo:

Код:
Общее
Уникальный идентификатор                 : 243121462650572482136302365240319044138 (0xB6E77D91AED895CABDF553D5E8046A2A)
Полное имя                               : D:\[1]\Тайная жизнь домашних животных\Тайная жизнь домашних животных - The Secret Life of Pets (2016)_HDTV.1080p.mkv
Формат                                   : Matroska
Версия формата                           : Version 4 / Version 2
Размер файла                             : 3,81 Гбайт
Продолжительность                        : 1 ч. 25 м.
Режим общего битрейта                    : Постоянный
Общий поток                              : 6356 Кбит/сек
Дата кодирования                         : UTC 2016-09-01 04:49:50
Программа кодирования                    : mkvmerge v7.6.0 ('Garden of Dreams') 64bit built on Feb  8 2015 13:04:34
Библиотека кодирования                   : libebml v1.3.1 + libmatroska v1.4.2
_STATISTICS_WRITING_APP                  : mkvmerge v7.6.0 ('Garden of Dreams') 64bit built on Feb  8 2015 13:04:34
_STATISTICS_WRITING_DATE_UTC             : 2016-09-01 04:49:50
_STATISTICS_TAGS                         : BPS DURATION NUMBER_OF_FRAMES NUMBER_OF_BYTES
DURATION                                 : 01:25:47.776000000
NUMBER_OF_FRAMES                         : 160868
NUMBER_OF_BYTES                          : 247093248
Видео
Идентификатор                            : 1
Формат                                   : AVC
Формат/Информация                        : Advanced Video Codec
Профиль формата                          : [url=mailto:High@L4.1]High@L4.1[/url]
Параметр CABAC формата                   : Да
Параметр ReFrames формата                : 4 кадра
Идентификатор кодека                     : V_MPEG4/ISO/AVC
Продолжительность                        : 1 ч. 25 м.
Вид битрейта                             : Постоянный
Битрейт                                  : 5845 Кбит/сек
Номинальный битрейт                      : 6500 Кбит/сек
Ширина                                   : 1920 пикселей
Высота                                   : 1036 пикселей
Соотношение сторон                       : 1,85:1
Режим частоты кадров                     : Постоянный
Частота кадров                           : 29,970 кадров/сек
Стандарт вещания                         : Component
Цветовое пространство                    : YUV
Субдискретизация насыщенности            : 4:2:0
Битовая глубина                          : 8 бит
Тип развёртки                            : Прогрессивная
Бит/(Пиксели*Кадры)                      : 0.098
Размер потока                            : 3,50 Гбайт (92%)
Default                                  : Да
Forced                                   : Нет
Цветовой диапазон                        : Limited
Основные цвета                           : BT.709
Характеристики трансфера                 : BT.709
Коэффициенты матрицы                     : BT.709
Аудио
Идентификатор                            : 2
Формат                                   : AC-3
Формат/Информация                        : Audio Coding 3
Расширение режима                        : CM (complete main)
Параметр Endianness формата              : Big
Идентификатор кодека                     : A_AC3
Продолжительность                        : 1 ч. 25 м.
Вид битрейта                             : Постоянный
Битрейт                                  : 384 Кбит/сек
Каналы                                   : 2 канала
Расположение каналов                     : Front: L R
Частота                                  : 48,0 КГц
Битовая глубина                          : 16 бит
Метод сжатия                             : С потерями
Задержка видео                           : 44 мс.
Размер потока                            : 236 Мбайт (6%)
Default                                  : Да
Forced                                   : Нет

Скриншоты

       
 

The time now is: Today 02:39

All times are GMT + 3 Hours