Today is a free download without charge Download

Театр Теней - 5 альбомов + Сингл (2004-2013) [FLAC|Lossless]

Reply to topic
 
Author
Message

UndegraundMen ®

Longevity: 6 years 7 months

Posts: 25145

Торрент-статистика

Post 09-Jun-2013 04:15

[Quote]

Театр Теней - 5 альбомов + Сингл (2004-2013)- Описание:
Года выпуска: 2004-2013
Жанр: Heavy Metal
Страна: Россия
Продолжительность: 03:52:40
Кодек: FLAC
Битрейт: Lossless
Тип рипа: image+*.cue
Треклист:
Альбомлист:
2004 - Театр Теней
2006 - Зверь
2007 - Твоя Тень (Сингл)
2008 - Capoeira
2008 - Театр Теней (ремастированное издание)
2013 - Культ

2004 - Театр Теней

2004 - Театр Теней-Год: 2004
Аудио-кодек: FLAC
Прoдолжительность: 00:43:53-01 | Слеза | 04:51
02 | Танец Смерти | 03:52
03 | Ты Одинок | 04:29
04 | Суббота | 04:34
05 | Летаргический Сон | 05:41
06 | Зеркала | 05:13
07 | Помни... (Помни Меня) | 06:09
08 | Ночь (Бархат Черной Тишины) | 03:54
09 | Театр Теней | 05:07

Отчет EAC:

Код:
Exact Audio Copy V0.99 prebeta 4 from 23. January 2008
Отчёт EAC об извлечении, выполненном 21. июня 2008, 17:32
Театр Теней / Театр Теней
Дисковод: SONY    CD-RW  CRX225E   Adapter: 1  ID: 1
Режим чтения                 : Достоверность
Использование точного потока : Да
Отключение кэша аудио        : Да
Использование указателей C2  : Нет
Коррекция смещения при чтении                     : 6
Способность читать области Lead-in и Lead-out     : Нет
Заполнение пропущенных сэмплов тишиной            : Да
Удаление блоков с тишиной в начале и конце        : Нет
При вычислениях CRC использовались нулевые сэмплы : Нет
Интерфейс                                         : Встроенный Win32-интерфейс для Win NT/2000
Выходной формат          : Пользовательский кодировщик
Выбранный битрейт        : 768 kBit/s
Качество                 : Высокий
Добавление ID3-тэга      : Нет
Утилита сжатия           : C:\Program Files\EAC\FLAC\FLAC.EXE
Дополнительные параметры : -6 -V -T "ARTIST=%a" -T "TITLE=%t" -T "ALBUM=%g" -T "DATE=%y" -T "TRACKNUMBER=%n" -T "GENRE=%m" -T "COMMENT=%e" %s -o %d
TOC извлечённого CD
     Трек |   Старт  | Длительность | Начальный сектор | Конечный сектор
    ---------------------------------------------------------------------
       1  |  0:00.00 |    4:51.21   |           0      |      21845
       2  |  4:51.21 |    3:52.72   |       21846      |      39317
       3  |  8:44.18 |    4:29.16   |       39318      |      59508
       4  | 13:13.34 |    4:34.35   |       59509      |      80093
       5  | 17:47.69 |    5:41.20   |       80094      |     105688
       6  | 23:29.14 |    5:13.18   |      105689      |     129181
       7  | 28:42.32 |    6:09.33   |      129182      |     156889
       8  | 34:51.65 |    3:54.45   |      156890      |     174484
       9  | 38:46.35 |    5:07.02   |      174485      |     197511
      10  | 46:25.37 |    0:06.36   |      208912      |     209397
Характеристики диапазона извлечения и сообщения об ошибках
Выбранный диапазон
     Имя файла D:\музыка\Театр Теней\Театр Теней\Театр Теней.wav
     Пиковый уровень 98.1 %
     Качество диапазона 100.0 %
     CRC копии 546C76FE
     Копирование... OK
Ошибок не произошло
AccurateRip: сводка
Трек  1  нет в базе данных
Трек  2  нет в базе данных
Трек  3  нет в базе данных
Трек  4  нет в базе данных
Трек  5  нет в базе данных
Трек  6  нет в базе данных
Трек  7  нет в базе данных
Трек  8  нет в базе данных
Трек  9  нет в базе данных
Ни одного трека нет в базе AccurateRip
Конец отчёта

CUE:

Код:
REM GENRE "Heavy Metal"
REM DATE 2004
REM DISCID 8C0AE70A
REM COMMENT "ExactAudioCopy v0.95b4"
PERFORMER "Театр Теней"
TITLE "Театр Теней"
FILE "Театр Теней.flac" WAVE
  TRACK 01 AUDIO
    TITLE "Слеза"
    PERFORMER "Театр Теней"
    INDEX 01 00:00:00
  TRACK 02 AUDIO
    TITLE "Танец Смерти"
    PERFORMER "Театр Теней"
    INDEX 01 04:51:21
  TRACK 03 AUDIO
    TITLE "Ты Одинок"
    PERFORMER "Театр Теней"
    INDEX 01 08:44:18
  TRACK 04 AUDIO
    TITLE "Суббота"
    PERFORMER "Театр Теней"
    INDEX 01 13:13:34
  TRACK 05 AUDIO
    TITLE "Летаргический Сон"
    PERFORMER "Театр Теней"
    INDEX 01 17:47:69
  TRACK 06 AUDIO
    TITLE "Зеркала"
    PERFORMER "Театр Теней"
    INDEX 01 23:29:14
  TRACK 07 AUDIO
    TITLE "Помни... (Помни Меня)"
    PERFORMER "Театр Теней"
    INDEX 01 28:42:32
  TRACK 08 AUDIO
    TITLE "Ночь (Бархат Черной Тишины)"
    PERFORMER "Театр Теней"
    INDEX 01 34:51:65
  TRACK 09 AUDIO
    TITLE "Театр Теней"
    PERFORMER "Театр Теней"
    INDEX 01 38:46:35

Отчет auCDtect Task manager:

Код:
-----------------------
DON'T MODIFY THIS FILE
-----------------------
PERFORMER: auCDtect Task Manager, ver. 1.5.1RC6 build 1.5.1.7
Copyright (c) 2008-2010 y-soft. All rights reserved
http://y-soft.org
ANALYZER: auCDtect: CD records authenticity detector, version 0.8.2
Copyright (c) 2004 Oleg Berngardt. All rights reserved.
Copyright (c) 2004 Alexander Djourik. All rights reserved.
FILE: Театр Теней.flac
  Size: 337487844 Hash: DB8B5D45096E903C540BE003BF4AF530 Accuracy: -m0
  Conclusion: CDDA 100%
  Signature: ABFC3D66AAE2CE10D991E94B217D7637594FD315

2006 - Зверь

2006 - Зверь-Издательство: CD Maximum
Каталоговый номер CDM 0506-2528/U
Год: 2006
Аудио-кодек: FLAC
Прoдолжительность: 00:48:18-01 | Интро | 00:46
02 | Белая Волчица | 05:10
03 | Орёл | 04:33
04 | Волки | 03:41
05 | Змея | 05:59
06 | Al Enquentro! | 04:22
07 | Зелёные рукава/Шторм/Кода | 04:39
08 | Всадник | 04:55
09 | Моби Дик | 05:49
10 | Зверь | 04:48
11 | Ворон | 03:32

Отчет EAC:

Код:
Exact Audio Copy V0.99 prebeta 4 from 23. January 2008
Отчёт EAC об извлечении, выполненном 21. июня 2008, 17:49
Театр Теней / Зверь
Дисковод: SONY    CD-RW  CRX225E   Adapter: 1  ID: 1
Режим чтения                 : Достоверность
Использование точного потока : Да
Отключение кэша аудио        : Да
Использование указателей C2  : Нет
Коррекция смещения при чтении                     : 6
Способность читать области Lead-in и Lead-out     : Нет
Заполнение пропущенных сэмплов тишиной            : Да
Удаление блоков с тишиной в начале и конце        : Нет
При вычислениях CRC использовались нулевые сэмплы : Нет
Интерфейс                                         : Встроенный Win32-интерфейс для Win NT/2000
Выходной формат          : Пользовательский кодировщик
Выбранный битрейт        : 768 kBit/s
Качество                 : Высокий
Добавление ID3-тэга      : Нет
Утилита сжатия           : C:\Program Files\EAC\FLAC\FLAC.EXE
Дополнительные параметры : -6 -V -T "ARTIST=%a" -T "TITLE=%t" -T "ALBUM=%g" -T "DATE=%y" -T "TRACKNUMBER=%n" -T "GENRE=%m" -T "COMMENT=%e" %s -o %d
TOC извлечённого CD
     Трек |   Старт  | Длительность | Начальный сектор | Конечный сектор
    ---------------------------------------------------------------------
       1  |  0:00.00 |    0:46.28   |           0      |       3477
       2  |  0:46.28 |    5:10.13   |        3478      |      26740
       3  |  5:56.41 |    4:33.63   |       26741      |      47278
       4  | 10:30.29 |    3:41.06   |       47279      |      63859
       5  | 14:11.35 |    5:59.56   |       63860      |      90840
       6  | 20:11.16 |    4:22.11   |       90841      |     110501
       7  | 24:33.27 |    4:39.43   |      110502      |     131469
       8  | 29:12.70 |    4:55.17   |      131470      |     153611
       9  | 34:08.12 |    5:49.11   |      153612      |     179797
      10  | 39:57.23 |    4:48.13   |      179798      |     201410
      11  | 44:45.36 |    3:32.68   |      201411      |     217378
Характеристики диапазона извлечения и сообщения об ошибках
Выбранный диапазон
     Имя файла D:\музыка\Театр Теней\Зверь\Зверь.wav
     Пиковый уровень 100.0 %
     Качество диапазона 100.0 %
     CRC копии 408A3D47
     Копирование... OK
Ошибок не произошло
AccurateRip: сводка
Трек  1  нет в базе данных
Трек  2  нет в базе данных
Трек  3  нет в базе данных
Трек  4  нет в базе данных
Трек  5  нет в базе данных
Трек  6  нет в базе данных
Трек  7  нет в базе данных
Трек  8  нет в базе данных
Трек  9  нет в базе данных
Трек 10  нет в базе данных
Трек 11  нет в базе данных
Ни одного трека нет в базе AccurateRip
Конец отчёта

CUE:

Код:

Отчет auCDtect Task manager:

Код:
-----------------------
DON'T MODIFY THIS FILE
-----------------------
PERFORMER: auCDtect Task Manager, ver. 1.5.1RC6 build 1.5.1.7
Copyright (c) 2008-2010 y-soft. All rights reserved
http://y-soft.org
ANALYZER: auCDtect: CD records authenticity detector, version 0.8.2
Copyright (c) 2004 Oleg Berngardt. All rights reserved.
Copyright (c) 2004 Alexander Djourik. All rights reserved.
FILE: Зверь.flac
  Size: 383999238 Hash: 89C0332C9CD579D03F04756BCD705030 Accuracy: -m0
  Conclusion: CDDA 100%
  Signature: 2CD72683CAE97FAEF0D96F2D8BDF7F5574D836CA

2007 - Твоя Тень (Сингл)

2007 - Твоя Тень (Сингл)-Год: 2007
Аудио-кодек: FLAC
Прoдолжительность: 00:18:36-01 | С тобой, без тебя | 03:41
02 | Смех её | 04:36
03 | Буду я | 05:47
04 | Я Твоя Тень | 04:30

Отчет EAC:

Код:
Exact Audio Copy V0.99 prebeta 4 from 23. January 2008
Отчёт EAC об извлечении, выполненном 21. июня 2008, 18:02
Театр Теней / Твоя Тень
Дисковод: SONY    CD-RW  CRX225E   Adapter: 1  ID: 1
Режим чтения                 : Достоверность
Использование точного потока : Да
Отключение кэша аудио        : Да
Использование указателей C2  : Нет
Коррекция смещения при чтении                     : 6
Способность читать области Lead-in и Lead-out     : Нет
Заполнение пропущенных сэмплов тишиной            : Да
Удаление блоков с тишиной в начале и конце        : Нет
При вычислениях CRC использовались нулевые сэмплы : Нет
Интерфейс                                         : Встроенный Win32-интерфейс для Win NT/2000
Выходной формат          : Пользовательский кодировщик
Выбранный битрейт        : 768 kBit/s
Качество                 : Высокий
Добавление ID3-тэга      : Нет
Утилита сжатия           : C:\Program Files\EAC\FLAC\FLAC.EXE
Дополнительные параметры : -6 -V -T "ARTIST=%a" -T "TITLE=%t" -T "ALBUM=%g" -T "DATE=%y" -T "TRACKNUMBER=%n" -T "GENRE=%m" -T "COMMENT=%e" %s -o %d
TOC извлечённого CD
     Трек |   Старт  | Длительность | Начальный сектор | Конечный сектор
    ---------------------------------------------------------------------
       1  |  0:00.00 |    3:41.24   |           0      |      16598
       2  |  3:41.24 |    4:36.54   |       16599      |      37352
       3  |  8:18.03 |    5:47.02   |       37353      |      63379
       4  | 14:05.05 |    4:31.00   |       63380      |      83704
Характеристики диапазона извлечения и сообщения об ошибках
Выбранный диапазон
     Имя файла D:\музыка\Театр Теней\Твоя Тень\Твоя Тень.wav
     Пиковый уровень 96.6 %
     Качество диапазона 99.9 %
     CRC копии 77FBAA82
     Копирование... OK
Ошибок не произошло
AccurateRip: сводка
Трек  1  нет в базе данных
Трек  2  нет в базе данных
Трек  3  нет в базе данных
Трек  4  нет в базе данных
Ни одного трека нет в базе AccurateRip
Конец отчёта

CUE:

Код:

Отчет auCDtect Task manager:

Код:
-----------------------
DON'T MODIFY THIS FILE
-----------------------
PERFORMER: auCDtect Task Manager, ver. 1.5.1RC6 build 1.5.1.7
Copyright (c) 2008-2010 y-soft. All rights reserved
http://y-soft.org
ANALYZER: auCDtect: CD records authenticity detector, version 0.8.2
Copyright (c) 2004 Oleg Berngardt. All rights reserved.
Copyright (c) 2004 Alexander Djourik. All rights reserved.
FILE: Твоя Тень.flac
  Size: 144325869 Hash: 815043E926163C6F01AA5803622DD37B Accuracy: -m0
  Conclusion: CDDA 100%
  Signature: B1F5E93D1CF7AAB57CF6FB6C03854DB1E586B86A

2008 - Capoeira

2008 - Capoeira-Год: 2008
Аудио-кодек: FLAC
Прoдолжительность: 00:42:14-01 | Дорога Всех Ветров | 04:18
02 | Асмодей | 04:35
03 | Два Крыла | 03:32
04 | Бездушный | 04:01
05 | В Жертву Пламени | 02:57
06 | Я Закрыл Твои Глаза | 04:20
07 | Против Правил | 03:12
08 | Твой Рок | 04:30
09 | Творец Сновидений | 04:13
10 | Улитка & Пеликан | 03:16
11 | Ветер | 03:16

Отчет EAC:

Код:
Exact Audio Copy V0.99 prebeta 4 from 23. January 2008
Отчёт EAC об извлечении, выполненном 21. июня 2008, 19:36
Театр Теней / Capoeira
Дисковод: SONY    CD-RW  CRX225E   Adapter: 1  ID: 1
Режим чтения                 : Достоверность
Использование точного потока : Да
Отключение кэша аудио        : Да
Использование указателей C2  : Нет
Коррекция смещения при чтении                     : 6
Способность читать области Lead-in и Lead-out     : Нет
Заполнение пропущенных сэмплов тишиной            : Да
Удаление блоков с тишиной в начале и конце        : Нет
При вычислениях CRC использовались нулевые сэмплы : Нет
Интерфейс                                         : Встроенный Win32-интерфейс для Win NT/2000
Выходной формат          : Пользовательский кодировщик
Выбранный битрейт        : 768 kBit/s
Качество                 : Высокий
Добавление ID3-тэга      : Нет
Утилита сжатия           : C:\Program Files\EAC\FLAC\FLAC.EXE
Дополнительные параметры : -6 -V -T "ARTIST=%a" -T "TITLE=%t" -T "ALBUM=%g" -T "DATE=%y" -T "TRACKNUMBER=%n" -T "GENRE=%m" -T "COMMENT=%e" %s -o %d
TOC извлечённого CD
     Трек |   Старт  | Длительность | Начальный сектор | Конечный сектор
    ---------------------------------------------------------------------
       1  |  0:00.00 |    4:18.12   |           0      |      19361
       2  |  4:18.12 |    4:35.16   |       19362      |      40002
       3  |  8:53.28 |    3:32.22   |       40003      |      55924
       4  | 12:25.50 |    4:01.18   |       55925      |      74017
       5  | 16:26.68 |    2:57.52   |       74018      |      87344
       6  | 19:24.45 |    4:20.23   |       87345      |     106867
       7  | 23:44.68 |    3:12.74   |      106868      |     121341
       8  | 26:57.67 |    4:30.37   |      121342      |     141628
       9  | 31:28.29 |    4:13.30   |      141629      |     160633
      10  | 35:41.59 |    3:16.36   |      160634      |     175369
      11  | 38:58.20 |    3:16.11   |      175370      |     190080
      12  | 44:46.31 |   24:19.38   |      201481      |     310943
Характеристики диапазона извлечения и сообщения об ошибках
Выбранный диапазон
     Имя файла D:\музыка\Театр Теней\Capoeira\Capoeira.wav
     Пиковый уровень 98.8 %
     Качество диапазона 100.0 %
     CRC копии F83A742A
     Копирование... OK
Ошибок не произошло
AccurateRip: сводка
Трек  1  нет в базе данных
Трек  2  нет в базе данных
Трек  3  нет в базе данных
Трек  4  нет в базе данных
Трек  5  нет в базе данных
Трек  6  нет в базе данных
Трек  7  нет в базе данных
Трек  8  нет в базе данных
Трек  9  нет в базе данных
Трек 10  нет в базе данных
Трек 11  нет в базе данных
Ни одного трека нет в базе AccurateRip
Конец отчёта

CUE:

Код:
REM DATE 2008
REM DISCID AB10310C
REM COMMENT "ExactAudioCopy v0.99pb4"
PERFORMER "Театр Теней"
TITLE "Capoeira"
FILE "Capoeira.flac" WAVE
  TRACK 01 AUDIO
    TITLE "Дорога Всех Ветров"
    PERFORMER "Театр Теней"
    FLAGS DCP
    INDEX 01 00:00:00
  TRACK 02 AUDIO
    TITLE "Асмодей"
    PERFORMER "Театр Теней"
    FLAGS DCP
    INDEX 00 04:16:05
    INDEX 01 04:18:12
  TRACK 03 AUDIO
    TITLE "Два Крыла"
    PERFORMER "Театр Теней"
    FLAGS DCP
    INDEX 00 08:51:09
    INDEX 01 08:53:28
  TRACK 04 AUDIO
    TITLE "Бездушный"
    PERFORMER "Театр Теней"
    FLAGS DCP
    INDEX 00 12:23:45
    INDEX 01 12:25:50
  TRACK 05 AUDIO
    TITLE "В Жертву Пламени"
    PERFORMER "Театр Теней"
    FLAGS DCP
    INDEX 00 16:25:03
    INDEX 01 16:26:68
  TRACK 06 AUDIO
    TITLE "Я Закрыл Твои Глаза"
    PERFORMER "Театр Теней"
    FLAGS DCP
    INDEX 00 19:22:19
    INDEX 01 19:24:45
  TRACK 07 AUDIO
    TITLE "Против Правил"
    PERFORMER "Театр Теней"
    FLAGS

Отчет auCDtect Task manager:

Код:
-----------------------
DON'T MODIFY THIS FILE
-----------------------
PERFORMER: auCDtect Task Manager, ver. 1.5.1RC6 build 1.5.1.7
Copyright (c) 2008-2010 y-soft. All rights reserved
http://y-soft.org
ANALYZER: auCDtect: CD records authenticity detector, version 0.8.2
Copyright (c) 2004 Oleg Berngardt. All rights reserved.
Copyright (c) 2004 Alexander Djourik. All rights reserved.
FILE: Capoeira.flac
  Size: 326086962 Hash: 2114ED8052659E25B1F7546416C07DAC Accuracy: -m0
  Conclusion: CDDA 100%
  Signature: C5C1F7EBD9EFCB3B4BA1703550D0DCE4B7BE29A1

2008 - Театр Теней (ремастированное издание)

2008 - Театр Теней (ремастированное издание)-Год: 2008
Аудио-кодек: FLAC
Прoдолжительность: 00:44:03-01 | Слеза | 04:55
02 | Танец Смерти | 03:54
03 | Ты Одинок | 04:30
04 | Суббота | 04:37
05 | Летаргический Сон | 05:38
06 | Зеркала | 05:14
07 | Помни... | 06:09
08 | Ночь | 03:56
09 | Театр Теней | 05:06

Отчет EAC:

Код:
Exact Audio Copy V0.99 prebeta 4 from 23. January 2008
Отчёт EAC об извлечении, выполненном 28. июня 2008, 23:16
Театр Теней / Театр Теней
Дисковод: SONY    CD-RW  CRX225E   Adapter: 1  ID: 1
Режим чтения                 : Достоверность
Использование точного потока : Да
Отключение кэша аудио        : Да
Использование указателей C2  : Нет
Коррекция смещения при чтении                     : 6
Способность читать области Lead-in и Lead-out     : Нет
Заполнение пропущенных сэмплов тишиной            : Да
Удаление блоков с тишиной в начале и конце        : Нет
При вычислениях CRC использовались нулевые сэмплы : Нет
Интерфейс                                         : Встроенный Win32-интерфейс для Win NT/2000
Выходной формат          : Пользовательский кодировщик
Выбранный битрейт        : 768 kBit/s
Качество                 : Высокий
Добавление ID3-тэга      : Нет
Утилита сжатия           : C:\Program Files\EAC\FLAC\FLAC.EXE
Дополнительные параметры : -6 -V -T "ARTIST=%a" -T "TITLE=%t" -T "ALBUM=%g" -T "DATE=%y" -T "TRACKNUMBER=%n" -T "GENRE=%m" -T "COMMENT=%e" %s -o %d
TOC извлечённого CD
     Трек |   Старт  | Длительность | Начальный сектор | Конечный сектор
    ---------------------------------------------------------------------
       1  |  0:00.00 |    4:55.42   |           0      |      22166
       2  |  4:55.42 |    3:54.63   |       22167      |      39779
       3  |  8:50.30 |    4:30.57   |       39780      |      60086
       4  | 13:21.12 |    4:37.01   |       60087      |      80862
       5  | 17:58.13 |    5:38.68   |       80863      |     106280
       6  | 23:37.06 |    5:14.47   |      106281      |     129877
       7  | 28:51.53 |    6:09.59   |      129878      |     157611
       8  | 35:01.37 |    3:56.09   |      157612      |     175320
       9  | 38:57.46 |    5:06.02   |      175321      |     198272
Характеристики диапазона извлечения и сообщения об ошибках
Выбранный диапазон
     Имя файла D:\музыка\Театр Теней\Театр Теней (remastered)\Театр Теней (remastered).wav
     Пиковый уровень 98.8 %
     Качество диапазона 100.0 %
     CRC копии DABCAAAF
     Копирование... OK
Ошибок не произошло
AccurateRip: сводка
Трек  1  нет в базе данных
Трек  2  нет в базе данных
Трек  3  нет в базе данных
Трек  4  нет в базе данных
Трек  5  нет в базе данных
Трек  6  нет в базе данных
Трек  7  нет в базе данных
Трек  8  нет в базе данных
Трек  9  нет в базе данных
Ни одного трека нет в базе AccurateRip
Конец отчёта

CUE:

Код:
REM GENRE "Heavy Metal"
REM DATE 2008
REM DISCID 660A5309
REM COMMENT "ExactAudioCopy v0.99pb4"
PERFORMER "Театр Теней"
TITLE "Театр Теней"
FILE "Театр Теней (remastered).flac" WAVE
  TRACK 01 AUDIO
    TITLE "Слеза"
    PERFORMER "Театр Теней"
    INDEX 01 00:00:00
  TRACK 02 AUDIO
    TITLE "Танец Смерти"
    PERFORMER "Театр Теней"
    INDEX 00 04:53:61
    INDEX 01 04:55:42
  TRACK 03 AUDIO
    TITLE "Ты Одинок"
    PERFORMER "Театр Теней"
    INDEX 00 08:48:51
    INDEX 01 08:50:30
  TRACK 04 AUDIO
    TITLE "Суббота"
    PERFORMER "Театр Теней"
    INDEX 00 13:19:28
    INDEX 01 13:21:12
  TRACK 05 AUDIO
    TITLE "Летаргический Сон"
    PERFORMER "Театр Теней"
    INDEX 00 17:56:18
    INDEX 01 17:58:13
  TRACK 06 AUDIO
    TITLE "Зеркала"
    PERFORMER "Театр Теней"
    INDEX 00 23:35:37
    INDEX 01 23:37:06
  TRACK 07 AUDIO
    TITLE "Помни..."
    PERFORMER "Театр Теней"
    INDEX 00 28:50:03
    INDEX 01 28:51:53
  TRACK 08 AUDIO
    TITLE "Ночь"
    PERFORMER "Театр Теней"
    INDEX 00 34:59:43
    INDEX 01 35:01:37
  TRACK 09 AUDIO
    TITLE "Театр Теней"
    PERFORMER "Театр Теней"
    INDEX 00 38:55:59
    INDEX 01 38:57:46

Отчет auCDtect Task manager:

Код:
-----------------------
DON'T MODIFY THIS FILE
-----------------------
PERFORMER: auCDtect Task Manager, ver. 1.5.1RC6 build 1.5.1.7
Copyright (c) 2008-2010 y-soft. All rights reserved
http://y-soft.org
ANALYZER: auCDtect: CD records authenticity detector, version 0.8.2
Copyright (c) 2004 Oleg Berngardt. All rights reserved.
Copyright (c) 2004 Alexander Djourik. All rights reserved.
FILE: Театр Теней (remastered).flac
  Size: 335656450 Hash: BB82FBC90ED400AB33EB5D6B4AD2BEEA Accuracy: -m0
  Conclusion: CDDA 100%
  Signature: E699D0CF9BD4A47E3D204A4E361D40955EA03771

2013 - Культ

2013 - Культ-Год: 2013
Аудио-кодек: FLAC
Прoдолжительность: 00:35:35
Автор рипа: BlindGuard-01 | Игра | 03:05
02 | Ложь | 04:47
03 | Бездна | 03:09
04 | Два Первых | 04:30
05 | Мечта | 02:34
06 | Мама | 02:32
07 | Я Не Из Тех | 03:27
08 | Сказка | 04:31
09 | Гимн | 03:28
10 | Шизофрения | 3:34

Отчет EAC:

Код:
Exact Audio Copy V1.0 beta 3 from 29. August 2011
EAC extraction logfile from 6. June 2013, 19:08
Театр Теней / Культ
Used drive  : ATAPI   iHAS124   Y   Adapter: 4  ID: 0
Read mode               : Secure
Utilize accurate stream : Yes
Defeat audio cache      : Yes
Make use of C2 pointers : No
Read offset correction                      : 48
Overread into Lead-In and Lead-Out          : No
Fill up missing offset samples with silence : Yes
Delete leading and trailing silent blocks   : No
Null samples used in CRC calculations       : Yes
Used interface                              : Native Win32 interface for Win NT & 2000
Used output format              : User Defined Encoder
Selected bitrate                : 128 kBit/s
Quality                         : High
Add ID3 tag                     : No
Command line compressor         : C:\Program Files (x86)\Exact Audio Copy\FLAC\FLAC.EXE
Additional command line options : -V -8 -T "Date=%year%" -T "Genre=%genre%" %source%
TOC of the extracted CD
     Track |   Start  |  Length  | Start sector | End sector
    ---------------------------------------------------------
        1  |  0:00.00 |  3:05.71 |         0    |    13945
        2  |  3:05.71 |  4:47.74 |     13946    |    35544
        3  |  7:53.70 |  3:09.02 |     35545    |    49721
        4  | 11:02.72 |  4:30.50 |     49722    |    70021
        5  | 15:33.47 |  2:34.48 |     70022    |    81619
        6  | 18:08.20 |  2:23.16 |     81620    |    92360
        7  | 20:31.36 |  3:28.03 |     92361    |   107963
        8  | 23:59.39 |  4:31.55 |    107964    |   128343
        9  | 28:31.19 |  3:28.21 |    128344    |   143964
       10  | 31:59.40 |  3:35.03 |    143965    |   160092
Range status and errors
Selected range
     Filename D:\Downloads\Новая папка\Театр Теней - Культ.wav
     Peak level 99.4 %
     Extraction speed 3.7 X
     Range quality 100.0 %
     Copy CRC 3B881457
     Copy OK
No errors occurred
AccurateRip summary
Track  1  not present in database
Track  2  not present in database
Track  3  not present in database
Track  4  not present in database
Track  5  not present in database
Track  6  not present in database
Track  7  not present in database
Track  8  not present in database
Track  9  not present in database
Track 10  not present in database
None of the tracks are present in the AccurateRip database
End of status report
==== Log checksum CD11A30D991DFCCDE1CAA4030C39EA2CB324056124BA686F53A43A554F203C4C ====

CUE:

Код:
REM GENRE "Heavy Metal"
REM DATE 2013
REM DISCID 7908560A
REM COMMENT "ExactAudioCopy v1.0b3"
PERFORMER "Театр Теней"
TITLE "Культ"
FILE "Театр Теней - Культ.flac" WAVE
  TRACK 01 AUDIO
    TITLE "Игра"
    PERFORMER "Театр Теней"
    INDEX 01 00:00:00
  TRACK 02 AUDIO
    TITLE "Ложь"
    PERFORMER "Театр Теней"
    INDEX 01 03:05:71
  TRACK 03 AUDIO
    TITLE "Бездна"
    PERFORMER "Театр Теней"
    INDEX 01 07:53:70
  TRACK 04 AUDIO
    TITLE "Два первых"
    PERFORMER "Театр Теней"
    INDEX 01 11:02:72
  TRACK 05 AUDIO
    TITLE "Мечта"
    PERFORMER "Театр Теней"
    INDEX 01 15:33:47
  TRACK 06 AUDIO
    TITLE "Мама"
    PERFORMER "Театр Теней"
    INDEX 01 18:08:20
  TRACK 07 AUDIO
    TITLE "Я не из тех"
    PERFORMER "Театр Теней"
    INDEX 01 20:31:36
  TRACK 08 AUDIO
    TITLE "Сказка"
    PERFORMER "Театр Теней"
    INDEX 01 23:59:39
  TRACK 09 AUDIO
    TITLE "Гимн"
    PERFORMER "Театр Теней"
    INDEX 01 28:31:19
  TRACK 10 AUDIO
    TITLE "Шизофрения"
    PERFORMER "Театр Теней"
    INDEX 01 31:59:40

Отчет auCDtect Task manager:

Код:
-----------------------
DON'T MODIFY THIS FILE
-----------------------
PERFORMER: auCDtect Task Manager, ver. 1.5.1RC6 build 1.5.1.7
Copyright (c) 2008-2010 y-soft. All rights reserved
http://y-soft.org
ANALYZER: auCDtect: CD records authenticity detector, version 0.8.2
Copyright (c) 2004 Oleg Berngardt. All rights reserved.
Copyright (c) 2004 Alexander Djourik. All rights reserved.
FILE: Театр Теней - Культ.flac
  Size: 286128664 Hash: 69FA2BBE879105A9FC4F959BCAC4BDD4 Accuracy: -m0
  Conclusion: CDDA 100%
  Signature: 0E20064D37F5CE78422A5870BD05A5BD898EE581
Театр Теней - Культ (2013) [MP3|320 кб/с]

-

О группе\альбоме:

Группа была основана Денисом Машаровым в 1986-ом году.
Для начала Театральный репертуар состоял из классики - из тех вещей, которые принадлежат Вечности, которые всегда проникают в самое сердце…
Шли годы. Театр Теней подбирал новых актеров. Кто-то уходил из труппы, навсегда унося в своем сердце частичку великолепного спектакля теней…
Писались и ставились новые пьесы, пробовались разные стили, разные подходы. Театр Теней говорил с публикой языком мелодичных электрогитар, энергичных ударных и мощного баса.
Повествование вел сильный и чистый голос вокалиста. Это трогало душу и будоражило разум. Тексты? Они заставляли задуматься, оставляя глубокий след в каждом сердце. Музыка? Эта музыка давала жизнь теням, что были самой ЖИЗНЬЮ…
Так со временем совершенствовался Театр Теней. И вот приходит время представить Вам актеров и режиссеров Театра - тех, кто ставит спектакли и играет в них… В какой-то момент во главе Театра встал Денис - один из тех троих, которые в свое время основали Театр. В то же время в труппу пришел талантливый актер и автор Евгений.
С тех пор постановка следует за постановкой, одна пьеса сменяет другую, порой меняются актеры, но остаются Денис и Евгений.
Время течет.
Впрочем, что такое время для Театра Теней?… Что может быть проще времени… когда твоя жизнь - искусство!
В труппу пришли Михаил и Дмитрий Coffin, и с их приходом спектакли Театра стали более выразительными, более интересными. Настало время зафиксировать момент - один, всего один, мимолетное «сейчас» - в записи «Театр Теней». И следом взяться за новые постановки и за поиск новых актеров.
Таким новичком стал гитарист Андрей, с которым коллектив взялся за написание новых пьес страстей…
История (Факты):
1986 – образование группы в составе:
Д.Сидоров «Маршак» - гитара, тексты, музыка
Д.Машаров – бас, вокал, музыка
А.Албул – барабаны, музыка
Группа выступала на танцевальных вечерах ДК Метролог, в Менделеево (недалеко от Зеленограда). Репертуар коллектива составляли кавер-версии известных групп.
1990 год. Запись мини-альбома «Последний романтик» в составе:
Д.Сидоров «Маршак» - гитара
А.Албул – барабаны, клавиши
И.Толстов - гитара
А.Кирпичников - бас
Д.Машаров - вокал
1987-1997 гг
Коллектив существует в составе:
Д.Сидоров - вокал, гитара, тексты, музыка
И.Толстов - гитара
А.Кирпичников - бас
В.Морозов - барабаны
Группа изредка дает областные отчетные концерты.
1997 год. Запись миньона.
1997-1998 гг
Группа исполняет музыку в стиле rock, hard rock в составе:
Д.Сидоров - вокал, гитара, тексты, музыка
Т.Кузнецов - гитара
М.Дементьев - бас
В.Морозов - барабаны
В 1998 году группа временно прекращает деятельность по причине болезни Д.Сидорова.
2000 г.
Коллектив возрождается и начинает исполнять музыку в новом стиле, утяжеляя свое звучание, переходя к heavy metal.
Запись демо-альбома «Алые паруса» и концертного альбома в клубе «Табула Раса».
Состав:
Сидоров – гитара
Исаев – гитара
Колесов – бас
Ермаков – барабаны
Машаров - вокал
Состав коллектива постепенно меняется. В течение двух лет подбираются новые музыканты. По причине болезни Сидоров уходит из группы во время записи демо-альбома «Алые паруса».
2002 г.
Подготовка демо-записи. Состав:
Исаев
Кузнецов
Машаров
Дементьев
«Коффин» Морозов
2003 г.
Запись демо «Зеркала». Трек-лист:
• Слеза
• Зеркала
• Летаргический Сон
Около 100 копий демо на CD-R разошлись по друзьям
Осенью начинается запись альбома, которая прерывается болезнью басиста Дементьева Михаила.
2003-2004 гг.
Группа работает в составе:
Е. Исаев - гитара
Д. Машаров - вокал
М. Дементьев - бас
Д. «Коффин» Морозов - барабаны
Коллектив ведет достаточно активную концертную деятельность.
2004 г, весна – заканчивается запись альбома.
2004, декабрь – выход альбома «Театр Теней» на фирме «Мистерия Звука».
2005 г. - К группе присоединяется второй гитарист Андрей Янышев.
В 2006 из группы уходит А. Янышев и присоединяется Игорь Устинов. Вместе они записывают альбом «Зверь».
В конце 2006 из группы уходит М. Дементьев.
Новый состав к началу 2007-ого года:
Е. Исаев - гитара
И. Устинов - вторая гитара
Д. Машаров - вокал
П. Правдин - бас
Д. «Коффин» Морозов - барабаны
Этим составом они записывают сингл «Я твоя Тень» (в 2-х вариантах - «зелёный» и «синий», с разным сведением звука).
22 марта 2008 года выпущен новый альбом Capoeira, сочетающий в себе, помимо классического стержня Театра, элементы progressive & blues. В вокале, помимо Дениса Машарова, попробовали себя Игорь Устинов (класссика) и павел Правдин (скрим).

-

Сэмплы:

-Время раздачи: 24/7
Other forum [Profile] [PM]

Dracula

Longevity: 5 years 11 months

Posts: 10578

Торрент-статистика

Post 09-Jun-2013 06:08 (after 1 hour 52 minutes)

Топик был перенесен из форума Rock в форум Russian Rock


p2000s
 
Display posts from previous:    
Reply to topic

The time now is: Today 11:03

All times are GMT + 3 Hours



You cannot post new topics in this forum
You cannot reply to topics in this forum
You cannot edit your posts in this forum
You cannot delete your posts in this forum
You cannot vote in polls in this forum
You cannot attach files in this forum
You cannot download files in this forum