Today is a free download without charge Download

Бригадный Подряд - 25 альбомов (1986-2011) [APE|Lossless]

Reply to topic
 
Author
Message

UndegraundMen ®

Longevity: 6 years 4 months

Posts: 25147

Торрент-статистика

Post 09-Jun-2013 04:15

[Quote]

Бригадный Подряд - 25 альбомов (1986-2011)- - -Год: 1986-2011
Жанр: Punk Rock
Продолжительность: 18:04:13
Источник (релизер): Патологоанатом
Кодек: APE, (image + .cue)
Битрейт: Lossless-Трек лист:

Оригинальные Издания

1986 - Бригадный Подряд

Год издания диска: 1986
Издатель (лейбл): Никитин
Номер по каталогу: ТФН-CD 638/06
Продолжительность: 00:39:14-Трек лист:
01-Трезвость
02-Кошечка
03-Мне 17 лет
04-Я-сверхмужик
05-Ни гугу
06-Режь серп, бей молот
07-Чувак в кайф
08-Мослы
09-Идиот
10-Мода полёта
11-ОбщеПит
12-Париж-Таллинн
13-(безымянный трек)
14-Каждый человек
15-Долой гопоту!

Отчёт ЕАС:

Код:
Exact Audio Copy V0.99 prebeta 4 from 23. January 2008
Отчёт EAC об извлечении, выполненном 8. июля 2009, 13:44
Бригадный Подряд / Бригадный Подряд
Дисковод: LITE-ON DVDRW SOHW-1653S Adapter: 3 ID: 0
Режим чтения : Достоверность
Использование точного потока : Да
Отключение кэша аудио : Да
Использование указателей C2 : Нет
Коррекция смещения при чтении : 12
Способность читать области Lead-in и Lead-out : Нет
Заполнение пропущенных сэмплов тишиной : Да
Удаление блоков с тишиной в начале и конце : Нет
При вычислениях CRC использовались нулевые сэмплы : Да
Интерфейс : Установленный внешний ASPI-интерфейс
Выходной формат : Внутренние WAV-операции
Формат сэмплов : 44.100 Гц; 16 бит; стерео
TOC извлечённого CD
Трек | Старт | Длительность | Начальный сектор | Конечный сектор
---------------------------------------------------------------------
1 | 0:00.00 | 1:20.74 | 0 | 6073
2 | 1:20.74 | 1:28.56 | 6074 | 12729
3 | 2:49.55 | 1:32.12 | 12730 | 19641
4 | 4:21.67 | 1:45.73 | 19642 | 27589
5 | 6:07.65 | 2:00.58 | 27590 | 36647
6 | 8:08.48 | 1:20.30 | 36648 | 42677
7 | 9:29.03 | 4:36.42 | 42678 | 63419
8 | 14:05.45 | 3:17.52 | 63420 | 78246
9 | 17:23.22 | 2:17.38 | 78247 | 88559
10 | 19:40.60 | 2:43.47 | 88560 | 100831
11 | 22:24.32 | 2:49.33 | 100832 | 113539
12 | 25:13.65 | 2:17.08 | 113540 | 123822
13 | 27:30.73 | 3:06.73 | 123823 | 137845
14 | 30:37.71 | 4:02.17 | 137846 | 156012
15 | 34:40.13 | 4:33.49 | 156013 | 176536
Характеристики диапазона извлечения и сообщения об ошибках
Выбранный диапазон
Имя файла E:\Бригадный Подряд(lossless)\1986-Бригадный Подряд\Бригадный Подряд - Бригадный Подряд.wav
Пиковый уровень 100.0 %
Качество диапазона 100.0 %
CRC копии E332FDED
Копирование... OK
Ошибок не произошло
Конец отчёта

Отчёт auCDtect Task manager:

Код:
DON'T MODIFY THIS FILE
-----------------------
PERFORMER: auCDtect Task Manager, ver. 1.6.0 RC1 build 1.6.0.1
Copyright (c) 2008-2010 y-soft. All rights reserved
http://y-soft.org
ANALYZER: auCDtect: CD records authenticity detector, version 0.8.2
Copyright (c) 2004 Oleg Berngardt. All rights reserved.
Copyright (c) 2004 Alexander Djourik. All rights reserved.
FILE: Бригадный Подряд - Бригадный Подряд.ape
  Size: 174742840 Hash: D348409699F033A8157E496A8D01F7C9 Accuracy: -m0
  Conclusion: MPEG 95%
  Signature: C755ED498F7976B0CD2B4B0F1CE1CDBFBD7BE050

Спектрограмма

 

1988 - Все Punk Рок!

Год издания диска: 1988
Издатель (лейбл): Никитин
Номер по каталогу: ТФН-CD 71/04
Продолжительность: 00:44:05-Трек лист:

1. Кировский завод
2. Кошечка
3. Мослы
4. Деньги
5. Товарищи + наркоманка
6. Партсъезд
7. Колыбельная
8. Мама - инвалид
9. Режь Серп - Бей Молот
10. В МВД у нас не спят
11. Человеко-Е
12. Баден-Баден
13. Идиот
14. Трезвость
15. Соловьи
16. Сенкевич
17. Кобзон
18. Скотина
19. Не Хочу
20. Мордобой
21. Войны.

Отчёт ЕАС:

Код:
Отчёт EAC об извлечении, выполненном 3. сентября 2007, 15:11 для диска:
Бригадный Подряд / Все - Punk рок!
Дисковод: TEAC DW-552GA Adapter: 2 ID: 1
Режим чтения: Достоверный (C2: нет, Точный поток: да, Отключение кэша: да)
Коррекция смещения при чтении: 6
Способность читать области Lead-in и Lead-out : Нет
Выходной формат: Внутренние WAV-операции
44.100 Гц; 16 бит; стерео
Другие параметры:
Заполнение пропущенных сэмплов тишиной : Да
Удаление блоков с тишиной в начале и конце : Нет
Установленный внешний ASPI-интерфейс
Характеристики диапазона извлечения и сообщения об ошибках
Выбранный диапазон
Имя файла F:\torrent\Brigadny Podryad\Vse Punk Rock 1988\Бригадный Подряд - Все - Punk рок.wav
Пиковый уровень 99.7 %
Качество диапазона 100.0 %
CRC E0FCB9E9
Копирование... OK
Ошибок не произошло
Конец отчёта

Отчёт auCDtect Task manager:

Код:
DON'T MODIFY THIS FILE
-----------------------
PERFORMER: auCDtect Task Manager, ver. 1.6.0 RC1 build 1.6.0.1
Copyright (c) 2008-2010 y-soft. All rights reserved
http://y-soft.org
ANALYZER: auCDtect: CD records authenticity detector, version 0.8.2
Copyright (c) 2004 Oleg Berngardt. All rights reserved.
Copyright (c) 2004 Alexander Djourik. All rights reserved.
FILE: Бригадный Подряд - Все - Punk рок.ape
  Size: 284840796 Hash: 151ECE926C54F9AE972AA81A7C2871DF Accuracy: -m0
  Conclusion: CDDA 100%
  Signature: 902F205ECC5A7537F8B310838355258F57C56F75

1992 - Розовая Вода

Год издания диска: 1998
Издатель (лейбл): Никитин/Caravan Records
Номер по каталогу: ТФН-CD 72/04
Продолжительность: 00:46:45-Трек лист:

1. Я не умею
2. Харе Рама
3. Я ни кому не нужен
4. Филадельфия
5. Оптимист
6. Суицидальная попытка
7. Навозные мухи
8. Долой гопоту
9. Вдруг
10. Новая квартира
11. ПТУ
12. Спившийся парень
13. Вино по 1-60
14. Пэтэушник
15. Его убили в этой драке
16. Армия
17. Весна

Отчёт ЕАС:

Код:
Отчёт EAC об извлечении, выполненном 3. сентября 2007, 17:14 для диска:
Бригадный Подряд / Розовая Вода (не Hi-Fi)
Дисковод: TEAC DW-552GA Adapter: 2 ID: 1
Режим чтения: Достоверный (C2: нет, Точный поток: да, Отключение кэша: да)
Коррекция смещения при чтении: 6
Способность читать области Lead-in и Lead-out : Нет
Выходной формат: Внутренние WAV-операции
44.100 Гц; 16 бит; стерео
Другие параметры:
Заполнение пропущенных сэмплов тишиной : Да
Удаление блоков с тишиной в начале и конце : Нет
Установленный внешний ASPI-интерфейс
Характеристики диапазона извлечения и сообщения об ошибках
Выбранный диапазон
Имя файла F:\torrent\Brigadny Podryad\Rozovaya Voda 1998\Бригадный Подряд - Розовая Вода (не Hi-Fi).wav
Пиковый уровень 100.0 %
Качество диапазона 100.0 %
CRC 8742BCDA
Копирование... OK
Ошибок не произошло
Конец отчёта

Отчёт auCDtect Task manager:

Код:
DON'T MODIFY THIS FILE
-----------------------
PERFORMER: auCDtect Task Manager, ver. 1.6.0 RC1 build 1.6.0.1
Copyright (c) 2008-2010 y-soft. All rights reserved
http://y-soft.org
ANALYZER: auCDtect: CD records authenticity detector, version 0.8.2
Copyright (c) 2004 Oleg Berngardt. All rights reserved.
Copyright (c) 2004 Alexander Djourik. All rights reserved.
FILE: Бригадный Подряд - Розовая Вода (не Hi-Fi).ape
  Size: 270980756 Hash: 626D948F1371BAE677E584D636A93216 Accuracy: -m0
  Conclusion: MPEG 95%
  Signature: 33D3144978869225407009C715DD01AE09A15A9C

Спектрограмма

 

1997 - Худшее

Год издания диска: 1997
Издатель (лейбл): Никитин/Caravan Records
Номер по каталогу: ТФН-CD 73/04
Продолжительность: 00:45:56-Трек лист:

1. Идиот
2. Пивные моря
3. Кайф
4. Иван Факов
5. Нервы
6. Армия
7. Губы черные
8. Трипер
9. Трупы
10. Розовая вода
11. Либидо
12. Раба кокаина
13. Жизнь
14. Дурочка
15. Сын воды
16. Оптимист
17. Крыса

Отчёт ЕАС:

Код:
Отчёт EAC об извлечении, выполненном 3. сентября 2007, 17:24 для диска:
Бригадный Подряд / Худшее
Дисковод: TEAC DW-552GA Adapter: 2 ID: 1
Режим чтения: Достоверный (C2: нет, Точный поток: да, Отключение кэша: да)
Коррекция смещения при чтении: 6
Способность читать области Lead-in и Lead-out : Нет
Выходной формат: Внутренние WAV-операции
44.100 Гц; 16 бит; стерео
Другие параметры:
Заполнение пропущенных сэмплов тишиной : Да
Удаление блоков с тишиной в начале и конце : Нет
Установленный внешний ASPI-интерфейс
Характеристики диапазона извлечения и сообщения об ошибках
Выбранный диапазон
Имя файла F:\torrent\Brigadny Podryad\Hudshee 1997\Бригадный Подряд - Худшее.wav
Пиковый уровень 99.4 %
Качество диапазона 100.0 %
CRC 4891050B
Копирование... OK
Ошибок не произошло
Конец отчёта

Отчёт auCDtect Task manager:

Код:
DON'T MODIFY THIS FILE
-----------------------
PERFORMER: auCDtect Task Manager, ver. 1.6.0 RC1 build 1.6.0.1
Copyright (c) 2008-2010 y-soft. All rights reserved
http://y-soft.org
ANALYZER: auCDtect: CD records authenticity detector, version 0.8.2
Copyright (c) 2004 Oleg Berngardt. All rights reserved.
Copyright (c) 2004 Alexander Djourik. All rights reserved.
FILE: Бригадный Подряд - Худшее.ape
  Size: 291911884 Hash: 2939770BA9BC283829105CE51D1C867D Accuracy: -m0
  Conclusion: CDDA 100%
  Signature: 20555CF9741DC648CA2C44400AEDB483ED50D8A2

1999 - Реаниматоры

Год издания диска: 1999
Издатель (лейбл): Капкан
Номер по каталогу: КА-0015
Продолжительность: 00:39:35-Трек лист:

01 Кировский завод
02 Соловьи
03 Сенкевич
04 Человекое
05 Прогулка
06 Кобзон
07 Баден-Баден
08 Милое дело
09 Мясо
10 Органы
11 Серая сила
12 Новости
13 Не хочу
14 Щенки
15 Мордобой
16 IQ (Альтруист)
17 Интердева
18 Хорошо!
19 Космополит

Отчёт ЕАС:

Код:
Exact Audio Copy V0.99 prebeta 4 from 23. January 2008
Отчёт EAC об извлечении, выполненном 8. июля 2009, 12:11
Бригадный Подряд / Реаниматоры
Дисковод: LITE-ON DVDRW SOHW-1653S Adapter: 3 ID: 0
Режим чтения : Достоверность
Использование точного потока : Да
Отключение кэша аудио : Да
Использование указателей C2 : Нет
Коррекция смещения при чтении : 12
Способность читать области Lead-in и Lead-out : Нет
Заполнение пропущенных сэмплов тишиной : Да
Удаление блоков с тишиной в начале и конце : Нет
При вычислениях CRC использовались нулевые сэмплы : Да
Интерфейс : Установленный внешний ASPI-интерфейс
Выходной формат : Внутренние WAV-операции
Формат сэмплов : 44.100 Гц; 16 бит; стерео
TOC извлечённого CD
Трек | Старт | Длительность | Начальный сектор | Конечный сектор
---------------------------------------------------------------------
1 | 0:00.30 | 2:17.19 | 30 | 10323
2 | 2:17.49 | 2:34.46 | 10324 | 21919
3 | 4:52.20 | 2:13.50 | 21920 | 31944
4 | 7:05.70 | 2:15.60 | 31945 | 42129
5 | 9:21.55 | 1:35.60 | 42130 | 49314
6 | 10:57.40 | 3:14.54 | 49315 | 63918
7 | 14:12.19 | 2:40.13 | 63919 | 75931
8 | 16:52.32 | 2:03.17 | 75932 | 85173
9 | 18:55.49 | 1:41.66 | 85174 | 92814
10 | 20:37.40 | 1:52.28 | 92815 | 101242
11 | 22:29.68 | 2:02.10 | 101243 | 110402
12 | 24:32.03 | 1:44.50 | 110403 | 118252
13 | 26:16.53 | 1:54.07 | 118253 | 126809
14 | 28:10.60 | 1:59.34 | 126810 | 135768
15 | 30:10.19 | 2:15.32 | 135769 | 145925
16 | 32:25.51 | 2:06.46 | 145926 | 155421
17 | 34:32.22 | 1:44.10 | 155422 | 163231
18 | 36:16.32 | 1:20.69 | 163232 | 169300
19 | 37:37.26 | 1:57.47 | 169301 | 178122
Характеристики диапазона извлечения и сообщения об ошибках
Выбранный диапазон
Имя файла E:\Бригадный Подряд(lossless)\1999-Реаниматоры\Бригадный Подряд - Реаниматоры.wav
Пиковый уровень 93.7 %
Качество диапазона 100.0 %
CRC копии CEB7F8D9
Копирование... OK
Ошибок не произошло
Конец отчёта

Отчёт auCDtect Task manager:

Код:
DON'T MODIFY THIS FILE
-----------------------
PERFORMER: auCDtect Task Manager, ver. 1.6.0 RC1 build 1.6.0.1
Copyright (c) 2008-2010 y-soft. All rights reserved
http://y-soft.org
ANALYZER: auCDtect: CD records authenticity detector, version 0.8.2
Copyright (c) 2004 Oleg Berngardt. All rights reserved.
Copyright (c) 2004 Alexander Djourik. All rights reserved.
FILE: Бригадный Подряд - Реаниматоры.ape
  Size: 270646564 Hash: 3A9117B733EE0DC38CB866C7719C9E4D Accuracy: -m0
  Conclusion: MPEG 95%
  Signature: 2013512EE2057F9980553A651AF418E221BA2AEC

1999 - Сине-бело-голубой

Год издания диска: 1999
Издатель (лейбл): Никитин/Caravan Records
Номер по каталогу: ТФН-CD 70/04
Продолжительность: 00:30:11-Трек лист:

01 Фанат
02 Пивные моря
03 Жаба
04 Наркоманка
05 Пивные люди
06 Комиссар
07 Средство
08 Оптимист
09 Он
10 Пляж
11 Любовище

Отчёт ЕАС:

Код:
Exact Audio Copy V0.99 prebeta 4 from 23. January 2008
Отчёт EAC об извлечении, выполненном 8. июля 2009, 11:49
Бригадный Подряд / Сине-Белый-Голубой
Дисковод: LITE-ON DVDRW SOHW-1653S Adapter: 3 ID: 0
Режим чтения : Достоверность
Использование точного потока : Да
Отключение кэша аудио : Да
Использование указателей C2 : Нет
Коррекция смещения при чтении : 12
Способность читать области Lead-in и Lead-out : Нет
Заполнение пропущенных сэмплов тишиной : Да
Удаление блоков с тишиной в начале и конце : Нет
При вычислениях CRC использовались нулевые сэмплы : Да
Интерфейс : Установленный внешний ASPI-интерфейс
Выходной формат : Внутренние WAV-операции
Формат сэмплов : 44.100 Гц; 16 бит; стерео
TOC извлечённого CD
Трек | Старт | Длительность | Начальный сектор | Конечный сектор
---------------------------------------------------------------------
1 | 0:00.00 | 2:14.30 | 0 | 10079
2 | 2:14.30 | 2:17.39 | 10080 | 20393
3 | 4:31.69 | 2:12.22 | 20394 | 30315
4 | 6:44.16 | 2:51.06 | 30316 | 43146
5 | 9:35.22 | 2:40.57 | 43147 | 55203
6 | 12:16.04 | 2:13.71 | 55204 | 65249
7 | 14:30.00 | 3:42.50 | 65250 | 81949
8 | 18:12.50 | 3:41.27 | 81950 | 98551
9 | 21:54.02 | 2:41.05 | 98552 | 110631
10 | 24:35.07 | 3:04.27 | 110632 | 124458
11 | 27:39.34 | 2:31.28 | 124459 | 135811
Характеристики диапазона извлечения и сообщения об ошибках
Выбранный диапазон
Имя файла E:\Бригадный Подряд(lossless)\1999-Сине-бело-голубой\Бригадный Подряд - Сине-Белый-Голубой.wav
Пиковый уровень 91.5 %
Качество диапазона 100.0 %
CRC копии 3305893F
Копирование... OK
Ошибок не произошло
Конец отчёта

Отчёт auCDtect Task manager:

Код:
DON'T MODIFY THIS FILE
-----------------------
PERFORMER: auCDtect Task Manager, ver. 1.6.0 RC1 build 1.6.0.1
Copyright (c) 2008-2010 y-soft. All rights reserved
http://y-soft.org
ANALYZER: auCDtect: CD records authenticity detector, version 0.8.2
Copyright (c) 2004 Oleg Berngardt. All rights reserved.
Copyright (c) 2004 Alexander Djourik. All rights reserved.
FILE: Бригадный Подряд - Сине-Белый-Голубой.ape
  Size: 204485924 Hash: 36DDA07D77A528F4B61419E4F3882032 Accuracy: -m0
  Conclusion: CDDA 100%
  Signature: 8F6AD3812C555C6A328D95A36B3A5E38907C3541

2001 - Идиот

Год издания диска: 2001
Издатель (лейбл): S.O.S. Records/CD Land
Номер по каталогу: SOSCD-04-2001
Продолжительность: 00:23:58-Трек лист:

01 Школьное любовище
02 Кошка
03 Амундсен
04 Трезвость
05 Иван Факов
06 Мода полета
07 Наркоманка
08 Деньги
09 Идиот
10 Кошка II
11 Сынок
12 Чойболсан
13 Р.С.Б.М.

Отчёт ЕАС:

Код:
Exact Audio Copy V0.99 prebeta 4 from 23. January 2008
Отчёт EAC об извлечении, выполненном 8. июля 2009, 12:29
Бригадный Подряд / Идиот
Дисковод: LITE-ON DVDRW SOHW-1653S Adapter: 3 ID: 0
Режим чтения : Достоверность
Использование точного потока : Да
Отключение кэша аудио : Да
Использование указателей C2 : Нет
Коррекция смещения при чтении : 12
Способность читать области Lead-in и Lead-out : Нет
Заполнение пропущенных сэмплов тишиной : Да
Удаление блоков с тишиной в начале и конце : Нет
При вычислениях CRC использовались нулевые сэмплы : Да
Интерфейс : Установленный внешний ASPI-интерфейс
Выходной формат : Внутренние WAV-операции
Формат сэмплов : 44.100 Гц; 16 бит; стерео
TOC извлечённого CD
Трек | Старт | Длительность | Начальный сектор | Конечный сектор
---------------------------------------------------------------------
1 | 0:00.00 | 1:48.44 | 0 | 8143
2 | 1:48.44 | 1:10.24 | 8144 | 13417
3 | 2:58.68 | 2:11.19 | 13418 | 23261
4 | 5:10.12 | 1:05.06 | 23262 | 28142
5 | 6:15.18 | 3:49.70 | 28143 | 45387
6 | 10:05.13 | 2:20.74 | 45388 | 55961
7 | 12:26.12 | 1:21.47 | 55962 | 62083
8 | 13:47.59 | 1:58.22 | 62084 | 70955
9 | 15:46.06 | 2:15.11 | 70956 | 81091
10 | 18:01.17 | 1:22.36 | 81092 | 87277
11 | 19:23.53 | 1:48.46 | 87278 | 95423
12 | 21:12.24 | 1:22.05 | 95424 | 101578
13 | 22:34.29 | 1:23.67 | 101579 | 107870
Характеристики диапазона извлечения и сообщения об ошибках
Выбранный диапазон
Имя файла E:\Бригадный Подряд(lossless)\2001-Идиот\Бригадный Подряд - Идиот.wav
Пиковый уровень 99.9 %
Качество диапазона 100.0 %
CRC копии E6258233
Копирование... OK
Ошибок не произошло
Конец отчёта

Отчёт auCDtect Task manager:

Код:
DON'T MODIFY THIS FILE
-----------------------
PERFORMER: auCDtect Task Manager, ver. 1.6.0 RC1 build 1.6.0.1
Copyright (c) 2008-2010 y-soft. All rights reserved
http://y-soft.org
ANALYZER: auCDtect: CD records authenticity detector, version 0.8.2
Copyright (c) 2004 Oleg Berngardt. All rights reserved.
Copyright (c) 2004 Alexander Djourik. All rights reserved.
FILE: Бригадный Подряд - Идиот.ape
  Size: 169880564 Hash: 1235172339F56C06ADBAB9FE2770D43C Accuracy: -m0
  Conclusion: CDDA 100%
  Signature: 6D42EA7F17D65EE6392C8C13D1F4A65CE157D189

2003 - Насилие и секс

Год издания диска: 2003
Издатель (лейбл): SPARC
Номер по каталогу: CD-P 16
Продолжительность: 00:49:11-Трек лист:

1. Насилие и sex
2. Наши деньги
3. Счастье
4. Работа
5. Про это
6. Май
7. Попса
8. Любовь
9. Счастливое детсво
10. Новогодняя
11. Джеки Чан
12. Берегите мужа
13. Турыст /овир! овир! овир!/
14. После концерта
15. Тело
16. До свидания панк-рок

Отчёт ЕАС:

Код:
Отчёт EAC об извлечении, выполненном 3. сентября 2007, 15:51 для диска:
Бригадный Подряд / Насилие И Sex
Дисковод: TEAC DW-552GA Adapter: 2 ID: 1
Режим чтения: Достоверный (C2: нет, Точный поток: да, Отключение кэша: да)
Коррекция смещения при чтении: 6
Способность читать области Lead-in и Lead-out : Нет
Выходной формат: Внутренние WAV-операции
44.100 Гц; 16 бит; стерео
Другие параметры:
Заполнение пропущенных сэмплов тишиной : Да
Удаление блоков с тишиной в начале и конце : Нет
Установленный внешний ASPI-интерфейс
Характеристики диапазона извлечения и сообщения об ошибках
Выбранный диапазон
Имя файла F:\torrent\Brigadny Podryad\Nasilie I Sex 2002\Бригадный Подряд - Насилие И Sex.wav
Пиковый уровень 96.4 %
Качество диапазона 100.0 %
CRC 38C99772
Копирование... OK
Ошибок не произошло
Конец отчёта

Отчёт auCDtect Task manager:

Код:
DON'T MODIFY THIS FILE
-----------------------
PERFORMER: auCDtect Task Manager, ver. 1.6.0 RC1 build 1.6.0.1
Copyright (c) 2008-2010 y-soft. All rights reserved
http://y-soft.org
ANALYZER: auCDtect: CD records authenticity detector, version 0.8.2
Copyright (c) 2004 Oleg Berngardt. All rights reserved.
Copyright (c) 2004 Alexander Djourik. All rights reserved.
FILE: Бригадный Подряд - Насилие И Sex.ape
  Size: 339417652 Hash: B36C506C3FDFB2049D18F23C3E04F400 Accuracy: -m0
  Conclusion: CDDA 100%
  Signature: 16D1C46DE608F88160D6901C051DC71D2AE20834

2003 - ЗаеBest 1985 - 2003

Год издания диска: 2003
Издатель (лейбл): SPARC
Номер по каталогу: CD-P 15
Продолжительность: 01:15:54-Трек лист:

1. Ничего
2. Идиот
3. Кировский завод
4. Кошка
5. Деньги
6. Товарищи+наркоманка
7. Инвалид
8. Соловьи
9. Трезвость
10. Сенкевич
11. Скотина
12. Мордобой
13. Каждый человек
14. Я никому не нужен
15. Долой гопоту
16. Пиджак
17. Его убили...
18. Розовая вода
19. Нервы
20. Трипер
21. Трупы
22. Пивные моря
23. Б.Г.С.
24. Кошка-2
25. Иван Факов
26. Милое дело
27. Мясо
28. Серая сила
29. Насилие и секс
30. Попса
31. Новогодняя
32. Детство
33. После концерта
34. Кобзон
35. До свидания панк - рок!
36. Идиот

Отчёт ЕАС:

Код:
Отчёт EAC об извлечении, выполненном 3. сентября 2007, 16:40 для диска:
Бригадный подряд / ЗАЕ BEST
Дисковод: TEAC DW-552GA Adapter: 2 ID: 1
Режим чтения: Достоверный (C2: нет, Точный поток: да, Отключение кэша: да)
Коррекция смещения при чтении: 6
Способность читать области Lead-in и Lead-out : Нет
Выходной формат: Внутренние WAV-операции
44.100 Гц; 16 бит; стерео
Другие параметры:
Заполнение пропущенных сэмплов тишиной : Да
Удаление блоков с тишиной в начале и конце : Нет
Установленный внешний ASPI-интерфейс
Характеристики диапазона извлечения и сообщения об ошибках
Выбранный диапазон
Имя файла F:\torrent\Brigadny Podryad\ Zae Best 1985-2003\Бригадный подряд - ЗАЕ BEST.wav
Пиковый уровень 99.9 %
Качество диапазона 100.0 %
CRC 77205466
Копирование... OK
Ошибок не произошло
Конец отчёта

Отчёт auCDtect Task manager:

Код:
DON'T MODIFY THIS FILE
-----------------------
PERFORMER: auCDtect Task Manager, ver. 1.6.0 RC1 build 1.6.0.1
Copyright (c) 2008-2010 y-soft. All rights reserved
http://y-soft.org
ANALYZER: auCDtect: CD records authenticity detector, version 0.8.2
Copyright (c) 2004 Oleg Berngardt. All rights reserved.
Copyright (c) 2004 Alexander Djourik. All rights reserved.
FILE: Бригадный подряд - ЗАЕ BEST.ape
  Size: 533347472 Hash: D9D854D51EEADC4E02A842046BB7BF44 Accuracy: -m0
  Conclusion: CDDA 100%
  Signature: 582934FF0F444A330EECC854801C0B96067C5682

2004 - Красота сожрёт мир

Год издания диска: 2004
Издатель (лейбл): Неизвестно
Номер по каталогу: Неизвестно
Продолжительность: 00:27:57-Трек лист:

01-Мы идём грабить банк
02-Она
03-Мальчики и девочки
04-Депутат
05-Пустите меня в космос
06 Порно
07-Красота сожрёт мир
08- Песня О Неуважении К Собственной Личности
09-Парарурап
10-Президент

Отчёт ЕАС:

Код:
Отчёт EAC об извлечении, выполненном 31. августа 2007, 22:41 для диска:
Бригадный подряд / Красота сожрет мир
Дисковод: HL-DT-STDVD-ROM GDR8164B Adapter: 0 ID: 1
Режим чтения: Достоверный (C2: нет, Точный поток: да, Отключение кэша: да)
Коррекция смещения при чтении: 112
Способность читать области Lead-in и Lead-out : Нет
Выходной формат: Внутренние WAV-операции
44.100 Гц; 16 бит; стерео
Другие параметры:
Заполнение пропущенных сэмплов тишиной : Да
Удаление блоков с тишиной в начале и конце : Нет
Встроенный Win32-интерфейс для Win NT/2000
Характеристики диапазона извлечения и сообщения об ошибках
Выбранный диапазон
Имя файла J:\Подряд\Красота\Бригадный подряд - Красота сожрет мир.wav
Пиковый уровень 100.0 %
Качество диапазона 100.0 %
CRC 4ACCF954
Копирование... OK
Ошибок не произошло
Конец отчёта

Отчёт auCDtect Task manager:

Код:
DON'T MODIFY THIS FILE
-----------------------
PERFORMER: auCDtect Task Manager, ver. 1.6.0 RC1 build 1.6.0.1
Copyright (c) 2008-2010 y-soft. All rights reserved
http://y-soft.org
ANALYZER: auCDtect: CD records authenticity detector, version 0.8.2
Copyright (c) 2004 Oleg Berngardt. All rights reserved.
Copyright (c) 2004 Alexander Djourik. All rights reserved.
FILE: Бригадный подряд - Красота сожрет мир.ape
  Size: 208775200 Hash: BC7A00706B18EEF5AEE4072D91208166 Accuracy: -m0
  Conclusion: CDDA 100%
  Signature: 457A9726CA4FB1AED51C94ED7CD5BB73AC5D26EA

2004 - The Best

Год издания диска: 2004
Издатель (лейбл): Никитин
Номер по каталогу: ТФН-CD 296/05
Продолжительность: 00:46:38-Трек лист:

01-Парарурап
02-Кировский завод
03-Деньги
04-Долой, гопоту!
05-Красота сожрёт этот мир
06-Фанат
07-Кошечка
08-Мы идём грабить банк
09-Иван факов
10-Идиот
11-Новая квартира
12-Либидо
13-Она
14-Оптимист
15-Мама-инвалид
16-Жизнь
17-Мальчики и девочки
18-Розовая вода

Отчёт ЕАС:

Код:
Exact Audio Copy V0.99 prebeta 4 from 23. January 2008
Отчёт EAC об извлечении, выполненном 8. июля 2009, 12:52
Бригадный подряд / Best 1986-2004
Дисковод: LITE-ON DVDRW SOHW-1653S Adapter: 3 ID: 0
Режим чтения : Достоверность
Использование точного потока : Да
Отключение кэша аудио : Да
Использование указателей C2 : Нет
Коррекция смещения при чтении : 12
Способность читать области Lead-in и Lead-out : Нет
Заполнение пропущенных сэмплов тишиной : Да
Удаление блоков с тишиной в начале и конце : Нет
При вычислениях CRC использовались нулевые сэмплы : Да
Интерфейс : Установленный внешний ASPI-интерфейс
Выходной формат : Внутренние WAV-операции
Формат сэмплов : 44.100 Гц; 16 бит; стерео
TOC извлечённого CD
Трек | Старт | Длительность | Начальный сектор | Конечный сектор
---------------------------------------------------------------------
1 | 0:00.00 | 2:32.48 | 0 | 11447
2 | 2:32.48 | 2:07.44 | 11448 | 21016
3 | 4:40.17 | 1:47.36 | 21017 | 29077
4 | 6:27.53 | 3:01.40 | 29078 | 42692
5 | 9:29.18 | 3:44.49 | 42693 | 59541
6 | 13:13.67 | 2:11.69 | 59542 | 69435
7 | 15:25.61 | 1:06.23 | 69436 | 74408
8 | 16:32.09 | 2:27.60 | 74409 | 85493
9 | 18:59.69 | 3:30.70 | 85494 | 101313
10 | 22:30.64 | 2:32.47 | 101314 | 112760
11 | 25:03.36 | 2:31.00 | 112761 | 124085
12 | 27:34.36 | 2:59.50 | 124086 | 137560
13 | 30:34.11 | 2:57.59 | 137561 | 150894
14 | 33:31.70 | 3:38.09 | 150895 | 167253
15 | 37:10.04 | 1:28.24 | 167254 | 173877
16 | 38:38.28 | 2:42.31 | 173878 | 186058
17 | 41:20.59 | 3:01.66 | 186059 | 199699
18 | 44:22.50 | 2:14.67 | 199700 | 209816
Характеристики диапазона извлечения и сообщения об ошибках
Выбранный диапазон
Имя файла E:\Бригадный Подряд(lossless)\2004-The Best\Бригадный подряд - Best 1986-2004.wav
Пиковый уровень 96.6 %
Качество диапазона 100.0 %
CRC копии FFE73AB6
Копирование... OK
Ошибок не произошло
Конец отчёта

Отчёт auCDtect Task manager:

Код:
DON'T MODIFY THIS FILE
-----------------------
PERFORMER: auCDtect Task Manager, ver. 1.6.0 RC1 build 1.6.0.1
Copyright (c) 2008-2010 y-soft. All rights reserved
http://y-soft.org
ANALYZER: auCDtect: CD records authenticity detector, version 0.8.2
Copyright (c) 2004 Oleg Berngardt. All rights reserved.
Copyright (c) 2004 Alexander Djourik. All rights reserved.
FILE: Бригадный подряд - Красота сожрет мир.ape
  Size: 208775200 Hash: BC7A00706B18EEF5AEE4072D91208166 Accuracy: -m0
  Conclusion: CDDA 100%
  Signature: 457A9726CA4FB1AED51C94ED7CD5BB73AC5D26EA

2005 - Лови настроение рок-н-ролл

Год издания диска: 2005
Издатель (лейбл): Неизвестно
Номер по каталогу: Неизвестно
Продолжительность: 00:47:38-Трек лист:

1. Парарурап (2:30)
2. Новая квартира (2:30)
3. Фанат (2:10)
4. Мы идем грабить банк (2:26)
5. Идиот (2:29)
6. Песня о неуважении к собстве.. (2:18)
7. Красота сожрет мир (3:42)
8. Либидо (2:57)
9. Оптимист (3:36)
10. Иван Факов (3:29)
11. Мальчики и девочки (3:00)
12. Она (2:55)
13. Розовая вода (2:10)
14. Кировский завод (2:07)
15. Деньги (1:47)
16. Жизнь (2:40)
17. Долой гопоту! (3:01)
18. Президент (1:41)

Отчёт ЕАС:

Код:
Отчёт EAC об извлечении, выполненном 31. августа 2007, 22:51 для диска:
Бригадный подряд / Лови настроение рок-н-ролл
Дисковод: HL-DT-STDVD-ROM GDR8164B Adapter: 0 ID: 1
Режим чтения: Достоверный (C2: нет, Точный поток: да, Отключение кэша: да)
Коррекция смещения при чтении: 112
Способность читать области Lead-in и Lead-out : Нет
Выходной формат: Внутренние WAV-операции
44.100 Гц; 16 бит; стерео
Другие параметры:
Заполнение пропущенных сэмплов тишиной : Да
Удаление блоков с тишиной в начале и конце : Нет
Встроенный Win32-интерфейс для Win NT/2000
Характеристики диапазона извлечения и сообщения об ошибках
Выбранный диапазон
Имя файла J:\Подряд\Настроение\Бригадный подряд - Лови настроение рок-н-ролл.wav
Пиковый уровень 94.7 %
Качество диапазона 99.9 %
CRC ED0C0B37
Копирование... OK
Ошибок не произошло
Конец отчёта

Отчёт auCDtect Task manager:

Код:
DON'T MODIFY THIS FILE
-----------------------
PERFORMER: auCDtect Task Manager, ver. 1.6.0 RC1 build 1.6.0.1
Copyright (c) 2008-2010 y-soft. All rights reserved
http://y-soft.org
ANALYZER: auCDtect: CD records authenticity detector, version 0.8.2
Copyright (c) 2004 Oleg Berngardt. All rights reserved.
Copyright (c) 2004 Alexander Djourik. All rights reserved.
FILE: Бригадный подряд - Лови настроение рок-н-ролл.ape
  Size: 303559140 Hash: 490E9DB7880B06DEEB8F8638C78C9819 Accuracy: -m0
  Conclusion: CDDA 100%
  Signature: 9E399772FABF2A92F3DB8E82344D392445D65E77

2006 - Так не должно быть

Год издания диска: 2006
Издатель (лейбл): Никитин
Номер по каталогу: ТФН-CD 435/06
Продолжительность: 00:33:05-Трек лист:

01-Голубь
02-Идиот 2006
03-Уроки панк-рока
04-Врач
05-20 бравых ребят
06-Пьяный
07-С.Н.Г.
08-Мне
09-Читая Гоголя
10-Мослы
11-Больной
12-Как то раз

Отчёт ЕАС:

Код:
Exact Audio Copy V0.99 prebeta 4 from 23. January 2008
Отчёт EAC об извлечении, выполненном 8. июля 2009, 13:19
Бригадный Подряд / Так Не Должно Быть
Дисковод: LITE-ON DVDRW SOHW-1653S Adapter: 3 ID: 0
Режим чтения : Достоверность
Использование точного потока : Да
Отключение кэша аудио : Да
Использование указателей C2 : Нет
Коррекция смещения при чтении : 12
Способность читать области Lead-in и Lead-out : Нет
Заполнение пропущенных сэмплов тишиной : Да
Удаление блоков с тишиной в начале и конце : Нет
При вычислениях CRC использовались нулевые сэмплы : Да
Интерфейс : Установленный внешний ASPI-интерфейс
Выходной формат : Внутренние WAV-операции
Формат сэмплов : 44.100 Гц; 16 бит; стерео
TOC извлечённого CD
Трек | Старт | Длительность | Начальный сектор | Конечный сектор
---------------------------------------------------------------------
1 | 0:00.00 | 5:22.60 | 0 | 24209
2 | 5:22.60 | 0:30.14 | 24210 | 26473
3 | 5:52.74 | 3:25.05 | 26474 | 41853
4 | 9:18.04 | 2:45.40 | 41854 | 54268
5 | 12:03.44 | 2:12.35 | 54269 | 64203
6 | 14:16.04 | 3:32.07 | 64204 | 80110
7 | 17:48.11 | 2:31.34 | 80111 | 91469
8 | 20:19.45 | 2:35.49 | 91470 | 103143
9 | 22:55.19 | 2:16.24 | 103144 | 113367
10 | 25:11.43 | 2:18.00 | 113368 | 123717
11 | 27:29.43 | 2:17.02 | 123718 | 133994
12 | 29:46.45 | 3:18.65 | 133995 | 148909
Характеристики диапазона извлечения и сообщения об ошибках
Выбранный диапазон
Имя файла E:\Бригадный Подряд(lossless)\2006-Так не должно быть\Бригадный Подряд - Так Не Должно Быть.wav
Пиковый уровень 100.0 %
Качество диапазона 100.0 %
CRC копии 364AD6B3
Копирование... OK
Ошибок не произошло
Конец отчёта

Отчёт auCDtect Task manager:

Код:
DON'T MODIFY THIS FILE
-----------------------
PERFORMER: auCDtect Task Manager, ver. 1.6.0 RC1 build 1.6.0.1
Copyright (c) 2008-2010 y-soft. All rights reserved
http://y-soft.org
ANALYZER: auCDtect: CD records authenticity detector, version 0.8.2
Copyright (c) 2004 Oleg Berngardt. All rights reserved.
Copyright (c) 2004 Alexander Djourik. All rights reserved.
FILE: Бригадный Подряд - Так Не Должно Быть.ape
  Size: 232464108 Hash: 067225F33918213B960D71D6CD43F940 Accuracy: -m0
  Conclusion: CDDA 100%
  Signature: 5472FD2A66B5C1366AC03EC23783D3ABAE0DA8F4

2007 - Никакой Правды

Год издания диска: 2007
Издатель (лейбл): Неизвестно
Номер по каталогу: Неизвестно
Продолжительность: 00:41:57-Трек лист:

1 Песня геолога
2 Скамейка
3 Веселиться, танцевать
4 Детская (Веточка кленовая)
5 Грин Дей, Рамон и Пистолет
6 Рив Гош
7 Все, что нам дается
8 Кем я стал?
9 Турция (300 баксов олл инклюзив)
10 Новогодняя-2
11 Чугунка
12 Маленькая девочка
13 Песня о неуважении к собственной личности
15 Корабли
16 Висилиццо - танцевать (ремикс)

Отчёт ЕАС:

Код:
Отчёт EAC об извлечении, выполненном 20. ноября 2007, 19:49 для диска:
Бригадный подряд / Никакой правды
Дисковод: Optiarc DVD RW AD-7170A Adapter: 0 ID: 0
Режим чтения: Достоверный (C2: нет, Точный поток: да, Отключение кэша: да)
Коррекция смещения при чтении: 48
Способность читать области Lead-in и Lead-out : Нет
Выходной формат: Monkey's Audio Lossless Encoder v3.99 DLL
Normal Lossless Compression
Другие параметры:
Заполнение пропущенных сэмплов тишиной : Да
Удаление блоков с тишиной в начале и конце : Нет
Встроенный Win32-интерфейс для Win NT/2000
Характеристики диапазона извлечения и сообщения об ошибках
Выбранный диапазон
Имя файла D:\Звук\Музыка\Бригадный Подряд\Бригадный подряд - Никакой правды\Бригадный подряд - Никакой правды.ape
Пиковый уровень 100.0 %
Качество диапазона 100.0 %
CRC 6F73E4FD
Копирование... OK
Ошибок не произошло
Конец отчёта

Отчёт auCDtect Task manager:

Код:
DON'T MODIFY THIS FILE
-----------------------
PERFORMER: auCDtect Task Manager, ver. 1.6.0 RC1 build 1.6.0.1
Copyright (c) 2008-2010 y-soft. All rights reserved
http://y-soft.org
ANALYZER: auCDtect: CD records authenticity detector, version 0.8.2
Copyright (c) 2004 Oleg Berngardt. All rights reserved.
Copyright (c) 2004 Alexander Djourik. All rights reserved.
FILE: Бригадный подряд - Никакой правды.ape
  Size: 276103713 Hash: 9A72BA41C74ABFC32D44E62853408F5D Accuracy: -m0
  Conclusion: CDDA 100%
  Signature: A00A69E771A30F2557E8BA1DE1BCF1CECF3F3AFA

2009 - Звёзды На Льду(single)

Год издания диска: 2009
Издатель (лейбл): DDT-Records
Номер по каталогу: Неизвестно
Продолжительность: 00:10:00-Трек лист:

01. Ксенофобия
02. Звезды на льду
03. SonG3
04. Ветераны третьей мировой

Отчёт ЕАС:

Код:
Exact Audio Copy V0.99 prebeta 4 from 23. January 2008
Отчёт EAC об извлечении, выполненном 21. октября 2009, 10:55
Бригадный подряд / Звёзды на льду
Дисковод: TSSTcorpCDDVDW SH-S203D Adapter: 0 ID: 1
Режим чтения : Достоверность
Использование точного потока : Да
Отключение кэша аудио : Да
Использование указателей C2 : Нет
Коррекция смещения при чтении : 6
Способность читать области Lead-in и Lead-out : Нет
Заполнение пропущенных сэмплов тишиной : Да
Удаление блоков с тишиной в начале и конце : Нет
При вычислениях CRC использовались нулевые сэмплы : Да
Интерфейс : Установленный внешний ASPI-интерфейс
Выходной формат : Внутренние WAV-операции
Формат сэмплов : 44.100 Гц; 16 бит; стерео
TOC извлечённого CD
Трек | Старт | Длительность | Начальный сектор | Конечный сектор
---------------------------------------------------------------------
1 | 0:00.00 | 1:49.64 | 0 | 8238
2 | 1:49.64 | 2:40.06 | 8239 | 20244
3 | 4:29.70 | 2:36.54 | 20245 | 31998
4 | 7:06.49 | 2:53.59 | 31999 | 45032
Характеристики диапазона извлечения и сообщения об ошибках
Выбранный диапазон
Имя файла C:\Бригадный подряд - Звёзды на льду.wav
Пиковый уровень 100.0 %
Качество диапазона 100.0 %
CRC копии 809336E2
Копирование... OK
Ошибок не произошло
AccurateRip: сводка
Трек 1 нет в базе данных
Трек 2 нет в базе данных
Трек 3 нет в базе данных
Трек 4 нет в базе данных
Ни одного трека нет в базе AccurateRip
Конец отчёта

Отчёт auCDtect Task manager:

Код:
DON'T MODIFY THIS FILE
-----------------------
PERFORMER: auCDtect Task Manager, ver. 1.6.0 RC1 build 1.6.0.1
Copyright (c) 2008-2010 y-soft. All rights reserved
http://y-soft.org
ANALYZER: auCDtect: CD records authenticity detector, version 0.8.2
Copyright (c) 2004 Oleg Berngardt. All rights reserved.
Copyright (c) 2004 Alexander Djourik. All rights reserved.
FILE: Бригадный подряд - Звёзды на льду.ape
  Size: 71462604 Hash: 8801945136F1F4E47D06432B9A982A0E Accuracy: -m0
  Conclusion: CDDA 100%
  Signature: 947D362C0232EFCF1C4690705224A830874814E0

2010 - XXIV Отчёт live

Год издания диска: 2010
Издатель (лейбл): RP-Studio
Номер по каталогу: Неизвестно
Продолжительность: 01:03:35-Трек лист:

1. Веселиться-Танцевать
2. Скамейка
3. Школьное Любовище
4. Жизнь
5. Вот Он Я
6. Па-Ра-Ру-Рап
7. Гриндей
8. Насилье И Секс
9. Банк
10. Валенки
11. Турция
12. Соловьи
13. Красота
14. Рив-Гош
15. Ветераны
16. Кировский Завод
17. Я Хочу И То И Это
18. Веточка Кленовая
19. Мясо
20. Новогодняя
21. Идиот
22. Мода Полёта
23. Иван Факов
24. Уроки Панк-Рока

Отчёт ЕАС:

Код:
Exact Audio Copy V0.99 prebeta 4 from 23. January 2008
Отчёт EAC об извлечении, выполненном 26. октября 2011, 0:01
Бригадный Подряд / Отчёт XXIV (Live)
Дисковод: Optiarc DVD RW AD-5240S Adapter: 3 ID: 0
Режим чтения : Достоверность
Использование точного потока : Да
Отключение кэша аудио : Да
Использование указателей C2 : Нет
Коррекция смещения при чтении : 48
Способность читать области Lead-in и Lead-out : Нет
Заполнение пропущенных сэмплов тишиной : Да
Удаление блоков с тишиной в начале и конце : Нет
При вычислениях CRC использовались нулевые сэмплы : Да
Интерфейс : Встроенный Win32-интерфейс для Win NT/2000
Выходной формат : Внутренние WAV-операции
Формат сэмплов : 44.100 Гц; 16 бит; стерео
Смещение при сжатии : 48
TOC извлечённого CD
Трек | Старт | Длительность | Начальный сектор | Конечный сектор
---------------------------------------------------------------------
1 | 0:00.00 | 2:51.14 | 0 | 12838
2 | 2:51.14 | 2:02.21 | 12839 | 22009
3 | 4:53.35 | 1:34.73 | 22010 | 29132
4 | 6:28.33 | 2:22.16 | 29133 | 39798
5 | 8:50.49 | 2:40.22 | 39799 | 51820
6 | 11:30.71 | 2:19.20 | 51821 | 62265
7 | 13:50.16 | 2:00.30 | 62266 | 71295
8 | 15:50.46 | 2:13.01 | 71296 | 81271
9 | 18:03.47 | 2:18.32 | 81272 | 91653
10 | 20:22.04 | 2:03.47 | 91654 | 100925
11 | 22:25.51 | 2:43.02 | 100926 | 113152
12 | 25:08.53 | 2:55.11 | 113153 | 126288
13 | 28:03.64 | 3:43.57 | 126289 | 143070
14 | 31:47.46 | 3:31.69 | 143071 | 158964
15 | 35:19.40 | 2:55.67 | 158965 | 172156
16 | 38:15.32 | 2:13.35 | 172157 | 182166
17 | 40:28.67 | 2:42.61 | 182167 | 194377
18 | 43:11.53 | 3:22.19 | 194378 | 209546
19 | 46:33.72 | 1:45.71 | 209547 | 217492
20 | 48:19.68 | 2:41.64 | 217493 | 229631
21 | 51:01.57 | 2:09.19 | 229632 | 239325
22 | 53:11.01 | 2:39.66 | 239326 | 251316
23 | 55:50.67 | 4:40.52 | 251317 | 272368
24 | 60:31.44 | 3:03.57 | 272369 | 286150
Характеристики диапазона извлечения и сообщения об ошибках
Выбранный диапазон
Имя файла J:\бп\Бригадный Подряд - Отчёт XXIV (Live).wav
Подозрительная позиция 0:43:36
Подозрительная позиция 0:49:21
Пиковый уровень 96.2 %
Качество диапазона 99.8 %
CRC копии 33701AA0
Копирование завершено
Были ошибки
Конец отчёта

Отчёт auCDtect Task manager:

Код:
DON'T MODIFY THIS FILE
-----------------------
PERFORMER: auCDtect Task Manager, ver. 1.6.0 RC1 build 1.6.0.1
Copyright (c) 2008-2010 y-soft. All rights reserved
http://y-soft.org
ANALYZER: auCDtect: CD records authenticity detector, version 0.8.2
Copyright (c) 2004 Oleg Berngardt. All rights reserved.
Copyright (c) 2004 Alexander Djourik. All rights reserved.
FILE: Бригадный Подряд - Отчёт XXIV (Live).ape
  Size: 438736808 Hash: 467EC260530B07CF0D817962B6E5AE69 Accuracy: -m0
  Conclusion: CDDA 100%
  Signature: 34AF82EF05A5D0E8A0CCE97224E2C5A9687BAB9D

2011 - Cтрана Возможностей

Год издания диска: 2011
Издатель (лейбл): Неизвестно
Номер по каталогу: Неизвестно
Продолжительность: 00:29:25-Трек лист:

01. Вот он я
02. Джентельмен удачи
03. Страна возможностей
04. Проклятый панк-рок
05. Гений
06. Не гасите свет
07. Выпускной
08. Song3
09. Всерьёз
10. Это время
11. Никто не знает

Отчёт ЕАС:

Код:
Exact Audio Copy V0.99 prebeta 4 from 23. January 2008
Отчёт EAC об извлечении, выполненном 25. октября 2011, 0:11
Бригадный Подряд / Страна Возможностей
Дисковод: Optiarc DVD RW AD-5240S Adapter: 3 ID: 0
Режим чтения : Достоверность
Использование точного потока : Да
Отключение кэша аудио : Да
Использование указателей C2 : Нет
Коррекция смещения при чтении : 48
Способность читать области Lead-in и Lead-out : Нет
Заполнение пропущенных сэмплов тишиной : Да
Удаление блоков с тишиной в начале и конце : Нет
При вычислениях CRC использовались нулевые сэмплы : Да
Интерфейс : Встроенный Win32-интерфейс для Win NT/2000
Выходной формат : Внутренние WAV-операции
Формат сэмплов : 44.100 Гц; 16 бит; стерео
Смещение при сжатии : 48
TOC извлечённого CD
Трек | Старт | Длительность | Начальный сектор | Конечный сектор
---------------------------------------------------------------------
1 | 0:00.00 | 2:39.32 | 0 | 11956
2 | 2:39.32 | 1:44.72 | 11957 | 19828
3 | 4:24.29 | 3:03.21 | 19829 | 33574
4 | 7:27.50 | 2:10.71 | 33575 | 43395
5 | 9:38.46 | 3:12.27 | 43396 | 57822
6 | 12:50.73 | 2:38.44 | 57823 | 69716
7 | 15:29.42 | 2:55.45 | 69717 | 82886
8 | 18:25.12 | 2:36.20 | 82887 | 94606
9 | 21:01.32 | 2:06.35 | 94607 | 104091
10 | 23:07.67 | 2:20.18 | 104092 | 114609
11 | 25:28.10 | 3:56.64 | 114610 | 132373
Характеристики диапазона извлечения и сообщения об ошибках
Выбранный диапазон
Имя файла E:\05-Save\Бригадный Подряд - Страна Возможностей.wav
Пиковый уровень 97.7 %
Качество диапазона 100.0 %
CRC теста FFA49FF4
CRC копии FFA49FF4
Копирование... OK
Ошибок не произошло
Конец отчёта

Отчёт auCDtect Task manager:

Код:
DON'T MODIFY THIS FILE
-----------------------
PERFORMER: auCDtect Task Manager, ver. 1.6.0 RC1 build 1.6.0.1
Copyright (c) 2008-2010 y-soft. All rights reserved
http://y-soft.org
ANALYZER: auCDtect: CD records authenticity detector, version 0.8.2
Copyright (c) 2004 Oleg Berngardt. All rights reserved.
Copyright (c) 2004 Alexander Djourik. All rights reserved.
FILE: Бригадный Подряд - Страна Возможностей.ape
  Size: 225544008 Hash: D3799CF5D72FD38CEC9303771A052901 Accuracy: -m0
  Conclusion: CDDA 100%
  Signature: F693CB20B4B37DF49E05EDE58D0C639C69C9A94D

Переиздания

1992 - Розовая Вода(Не HI-FI)

Год издания диска: 2008
Издатель (лейбл): Никитин
Номер по каталогу: ТФН-CD 517/08
Продолжительность: 00:46:45-Трек лист:

1. Я не умею
2. Харе Рама
3. Я ни кому не нужен
4. Филадельфия
5. Оптимист
6. Суицидальная попытка
7. Навозные мухи
8. Долой гопоту
9. Вдруг
10. Новая квартира
11. ПТУ
12. Спившийся парень
13. Вино по 1-60
14. Пэтэушник
15. Его убили в этой драке
16. Армия
17. Весна

Отчёт ЕАС:

Код:
Exact Audio Copy V0.99 prebeta 4 from 23. January 2008
Отчёт EAC об извлечении, выполненном 21. февраля 2009, 20:22
Бригадный Подряд / Розовая Вода (не Hi-Fi)
Дисковод: LITE-ON DVDRW SOHW-1653S Adapter: 3 ID: 0
Режим чтения : Достоверность
Использование точного потока : Да
Отключение кэша аудио : Да
Использование указателей C2 : Нет
Коррекция смещения при чтении : 12
Способность читать области Lead-in и Lead-out : Нет
Заполнение пропущенных сэмплов тишиной : Да
Удаление блоков с тишиной в начале и конце : Нет
При вычислениях CRC использовались нулевые сэмплы : Да
Интерфейс : Встроенный Win32-интерфейс для Win NT/2000
Выходной формат : Внутренние WAV-операции
Формат сэмплов : 44.100 Гц; 16 бит; стерео
TOC извлечённого CD
Трек | Старт | Длительность | Начальный сектор | Конечный сектор
---------------------------------------------------------------------
1 | 0:00.00 | 3:23.67 | 0 | 15291
2 | 3:23.67 | 2:28.56 | 15292 | 26447
3 | 5:52.48 | 2:52.65 | 26448 | 39412
4 | 8:45.38 | 2:45.31 | 39413 | 51818
5 | 11:30.69 | 4:12.05 | 51819 | 70723
6 | 15:42.74 | 2:13.41 | 70724 | 80739
7 | 17:56.40 | 3:13.48 | 80740 | 95262
8 | 21:10.13 | 3:03.41 | 95263 | 109028
9 | 24:13.54 | 2:08.40 | 109029 | 118668
10 | 26:22.19 | 2:33.01 | 118669 | 130144
11 | 28:55.20 | 1:59.31 | 130145 | 139100
12 | 30:54.51 | 2:52.54 | 139101 | 152054
13 | 33:47.30 | 2:20.42 | 152055 | 162596
14 | 36:07.72 | 2:49.62 | 162597 | 175333
15 | 38:57.59 | 2:40.01 | 175334 | 187334
16 | 41:37.60 | 2:28.25 | 187335 | 198459
17 | 44:06.10 | 2:39.01 | 198460 | 210385
Характеристики диапазона извлечения и сообщения об ошибках
Выбранный диапазон
Имя файла E:\Бригадный Подряд - Розовая Вода (не Hi-Fi).wav
Пиковый уровень 100.0 %
Качество диапазона 100.0 %
CRC копии 669DEDB9
Копирование... OK
Ошибок не произошло
Конец отчёта

Отчёт auCDtect Task manager:

Код:
DON'T MODIFY THIS FILE
-----------------------
PERFORMER: auCDtect Task Manager, ver. 1.6.0 RC1 build 1.6.0.1
Copyright (c) 2008-2010 y-soft. All rights reserved
http://y-soft.org
ANALYZER: auCDtect: CD records authenticity detector, version 0.8.2
Copyright (c) 2004 Oleg Berngardt. All rights reserved.
Copyright (c) 2004 Alexander Djourik. All rights reserved.
FILE: Бригадный Подряд - Розовая Вода (не Hi-Fi).ape
  Size: 278478612 Hash: 2A184E4533F39D49A23135F15FF063D8 Accuracy: -m0
  Conclusion: MPEG 95%
  Signature: 82E486C256F7BB14D9913FD5364CC9F39F0D9E99

Спектрограмма

 

1997 - Худшее

Год издания диска: 2008
Издатель (лейбл): Никитин
Номер по каталогу: ТФН-CD 518/08
Продолжительность: 00:45:56-Трек лист:

1. Идиот
2. Пивные моря
3. Кайф
4. Иван Факов
5. Нервы
6. Армия
7. Губы черные
8. Трипер
9. Трупы
10. Розовая вода
11. Либидо
12. Раба кокаина
13. Жизнь
14. Дурочка
15. Сын воды
16. Оптимист
17. Крыса

Отчёт ЕАС:

Код:
Exact Audio Copy V0.99 prebeta 4 from 23. January 2008
Отчёт EAC об извлечении, выполненном 21. февраля 2009, 19:39
Бригадный Подряд / худшее
Дисковод: LITE-ON DVDRW SOHW-1653S Adapter: 3 ID: 0
Режим чтения : Достоверность
Использование точного потока : Да
Отключение кэша аудио : Да
Использование указателей C2 : Нет
Коррекция смещения при чтении : 12
Способность читать области Lead-in и Lead-out : Нет
Заполнение пропущенных сэмплов тишиной : Да
Удаление блоков с тишиной в начале и конце : Нет
При вычислениях CRC использовались нулевые сэмплы : Да
Интерфейс : Встроенный Win32-интерфейс для Win NT/2000
Выходной формат : Внутренние WAV-операции
Формат сэмплов : 44.100 Гц; 16 бит; стерео
TOC извлечённого CD
Трек | Старт | Длительность | Начальный сектор | Конечный сектор
---------------------------------------------------------------------
1 | 0:00.00 | 2:39.25 | 0 | 11949
2 | 2:39.25 | 2:18.62 | 11950 | 22361
3 | 4:58.12 | 2:07.59 | 22362 | 31945
4 | 7:05.71 | 3:33.32 | 31946 | 47952
5 | 10:39.28 | 2:05.25 | 47953 | 57352
6 | 12:44.53 | 2:04.24 | 57353 | 66676
7 | 14:49.02 | 2:19.39 | 66677 | 77140
8 | 17:08.41 | 2:24.37 | 77141 | 87977
9 | 19:33.03 | 2:35.13 | 87978 | 99615
10 | 22:08.16 | 2:16.15 | 99616 | 109830
11 | 24:24.31 | 3:01.25 | 109831 | 123430
12 | 27:25.56 | 2:34.47 | 123431 | 135027
13 | 30:00.28 | 2:44.66 | 135028 | 147393
14 | 32:45.19 | 2:26.44 | 147394 | 158387
15 | 35:11.63 | 2:53.65 | 158388 | 171427
16 | 38:05.53 | 3:39.73 | 171428 | 187925
17 | 41:45.51 | 4:10.11 | 187926 | 206686
Характеристики диапазона извлечения и сообщения об ошибках
Выбранный диапазон
Имя файла E:\Бригадный Подряд - худшее.wav
Пиковый уровень 99.4 %
Качество диапазона 100.0 %
CRC копии 4CD4B923
Копирование... OK
Ошибок не произошло
Конец отчёта

Отчёт auCDtect Task manager:

Код:
DON'T MODIFY THIS FILE
-----------------------
PERFORMER: auCDtect Task Manager, ver. 1.6.0 RC1 build 1.6.0.1
Copyright (c) 2008-2010 y-soft. All rights reserved
http://y-soft.org
ANALYZER: auCDtect: CD records authenticity detector, version 0.8.2
Copyright (c) 2004 Oleg Berngardt. All rights reserved.
Copyright (c) 2004 Alexander Djourik. All rights reserved.
FILE: Бригадный Подряд - худшее.ape
  Size: 293386324 Hash: 82778DBE3D0556E3274EC75E178F9E62 Accuracy: -m0
  Conclusion: CDDA 100%
  Signature: 0F1398FF80E79A61C279AFC1D834C913D01A23D7

1997 - Партсъезд

Год издания диска: 2008
Издатель (лейбл): Никитин
Номер по каталогу: ТФН-CD 522/08
Продолжительность: 00:53:21-Трек лист:

1. Идиот
2. Трезвость
3. Партсъезд
4. Колыбельная
5. Мама-инвалид
6. Режь серп, бей молот
7. Кошка
8. Мослы
9. Деньги
10. Товарищи
11. Война для Воинов
12. IQ
13. Прогулка
14. Не хочу
15. Щенки
16. От кого меня он бережет?
17. Кировский завод
18. Соловьи
19. Сенкевич
20. Иосиф Кобзон
21. КГБ
22. Интердева
23. Танк
24. Человеколюбие
25. Баден-Баден

Отчёт ЕАС:

Код:
Exact Audio Copy V0.99 prebeta 4 from 23. January 2008
Отчёт EAC об извлечении, выполненном 22. февраля 2009, 10:26
Unknown Artist / Unknown Title
Дисковод: LITE-ON DVDRW SOHW-1653S Adapter: 3 ID: 0
Режим чтения : Достоверность
Использование точного потока : Да
Отключение кэша аудио : Да
Использование указателей C2 : Нет
Коррекция смещения при чтении : 12
Способность читать области Lead-in и Lead-out : Нет
Заполнение пропущенных сэмплов тишиной : Да
Удаление блоков с тишиной в начале и конце : Нет
При вычислениях CRC использовались нулевые сэмплы : Да
Интерфейс : Встроенный Win32-интерфейс для Win NT/2000
Выходной формат : Внутренние WAV-операции
Формат сэмплов : 44.100 Гц; 16 бит; стерео
TOC извлечённого CD
Трек | Старт | Длительность | Начальный сектор | Конечный сектор
---------------------------------------------------------------------
1 | 0:00.00 | 1:59.04 | 0 | 8928
2 | 1:59.04 | 1:06.08 | 8929 | 13886
3 | 3:05.12 | 3:05.72 | 13887 | 27833
4 | 6:11.09 | 0:44.00 | 27834 | 31133
5 | 6:55.09 | 1:30.25 | 31134 | 37908
6 | 8:25.34 | 1:19.63 | 37909 | 43896
7 | 9:45.22 | 1:07.37 | 43897 | 48958
8 | 10:52.59 | 2:37.44 | 48959 | 60777
9 | 13:30.28 | 1:49.21 | 60778 | 68973
10 | 15:19.49 | 2:21.00 | 68974 | 79548
11 | 17:40.49 | 3:29.60 | 79549 | 95283
12 | 21:10.34 | 2:04.00 | 95284 | 104583
13 | 23:14.34 | 1:35.52 | 104584 | 111760
14 | 24:50.11 | 1:48.00 | 111761 | 119860
15 | 26:38.11 | 3:13.47 | 119861 | 134382
16 | 29:51.58 | 2:07.33 | 134383 | 143940
17 | 31:59.16 | 2:10.00 | 143941 | 153690
18 | 34:09.16 | 2:34.06 | 153691 | 165246
19 | 36:43.22 | 2:38.53 | 165247 | 177149
20 | 39:22.00 | 3:07.00 | 177150 | 191174
21 | 42:29.00 | 1:54.27 | 191175 | 199751
22 | 44:23.27 | 2:14.10 | 199752 | 209811
23 | 46:37.37 | 1:46.11 | 209812 | 217772
24 | 48:23.48 | 2:08.31 | 217773 | 227403
25 | 50:32.04 | 2:48.51 | 227404 | 240054
Характеристики диапазона извлечения и сообщения об ошибках
Выбранный диапазон
Имя файла E:\Unknown Artist - Unknown Title.wav
Пиковый уровень 98.9 %
Качество диапазона 100.0 %
CRC копии 11D6C17C
Копирование... OK
Ошибок не произошло
Конец отчёта

Отчёт auCDtect Task manager:

Код:
DON'T MODIFY THIS FILE
-----------------------
PERFORMER: auCDtect Task Manager, ver. 1.6.0 RC1 build 1.6.0.1
Copyright (c) 2008-2010 y-soft. All rights reserved
http://y-soft.org
ANALYZER: auCDtect: CD records authenticity detector, version 0.8.2
Copyright (c) 2004 Oleg Berngardt. All rights reserved.
Copyright (c) 2004 Alexander Djourik. All rights reserved.
FILE: Бригадный Подряд-Партсъезд.ape
  Size: 369802208 Hash: 85670E11ABFAA2442FC6F2AA5E502B82 Accuracy: -m0
  Conclusion: CDDA 100%
  Signature: 37DB14ADD739E38DB774909711845C09A25C10B7

1999 - Сине-Бело-Голубой

Год издания диска: 2008
Издатель (лейбл): Никитин
Номер по каталогу: ТФН-CD 521/08
Продолжительность: 00:30:11-Трек лист:

01 Фанат
02 Пивные моря
03 Жаба
04 Наркоманка
05 Пивные люди
06 Комиссар
07 Средство
08 Оптимист
09 Он
10 Пляж
11 Любовище

Отчёт ЕАС:

Код:
Exact Audio Copy V0.99 prebeta 4 from 23. January 2008
Отчёт EAC об извлечении, выполненном 21. февраля 2009, 19:57
Бригадный Подряд / Сине-Белый-Голубой
Дисковод: LITE-ON DVDRW SOHW-1653S Adapter: 3 ID: 0
Режим чтения : Достоверность
Использование точного потока : Да
Отключение кэша аудио : Да
Использование указателей C2 : Нет
Коррекция смещения при чтении : 12
Способность читать области Lead-in и Lead-out : Нет
Заполнение пропущенных сэмплов тишиной : Да
Удаление блоков с тишиной в начале и конце : Нет
При вычислениях CRC использовались нулевые сэмплы : Да
Интерфейс : Встроенный Win32-интерфейс для Win NT/2000
Выходной формат : Внутренние WAV-операции
Формат сэмплов : 44.100 Гц; 16 бит; стерео
TOC извлечённого CD
Трек | Старт | Длительность | Начальный сектор | Конечный сектор
---------------------------------------------------------------------
1 | 0:00.00 | 2:14.30 | 0 | 10079
2 | 2:14.30 | 2:17.39 | 10080 | 20393
3 | 4:31.69 | 2:12.22 | 20394 | 30315
4 | 6:44.16 | 2:51.06 | 30316 | 43146
5 | 9:35.22 | 2:40.57 | 43147 | 55203
6 | 12:16.04 | 2:13.71 | 55204 | 65249
7 | 14:30.00 | 3:42.50 | 65250 | 81949
8 | 18:12.50 | 3:41.27 | 81950 | 98551
9 | 21:54.02 | 2:41.05 | 98552 | 110631
10 | 24:35.07 | 3:04.27 | 110632 | 124458
11 | 27:39.34 | 2:31.28 | 124459 | 135811
Характеристики диапазона извлечения и сообщения об ошибках
Выбранный диапазон
Имя файла E:\Бригадный Подряд - Сине-Белый-Голубой.wav
Пиковый уровень 91.5 %
Качество диапазона 100.0 %
CRC копии 065A3AC8
Копирование... OK
Ошибок не произошло
Конец отчёта

Отчёт auCDtect Task manager:

Код:
DON'T MODIFY THIS FILE
-----------------------
PERFORMER: auCDtect Task Manager, ver. 1.6.0 RC1 build 1.6.0.1
Copyright (c) 2008-2010 y-soft. All rights reserved
http://y-soft.org
ANALYZER: auCDtect: CD records authenticity detector, version 0.8.2
Copyright (c) 2004 Oleg Berngardt. All rights reserved.
Copyright (c) 2004 Alexander Djourik. All rights reserved.
FILE: Бригадный Подряд - Сине-Белый-Голубой.ape
  Size: 204485440 Hash: 85C6B8C0678237EFFB5300BCE4C3BAC5 Accuracy: -m0
  Conclusion: CDDA 100%
  Signature: 3FEF8E4464E8A758E83AF42714E1BBF2A6B95A3E

2003 - Насилие и Sex

Год издания диска: 2008
Издатель (лейбл): Никитин
Номер по каталогу: ТФН-CD 520/08
Продолжительность: 00:49:11-Трек лист:

1. Насилие и секс
2. Наши деньги
3. Счастье
4. Работа
5. Про это
6. Май
7. Попса
8. Любовь
9. Счастливое детство
10. Новогодняя
11. Джеки Чан
12. Берегите мужа
13. Турыст (Овир! Овир! Овир!)
14. После концерта
15. Тело
16. До свиданья, Панк-рок

Отчёт ЕАС:

Код:
Exact Audio Copy V0.99 prebeta 4 from 23. January 2008
Отчёт EAC об извлечении, выполненном 22. февраля 2009, 10:01
Бригадный Подряд / Насилие и sex
Дисковод: LITE-ON DVDRW SOHW-1653S Adapter: 3 ID: 0
Режим чтения : Достоверность
Использование точного потока : Да
Отключение кэша аудио : Да
Использование указателей C2 : Нет
Коррекция смещения при чтении : 12
Способность читать области Lead-in и Lead-out : Нет
Заполнение пропущенных сэмплов тишиной : Да
Удаление блоков с тишиной в начале и конце : Нет
При вычислениях CRC использовались нулевые сэмплы : Да
Интерфейс : Встроенный Win32-интерфейс для Win NT/2000
Выходной формат : Внутренние WAV-операции
Формат сэмплов : 44.100 Гц; 16 бит; стерео
TOC извлечённого CD
Трек | Старт | Длительность | Начальный сектор | Конечный сектор
---------------------------------------------------------------------
1 | 0:00.00 | 2:25.01 | 0 | 10875
2 | 2:25.01 | 4:23.01 | 10876 | 30601
3 | 6:48.02 | 3:28.01 | 30602 | 46202
4 | 10:16.03 | 4:16.01 | 46203 | 65403
5 | 14:32.04 | 3:30.00 | 65404 | 81153
6 | 18:02.04 | 3:04.01 | 81154 | 94954
7 | 21:06.05 | 2:57.01 | 94955 | 108230
8 | 24:03.06 | 3:15.46 | 108231 | 122901
9 | 27:18.52 | 3:30.00 | 122902 | 138651
10 | 30:48.52 | 3:37.01 | 138652 | 154927
11 | 34:25.53 | 2:55.01 | 154928 | 168053
12 | 37:20.54 | 2:41.01 | 168054 | 180129
13 | 40:01.55 | 3:06.01 | 180130 | 194080
14 | 43:07.56 | 2:21.38 | 194081 | 204693
15 | 45:29.19 | 3:36.01 | 204694 | 220894
16 | 49:05.20 | 0:06.01 | 220895 | 221345
Характеристики диапазона извлечения и сообщения об ошибках
Выбранный диапазон
Имя файла E:\Бригадный Подряд - Насилие и sex.wav
Пиковый уровень 96.4 %
Качество диапазона 100.0 %
CRC копии 28FE7624
Копирование... OK
Ошибок не произошло
Конец отчёта

Отчёт auCDtect Task manager:

Код:
DON'T MODIFY THIS FILE
-----------------------
PERFORMER: auCDtect Task Manager, ver. 1.6.0 RC1 build 1.6.0.1
Copyright (c) 2008-2010 y-soft. All rights reserved
http://y-soft.org
ANALYZER: auCDtect: CD records authenticity detector, version 0.8.2
Copyright (c) 2004 Oleg Berngardt. All rights reserved.
Copyright (c) 2004 Alexander Djourik. All rights reserved.
FILE: Бригадный Подряд - Насилие и sex.ape
  Size: 340026756 Hash: B22273F7656141A07FE10B3FE59BF13E Accuracy: -m0
  Conclusion: CDDA 100%
  Signature: 90FE651964F52EC34F81915C779111FE325A832A

2003 - ЗаеBest

Год издания диска: 2008
Издатель (лейбл): Никитин
Номер по каталогу: ТФН-CD 517/08
Продолжительность: 01:15:54-Трек лист:

1. Ничего
2. Идиот
3. Кировский завод
4. Кошка
5. Деньги
6. Товарищи+наркоманка
7. Инвалид
8. Соловьи
9. Трезвость
10. Сенкевич
11. Скотина
12. Мордобой
13. Каждый человек
14. Я никому не нужен
15. Долой гопоту
16. Пиджак
17. Его убили
18. Розовая вода
19. Нервы
20. Трипер
21. Трупы
22. Пивные моря
23. Б.Г.С.
24. Кошка-II
25. Иван Факов
26. Милое дело
27. Мясо
28. Серая сила
29. Насилие и секс
30. Попса
31. Новогодняя
32. Детство
33. После концерта
34. Кобзон
35. До свидания, панк-рок!
36. Идиот

Отчёт ЕАС:

Код:
Exact Audio Copy V0.99 prebeta 4 from 23. January 2008
Отчёт EAC об извлечении, выполненном 22. февраля 2009, 11:46
Бригадный подряд / ЗАЕ BEST
Дисковод: LITE-ON DVDRW SOHW-1653S Adapter: 3 ID: 0
Режим чтения : Достоверность
Использование точного потока : Да
Отключение кэша аудио : Да
Использование указателей C2 : Нет
Коррекция смещения при чтении : 12
Способность читать области Lead-in и Lead-out : Нет
Заполнение пропущенных сэмплов тишиной : Да
Удаление блоков с тишиной в начале и конце : Нет
При вычислениях CRC использовались нулевые сэмплы : Да
Интерфейс : Встроенный Win32-интерфейс для Win NT/2000
Выходной формат : Внутренние WAV-операции
Формат сэмплов : 44.100 Гц; 16 бит; стерео
TOC извлечённого CD
Трек | Старт | Длительность | Начальный сектор | Конечный сектор
---------------------------------------------------------------------
1 | 0:00.00 | 0:27.71 | 0 | 2095
2 | 0:27.71 | 1:53.04 | 2096 | 10574
3 | 2:21.00 | 2:06.51 | 10575 | 20075
4 | 4:27.51 | 1:04.01 | 20076 | 24876
5 | 5:31.52 | 1:46.46 | 24877 | 32872
6 | 7:18.23 | 2:15.39 | 32873 | 43036
7 | 9:33.62 | 1:26.29 | 43037 | 49515
8 | 11:00.16 | 2:30.17 | 49516 | 60782
9 | 13:30.33 | 1:03.32 | 60783 | 65539
10 | 14:33.65 | 2:34.16 | 65540 | 77105
11 | 17:08.06 | 1:30.45 | 77106 | 83900
12 | 18:38.51 | 2:04.00 | 83901 | 93200
13 | 20:42.51 | 1:48.44 | 93201 | 101344
14 | 22:31.20 | 1:41.73 | 101345 | 108992
15 | 24:13.18 | 2:14.08 | 108993 | 119050
16 | 26:27.26 | 1:25.70 | 119051 | 125495
17 | 27:53.21 | 3:24.00 | 125496 | 140795
18 | 31:17.21 | 2:02.67 | 140796 | 150012
19 | 33:20.13 | 2:04.20 | 150013 | 159332
20 | 35:24.33 | 2:22.22 | 159333 | 170004
21 | 37:46.55 | 2:34.27 | 170005 | 181581
22 | 40:21.07 | 2:12.43 | 181582 | 191524
23 | 42:33.50 | 1:46.12 | 191525 | 199486
24 | 44:19.62 | 1:21.38 | 199487 | 205599
25 | 45:41.25 | 3:47.33 | 205600 | 222657
26 | 49:28.58 | 2:01.26 | 222658 | 231758
27 | 51:30.09 | 1:39.21 | 231759 | 239204
28 | 53:09.30 | 1:59.61 | 239205 | 248190
29 | 55:09.16 | 2:20.65 | 248191 | 258755
30 | 57:30.06 | 2:52.58 | 258756 | 271713
31 | 60:22.64 | 3:34.50 | 271714 | 287813
32 | 63:57.39 | 3:26.07 | 287814 | 303270
33 | 67:23.46 | 2:18.41 | 303271 | 313661
34 | 69:42.12 | 3:34.27 | 313662 | 329738
35 | 73:16.39 | 0:04.51 | 329739 | 330089
36 | 73:21.15 | 2:32.74 | 330090 | 341563
Характеристики диапазона извлечения и сообщения об ошибках
Выбранный диапазон
Имя файла E:\Бригадный подряд - ЗАЕ BEST.wav
Пиковый уровень 99.9 %
Качество диапазона 100.0 %
CRC копии F15B097F
Копирование... OK
Ошибок не произошло
Конец отчёта

Отчёт auCDtect Task manager:

Код:
DON'T MODIFY THIS FILE
-----------------------
PERFORMER: auCDtect Task Manager, ver. 1.6.0 RC1 build 1.6.0.1
Copyright (c) 2008-2010 y-soft. All rights reserved
http://y-soft.org
ANALYZER: auCDtect: CD records authenticity detector, version 0.8.2
Copyright (c) 2004 Oleg Berngardt. All rights reserved.
Copyright (c) 2004 Alexander Djourik. All rights reserved.
FILE: Бригадный подряд - ЗАЕ BEST.ape
  Size: 536070580 Hash: 5B789317E008FAB1800BE251F7F2006C Accuracy: -m0
  Conclusion: CDDA 100%
  Signature: 07B1A30B1E4702C4182192C33E784B19512C2060

2007 - Никакой Правды

Год издания диска: 2008
Издатель (лейбл): A-ONE Records
Номер по каталогу: AOR 066/08
Продолжительность: 00:48:11-Трек лист:

1. Никакой Правды
2. Рив Гош
3. Скамейка
4. Грин Дэй, Рамон и Пистолет
5. Веселиться, Танцевать
6. Все, Что Нам Дается
7. Детская (Веточка Кленовая)
8. Песня Геолога
9. Новогодняя – 2
10. О Неуважении к Собственной Личности
11. Кем Я Стал
12. Чугунка
13. Турция (300 Баксов Олл Инклюзив)
14. Маленькая Девочка
15. Корабли
Бонусы:
1. Уроки Панк-Рока (feat. ЧаЧа, Горшок)
2. Грустная История
3. Висилиццо – Танцевать (Ремикс)

Отчёт ЕАС:

Код:
Exact Audio Copy V0.99 prebeta 4 from 23. January 2008
EAC extraction logfile from 7. November 2008, 22:01
Unknown Artist / Unknown Title
Used drive : LITE-ON DVDRW SOHW-1653S Adapter: 3 ID: 0
Read mode : Secure
Utilize accurate stream : Yes
Defeat audio cache : Yes
Make use of C2 pointers : No
Read offset correction : 12
Overread into Lead-In and Lead-Out : No
Fill up missing offset samples with silence : Yes
Delete leading and trailing silent blocks : No
Null samples used in CRC calculations : No
Used interface : Installed external ASPI interface
Used output format : Internal WAV Routines
Sample format : 44.100 Hz; 16 Bit; Stereo
TOC of the extracted CD
Track | Start | Length | Start sector | End sector
---------------------------------------------------------
1 | 0:00.00 | 0:20.39 | 0 | 1538
2 | 0:20.39 | 3:13.47 | 1539 | 16060
3 | 3:34.11 | 2:29.19 | 16061 | 27254
4 | 6:03.30 | 2:21.13 | 27255 | 37842
5 | 8:24.43 | 2:16.74 | 37843 | 48116
6 | 10:41.42 | 2:50.23 | 48117 | 60889
7 | 13:31.65 | 2:59.33 | 60890 | 74347
8 | 16:31.23 | 1:58.04 | 74348 | 83201
9 | 18:29.27 | 2:44.06 | 83202 | 95507
10 | 21:13.33 | 2:50.68 | 95508 | 108325
11 | 24:04.26 | 1:42.64 | 108326 | 116039
12 | 25:47.15 | 3:27.19 | 116040 | 131583
13 | 29:14.34 | 2:49.32 | 131584 | 144290
14 | 32:03.66 | 2:11.06 | 144291 | 154121
15 | 34:14.72 | 3:28.01 | 154122 | 169722
16 | 37:42.73 | 2:52.41 | 169723 | 182663
17 | 40:35.39 | 2:33.30 | 182664 | 194168
18 | 43:08.69 | 5:02.42 | 194169 | 216860
Range status and errors
Selected range
Filename C:\Unknown Artist - Unknown Title.wav
Peak level 100.0 %
Range quality 100.0 %
Copy CRC 2B1FD484
Copy OK
No errors occurred
AccurateRip summary
Track 1 not present in database
Track 2 not present in database
Track 3 not present in database
Track 4 not present in database
Track 5 not present in database
Track 6 not present in database
Track 7 not present in database
Track 8 not present in database
Track 9 not present in database
Track 10 not present in database
Track 11 not present in database
Track 12 not present in database
Track 13 not present in database
Track 14 not present in database
Track 15 not present in database
Track 16 not present in database
Track 17 not present in database
Track 18 not present in database
None of the tracks are present in the AccurateRip database
End of status report

Отчёт auCDtect Task manager:

Код:
DON'T MODIFY THIS FILE
-----------------------
PERFORMER: auCDtect Task Manager, ver. 1.6.0 RC1 build 1.6.0.1
Copyright (c) 2008-2010 y-soft. All rights reserved
http://y-soft.org
ANALYZER: auCDtect: CD records authenticity detector, version 0.8.2
Copyright (c) 2004 Oleg Berngardt. All rights reserved.
Copyright (c) 2004 Alexander Djourik. All rights reserved.
FILE: Бригадный Подряд-Никакой Правды.ape
  Size: 320845208 Hash: 7DB5FC12E741FB597AB5AE15726D50B2 Accuracy: -m0
  Conclusion: CDDA 100%
  Signature: 929FAE0F05729DA8ED51241C4DFB7CA370C9F2BA

2008 - Концерт в Полигоне

Год издания диска: 2008
Издатель (лейбл): Никитин
Номер по каталогу: ТФН-CD 524/08
Продолжительность: 00:39:38-Трек лист:

1. Иван Факов
2. Деньги
3. Кошка
4. Баден-Баден
5. Либидо
6. Наркоманочка
7. Иосиф Кобзон
8. Мода полета
9. Кировский завод
10. Сенкевич
11. Нервы
12. Чойболсан
13. Трупы
14. Кошка2
15. Пивные моря
16. Идиот

Отчёт ЕАС:

Код:
Exact Audio Copy V0.99 prebeta 4 from 23. January 2008
Отчёт EAC об извлечении, выполненном 22. февраля 2009, 10:57
Unknown Artist / Unknown Title
Дисковод: LITE-ON DVDRW SOHW-1653S Adapter: 3 ID: 0
Режим чтения : Достоверность
Использование точного потока : Да
Отключение кэша аудио : Да
Использование указателей C2 : Нет
Коррекция смещения при чтении : 12
Способность читать области Lead-in и Lead-out : Нет
Заполнение пропущенных сэмплов тишиной : Да
Удаление блоков с тишиной в начале и конце : Нет
При вычислениях CRC использовались нулевые сэмплы : Да
Интерфейс : Встроенный Win32-интерфейс для Win NT/2000
Выходной формат : Внутренние WAV-операции
Формат сэмплов : 44.100 Гц; 16 бит; стерео
TOC извлечённого CD
Трек | Старт | Длительность | Начальный сектор | Конечный сектор
---------------------------------------------------------------------
1 | 0:00.00 | 8:13.00 | 0 | 36974
2 | 8:13.00 | 1:58.65 | 36975 | 45889
3 | 10:11.65 | 1:08.10 | 45890 | 50999
4 | 11:20.00 | 1:57.42 | 51000 | 59816
5 | 13:17.42 | 1:51.59 | 59817 | 68200
6 | 15:09.26 | 1:17.15 | 68201 | 73990
7 | 16:26.41 | 2:38.30 | 73991 | 85870
8 | 19:04.71 | 1:59.63 | 85871 | 94858
9 | 21:04.59 | 2:10.59 | 94859 | 104667
10 | 23:15.43 | 2:48.70 | 104668 | 117337
11 | 26:04.38 | 2:01.07 | 117338 | 126419
12 | 28:05.45 | 1:17.63 | 126420 | 132257
13 | 29:23.33 | 2:56.10 | 132258 | 145467
14 | 32:19.43 | 1:38.32 | 145468 | 152849
15 | 33:58.00 | 2:07.42 | 152850 | 162416
16 | 36:05.42 | 3:32.65 | 162417 | 178381
Характеристики диапазона извлечения и сообщения об ошибках
Выбранный диапазон
Имя файла E:\Unknown Artist - Unknown Title.wav
Пиковый уровень 99.3 %
Качество диапазона 100.0 %
CRC копии 4AF77101
Копирование... OK
Ошибок не произошло
Конец отчёта

Отчёт auCDtect Task manager:

Код:
DON'T MODIFY THIS FILE
-----------------------
PERFORMER: auCDtect Task Manager, ver. 1.6.0 RC1 build 1.6.0.1
Copyright (c) 2008-2010 y-soft. All rights reserved
http://y-soft.org
ANALYZER: auCDtect: CD records authenticity detector, version 0.8.2
Copyright (c) 2004 Oleg Berngardt. All rights reserved.
Copyright (c) 2004 Alexander Djourik. All rights reserved.
FILE: Бригадный Подряд-Концерт в Полигоне.ape
  Size: 290469036 Hash: 02872581EFED97FAB8EA77BC1086FFD8 Accuracy: -m0
  Conclusion: CDDA 100%
  Signature: B173FB91CFF842980A738BF66127BAA344F133D3

Об исполнителе

1980-е
Основные участники оригинального состава легендарной группы «Бригадный Подряд» Николай Михайлов, Александр «Сантёр» Лукьянов и Дмитрий Бабич были знакомы ещё с пятого класса и на протяжении первой половины 80-х успели собрать и распустить несколько школьных групп, игравших самую разную музыку. На ранних этапах в ней играл и их одноклассник, Максим Васильев, который, вместе с Михайловым, был соавтором многих песен.
Весной 1985 начинающий панк-поэт Антон «Тося» Соя, начинавший с Сантёром в школьной панк-группе «Беломор», познакомил его со своим старинным приятелем Фёдором «Бегемотом» Лавровым, в ту пору — участником широко известных в узких кругах панк-групп «Отдел Самоискоренения» и «Народное Ополчение». Бегемот был настолько впечатлён песнями «Бригадного Подряда», что сразу предложил себя в качестве их продюсера. По его инициативе в мае 1986 Михайлов, Лукьянов, Бабич и Игорь «Саид» Сайкин, который до этого барабанил в индастриал-группе «Монумент Страха», объединились под вывеской «БРИГАДНЫЙ ПОДРЯД» и записали одноимённый дебютный альбом, получивший шумный резонанс в магнитиздате, а вошедшие в него песни — «Зачем я (полюбила идиота)», «Режь, серп», «Я рослый, мослы — во!», «Кошечка» и пр. мгновенно разлетелись по стране и надолго определили репертуар группы.
Полгода спустя Сантёра забрали в армию, и в январе 1987 его место занял уже известный гитарист и автор песен Юрий Соболев, материал которого составил второй альбом «Бригадного Подряда» «Кировский завод». Он был записан в апреле 1988. К этому времени группа вступила в Ленинградский Рок-клуб, начала гастролировать по стране, участвовать в его концертах и фестивалях. Вершиной этого периода стало триумфальное появление «Бригадного Подряда» в программе VI Фестиваля Рок-клуба на Зимнем Стадионе (июнь 1988), где их энергичные, весёлые и злые песни мгновенно подняли на ноги многотысячную аудиторию. Тогда же к «Подряду» на короткое время присоединился второй гитарист Игорь «Мотя» Мотовилов, игравший до этого в «Труде» и «Народном Ополчении».
Тем же летом группу покинул Бабич, и его место занял Александр «Коньяк» Муравьёв, до этого — участник «Автоматических Удовлетворителей» и «Тайного Голосования». Тем не менее в конце 80-х дела группы резко пошли на спад: за следующие два года они дали всего двенадцать концертов. В конце 1988 Саид ушёл, чтобы реставрировать «Монумент Страха», и за барабанами появился Валерий Трушин. Однако, спад интереса к рок-музыке, который последовал за фестивально-гастрольным бумом середины 80-х, лишил многие группы (в том числе, и «Бригадный Подряд») возможности выступать, поэтому к июню 1990 группа незаметно распалась.
1990-е
Тем не менее два года спустя ситуация изменилась, и весной 1992 группа вернулась из небытия. Сантёр после армии преподавал в одной из питерских школ, где его учеником был Александр Конвисер, сочинявший собственные песни, вполне отвечавшие духу «Бригадного Подряда». В новый состав группы, помимо Конвисера, вошли также ветераны Михайлов и Бабич, а к записи двух вышедших в то время альбомов («Розовая вода» (1992) и «Rock’n’Royal» (1993)) была привлечена куча гостей, включая ещё одного ветерана группы Юрия Соболева.
Хотя в репертуаре группы появился ряд новых явных хитов (в том числе «Розовая вода» и посвящённые известному в ту пору телеразоблачителю Александру Невзорову «Трупы»), «Бригадный Подряд» так и не сумел консолидировать силы настолько, чтобы достойно представить их на сцене, а музыканты разошлись в разные стороны. Соболев, в частности, в 1994—1995 диджействовал на культовой питерской радиостанции «Катюша», а в 1995 собрал новую группу «Пангея» (где, кстати, играл и Мотовилов).
Следующее возрождение «Бригадного Подряда» началось в середине 1996, когда за дело взялся давний приятель коллектива и соавтор ряда песен Антон Соя. При его содействии группа записала новый материал, большая часть которого вошла в альбом «Худшее», а остальные песни (изначально забракованные) в «Сине-Бело-Голубой» (1999 г.). В марте 1997 группа дала в клубе «Перевал» свой первый в 90-х концерт, участие в котором приняли Михайлов, Сантёр и Конвисер. На барабанах играла Екатерина «Кэт» Козлова, известная по группам «Время Любить», «Экс-Миссия», «Wine». 1 мая того же года «Бригадный Подряд» выступил в клубе «Ватрушка» со своей новой ритм-секцией, на роль которой была приглашена половина временно не функционировавшей группы «Бондзинский»: Дмитрий Петров, бас, и Игорь Мосин, барабаны, вместе начинавшие в конце 80-х в группе «Дурное Влияние». В июне 1997 «Подряд» с успехом выступил на питерском рок-фестивале Театра DDT(«Песни конца ХХ Века»), после чего дал ещё несколько концертов в клубах.
В ноябре 1997 Михайлов был выгнан из группы по причине отсутствия возможности нормально петь в результате травмы головы, полученной после одного из концертов. «Бригадный Подряд» продолжал выступать вчетвером (а иногда усиленный женским вокальным дуэтом). Вскоре из группы ушёл и Сантёр, его место по старой памяти занял Юра Соболев.
В начале 1998 компания KDK издала на кассетах альбом «Бригадного Подряда» «Всё — Панк-рок!» с записями десятилетней давности, входившими в альбом «Парт-Съезд». В июле 1998 они выступили на антинаркотическом фестивале в кинотеатре «Невский» (по печальному стечению обстоятельств, там же состоялось последнее выступление «Автоматических Удовлетворителей»), после чего начали работу над новым альбомом.
28 мая 1999 в питерском Дворце Спорта «Юбилейный» по инициативе группы «Король и Шут» состоялся «Скоморох панк-фестиваль», в котором участвовали все герои питерского панк-рока: «Бегемот», «Бригадный Подряд», «Кукрыниксы», «The Пауки», а также ряд гостей (в том числе москвичи «НАИВ»).
Вскоре после этого, в августе 1999, с группой «Бригадный Подряд» внезапно расстались Мосин и Петров, которые решили реактивировать «Бондзинский». Осенью, во время вынужденного перерыва, Соболев и Конвисер на студии 'Frisky Sound' начинают работу над перезаписью старых песен, сочинённых группой ещё в 80-х. Предполагалось записать два альбома под общим названием «Реанимация», часть-1я и часть-2я. В результате дрязг издателей проект развалился на два отдельных альбома: «Реаниматоры» и сильно усечённый московскими издателями, очевидно для лучшего коммерческого успеха, «Идиот». Первый состоял из песен Соболева, а второй комплектовался в основном из ранних песен «БП». Также в записи участвовал саксофонист Сергей Яневский.
После полугодичной паузы «Бригадный Подряд» снова вышел на сцену 14 января 2000 на проведённом журналом Fuzz фестивале «FuzzFest» в составе: Конвисер, Соболев, теперь на басу, и Игорь Мотовилов (напомним, уже игравший в группе в конце 80-х), гитара. Место за барабанами заняла Олеся Тихонравова из «Мультfильмов», но поскольку она в то время была загружена в своей основной группе, «Подряду» пришлось искать постоянного барабанщика. В марте на эту должность был принят Александр «Блэкмор» Троицкий, который дебютировал в 1989 во «Фронте», после чего сменил ещё несколько металлических групп, а с 1994 по 1997 играл в «Автоматических Удовлетворителях».
Осенью 2000 Конвисер и певец популярной группы «Краденое Солнце» Евгений «Джефф» Анисимов (который пел с «Бригадным Подрядом» на «FuzzFest’е») объединились под названием «Фиолетовые роботы-гитаристы» (или ФРГ) и в сезоне 2000/2001 дали несколько концертов при участии Ильи Чёрта («Пилот»), в частности, в клубе «ЗооПарк».
В марте 2001 московская компания S.O.S. Records, созданная музыкантами группы «НАИВ», выпустила сильно сокращённый альбом «Подряда» «Идиот», который логически завершал цикл перезаписанных на студии «Frisky Sound» старых песен «Подряда». Одноимённый сингл попал в ротацию «НАШЕГО Радио», достигнув второго места в чарте. Группа была впервые приглашена на крупнейший российский рок-фестиваль «Нашествие». Питерский лейбл «КапКан» к тому времени переиздал на компакт-дисках «Реаниматоров», до того времени существовавший лишь в промо-копиях.
Июнем 2001 датируется и ещё одно немаловажное событие в жизни группы: 24 числа на фестивале «Детство без наркотиков» с ней сыграл свой последний концерт Игорь Мотовилов, который решил на время покинуть музыку. Его место занял Кирилл Поляков, игравший до этого в клубных группах «Контрольный Выстрел» и «Синдром Пингвина». Его дебют состоялся 13 июля на юбилее радиостанции «Шансон» на Каменном острове.
Параллельно развивалось и партнёрство Конвисера с музыкантами группы «Краденое солнце» (которая в начале лета уволила Джеффа). На протяжении лета они несколько раз выступили вместе, а к 15 сентября, когда их пригласили на проходивший в Санкт-Петербурге рекламный фестиваль-конкурс «Sprite — Жажда успеха», придумали название «MП-Три» и… заняли там первое место! Позже «МП-Три» побывали и на официальном финале конкурса в Москве, но там ничего не получили.
В конце октября на сцену вернулся и «Бригадный Подряд». Их новым участником стал трубач Роман Добрынин, дебют которого состоялся на концерте в клубе «Полигон». 22 ноября «Бригадный Подряд» разогревал выступление авторов лозунга «Punks not dead» — британской группы «The Exploited» в питерском Дворце Молодёжи.
В декабре 2001 прошла серия совместных концертов «Бригадного Подряда» и «МП-Три», которые чуть раньше начали запись своего первого альбома «Демовирус», частично состоявшего из старых песен «Бригадного Подряда».
В 2002 на домашней студии «Frisky Sound» Юрий Соболев и Александр Конвисер записали следующий альбом — «Насилие и Sex». Этим альбомом Юрий Соболев завершал своё участие в группе, после чего окончательно её покинул. «Подряд» фактически распался. На некоторое время «МП-Три» стали для Конвисера единственной точкой приложения сил: в 2003—2004 они издали два альбома, сняли несколько клипов и много гастролировали.
Лишь в июле 2003, когда компания «Sparc» выпустила альбом «Насилие и Sex», а также обширную антологию группы «ЗаеBest 1985—2003», «Бригадный Подряд» снова вышел на сцену клуба «Орландина». К этому времени в его состав — наряду с Конвисером, Поляковым и Троицким — входили Анатолий Скляренко, гитара, и Павел Ключарев, клавишные. Оба играли как в «КС», так и в «МП-Три». Ключарев, к тому же, много занимался звукорежиссурой.
В том же году с подачи Антона Сои ироничную песню «Бригадного Подряда» «Попса» спели несколько рок-музыкантов во главе с Юрием Шевчуком («ДДТ»), укрывшись под общим именем «Рок-группа». Песню много крутили в эфире, акция имела шумный резонанс в прессе и вывела на новый виток идеологическое противостояние честного искусства и полукриминальной московской эстрады. В октябре 2003 «Рок-группа» выпустила альбом «Попса» с несколькими версиями одноимённой песни. Замыкала альбом оригинальная версия, записанная Соболевым на студии «Frisky Sound», остальные варианты были записаны и на студии группы «ДДТ». Из музыкантов «БП» в этой записи принимал участие только Юрий Соболев.
Новый виток в истории самого «Подряда» начался лишь на следующий год, когда в неё вернулся первый гитарист и автор хита про «Идиота» Александр «Сантёр» Лукьянов. В декабре 2004 компания «Никитин» издала альбом «Красота Сожрёт Мир», состоявший из его новых песен, сочинённых либо соло, либо на пару с Максом Васильевым или Антоном Соей. В записи участвовало несколько приглашённых музыкантов, в том числе барабанщик «Короля и Шута» Александр Щиголев и трубач Максим Дещенко.
Тогда же выяснилось, что один из основателей группы Коля Михайлов тяжело болен и оказался, в буквальном смысле слова, без крыши над головой, поэтому было решено собрать средства для его спасения. В кампании участвовали «Король и Шут», «Бригадный Подряд» и другие сочувствующие делу группы. Весной 2005 вышел сольный альбом одного из лидеров «Короля и Шута» Михаила «Горшка» Горшенёва «Я алкоголик, я анархист», целиком составленный из песен «Бригадного Подряда»; на деньги, полученные за него, Михайлову удалось купить собственную комнату.
Летом 2005 года группа «Бригадный подряд» дает первый после долгого перерыва концерт в Москве, в клубе «Релакс». Состав: Александр Конвисер, Александр Лукьянов, Кирилл Поляков, Анатолий Скляренко и Павел Лобачевский. В концерте, приуроченном к 20-летию коллектива, принимают участие специальные гости: Александр «Чача» Иванов, группы «ЫШО? ЫШО!», «Der Steinkopf», «НЕ Б. Г.», «КАЛёССЫ», Jeff и «Карманы». Организаторами шоу выступили Александр Малеев и Маргарита Саитова, которые будут заниматься менеджментом «БП» до осени 2009 года.
В октябре 2005 на «Студии 1» началась запись альбома из тринадцати новых песен Сантёра и одной Макса Васильева. Помимо обоих в работе участвовали: Конвисер, Поляков, Ключарев, Скляренко, гитарист «КС» и «МП-Три» Александр «Кузя» Козьяков, а также барабанщики Олег Пожидаев (экс-«Торба-на-Круче») и Александр «Поручик» Щиголев. 19 ноября в клубе «Манхэттен» состоялась презентация этой программы, получившей название «Так не должно быть». Тогда же за барабанами в «Подряде» появился племянник Пожидаева Дмитрий Бухтояров. Чуть позже в эфирах радиостанций появилась песня «Уроки панк-рока», записанная совместно с Александром «Чачей» Ивановым («НАИВ») и Михаилом «Горшком» Горшенёвым («Король и Шут»). В 2006 году «Бригадный Подряд» приняли участие во всех крупнейших музыкальных фестивалях России: «Нашествие», «Крылья», «Наши в городе».
Двадцатилетний рубеж «Бригадный Подряд» перешагнул в весьма неплохой форме и с заделом на будущее. К сожалению, не все смогли дожить до этой круглой даты: ещё в начале 90-х умер Игорь Сайкин. Позднее в автокатастрофе погиб Дима Бабич, а весной 2006 из жизни один за другим ушли Александр Троицкий (март) и Николай Михайлов (апрель).
В ноябре 2007 состоялась презентация нового альбома «Бригадного Подряда» «Никакой правды», в записи которого приняли участие Илья Чёрт и Виктор Бастраков («Пилот»), Алексей Горшенёв («Кукрыниксы»), скрипач «Короля и Шута» Дмитрий «Каспер» Ришко и Александр «Кузя» Козьяков. С песней «Рив Гош» группа вернулась в ротацию «Нашего Радио», а в течение 2008 года в ротацию попали ещё три песни с альбома «Никакой правды»: «Веселиться, танцевать», «Детская (Веточка кленовая)» и «Скамейка». Таким образом, альбом «Никакой правды» стал самым успешным в истории группы, а летом 2008 года на «A-ONE Records» вышло его переиздание, куда были добавлены несколько бонус-треков, в том числе не издававшаяся ранее радио-версия песни «Уроки панк-рока». Спустя 20 лет продолжилось сотрудничество «Подряда» и Фёдора «Бегемота» Лаврова, который занялся сведением нового альбома.
2008 год был также отмечен активной концертной деятельностью. Группа выступала с сольными концертами как в России (Екатеринбург, Ижевск, Тверь, Рязань, Череповец, Архангельск, Северодвинск, Тула и др.), так и в некоторых соседних странах: в Белоруссии (Минск, Витебск, Могилев), в Литве (Вильнюс) и Латвии (Рига). Летом «Бригадный подряд» впервые с 2001 года появился на Главной сцене «Нашествия». Также группа приняла участие в фестивалях «Окна Открой», «Воздух», «Наши в городе» и «Zoofest» в Литве.
В начале 2009 года «Бригадный подряд» впервые в своей истории приезжает с концертом в Киев, а чуть позже выступает на питерском фестивале «Чартова Дюжина». 7 марта группа выходит на сцену СК «Олимпийский» в Москве в рамках ежегодной премии «Чартова Дюжина» — более 10 тысяч человек с ревом встречают феерический сет «БП», запомнившийся исполнением знаменитой «Попсы» в стиле Элтона Джона, которого, играя на пианино, изобразил Александр Конвисер. Весной 2009 года группа записывает макси-сингл «Звезды на льду», куда вошли четыре новые песни: «Звезды на льду», «Ксенофобия», «Ветераны третьей мировой» и «Song3». Презентация состоялась 1 мая в питерском клубе «ГЛАВCLUB».
Летом «Бригадный подряд» вновь выступает на главных сценах фестивалей «Нашествие» и «Воздух», а также в качестве специального гостя на традиционном концерте группы «Король и Шут» в Зелёном Театре.
3 сентября 2009 года из-за разногласий в группе вокалист Александр Конвисер заявил об уходе. Последний раз в составе «БП» он появился на сцене фестиваля «Уроки Русского», который состоялся 8 августа 2009 года в московском «Зеленом театре». Однако, Конвисер не заканчивает творческую деятельность — при поддержке также ушедших из «БП» директора Александра Малеева и тур-менеджера Антона Крахмала — он создает новую группу «Музыкальные проститутки», которая через пару месяцев получает название «МПТРИ».
Группа «Бригадный подряд» продолжает активную концертную и студийную деятельность, место основного вокалиста занимает гитарист Анатолий Скляренко. Изменилось и руководство группы. У руля встали саунд-продюсер Золотухин Илья и директор Валерий Карпенков (экс-директор группы Пилот). С их появлением из бытового райдера группы исчез алкоголь и был снят первый в истории группы высокобюджетный клип на песню «SONG 3». В конце 2010 года на пост директора пришёл Вахтанг Махарадзе (концертный директор гр. Алиса и Король и Шут). Группой играется новая программа «Полуакустика» и записывается новый материал.
Клип на песню «Всерьез» (Ю.Соболев), стал очередным шагом а развитии группы. 2011 год для БП — это участие в многочисленных фестивалях, работа на студии и гастроли, гастроли, гастроли… Согласно информации с официального сайта группы bpodryad.ru, из руководства остался Илья ШЕФ Золотухин, известный своей прямолинейностью, упорством и умением решать любые задачи, будь то БП, либо руководимое им Радио Рок Онлайн (с 2009 года).
17 февраля 2012 года в районе 10 утра группа в полном составе попала в ДТП, под городом Балашов Саратовской области. Денис Неволин получил самые тяжёлые повреждения, у Кирилла Полякова диагностирован перелом ноги, Германа Иоффе — травма спины, Анатолий Скляренко и Александр Лукьянов отделались ушибами и ссадинами.
Интересные факты
Многие до сих пор ошибочно приписывают авторство песни «Попса» Юрию Шевчуку. На самом деле эта композиция группы «Бригадный подряд», автор слов — Антон Соя, автор музыки — Юрий Соболев.
Похожая ситуация сложилась и вокруг песен «Бригадного подряда», которые вошли в сольный альбом лидера группы «Король и Шут» Михаила «Горшка» Горшенёва («Жизнь», «Кировский завод», «Иван Факов», «Деньги» и др.).
Любопытно, что Горшок несколько изменил тексты, например, если строчка из песни «Милое дело» у «Бригадного подряда» звучит «Если сухое, то взять и нажраться», то у Горшка она звучит «А если девятка, то взять и убраться». Экскурс: Сделано это было из соображений адаптации несколько устаревших терминов для современной аудитории. Ныне мало кто знает, что за словом «сухое» скрывалось весьма популярное за счёт дешевизны сухое вино, которого в 80-х было в избытке, и оно входило в постоянную разблюдовку ленинградского люмпена. На портвейн частенько не хватало, а за пивом была настоящая бойня. В оригинальном тексте песни «Жизнь» есть строчка «жизнь растянулась, как сопля», однако, Горшок вместо неё поет «жизнь разносилась, как туфля». По словам участников «Бригадного подряда», во время записи альбома Горшок ещё не вставил передние зубы, а потому слово «сопля» в его исполнении звучало смешно и строку решили немного изменить.
Основные участники группы «Бригадный подряд» (в частности, Александр Конвисер, Александр Лукьянов, Максим Васильев) являются жителями питерского района Купчино, который известен тем, что здесь родились, жили или живут многие известные творческие личности, например музыканты таких групп, как «Король и Шут», «Аквариум», «Billy's Band», «Кино» и многие другие.
Александр Сантёр Лукьянов ведет собственную радио передачу «Уроки панк-рока» на интернет радио rock-online.ru. А также является ведущим «Держи удар» на том же радио. Задачами его передач является выявление смысла творчества у новых исполнителей. В новогоднем эфире «Держи удар», в гостях был сам Сантер, он представлял группу Бригадный Подряд, ведущими программы на эту передачу стали несколько других диджеев с того же радио.
В 2010 году бывший музыкант и автор многочисленных песен Б. П., Юрий Соболев вернулся к музыкальной деятельности после затяжного творческого отпуска, который он посвятил семье и подрастающим детям. Своё возвращение он ознаменовал весьма удачной песней «Всерьёз?!» переданной им своим старым товарищам из БП, на которую группой был снят одноимённый клип и её название стала носить одна из концертных программ БП. В 2011 году Юрий записал сольный альбом «ЗАТКНИТЕСЬ, СУКИ!» и ЕР «АУТ-САЙДЕРЫ». Которые выложил в свободный доступ в сети. В конце декабря 2011 года альбом «ЗАТКНИТЕСЬ, СУКИ!» увидел свет в специальном коллекционном издании.
В конце февраля 2012 года Юрий закончил работу над своим вторым сольным альбомом «ВЕСЁЛАЯ ЖЕСТОКОСТЬ», названного так по имени некогда утерянного альбома. Так же он поделился сведениями о том, что собирается приступить к записи своих старых песен входивших в его авторские альбомы «РЕАНИМАТОРЫ»(1998г) и «НАСИЛИЕ И SЕХ»(2002г). В новый альбом войдут песни проверенные временем и до сих пор исполняемые «Бригадным Подрядом», МП3 и другими коллективами. Альбом будет называться «КИРОВСКИЙ ЗАВОД», по названию основного хита из его первого сольного альбома, который он записывал в далёком уже 1988 году на квартире у Дмитрия Бабича при непосредственной помощи самого Дмитрия и Николая Михайлова. Этим альбомом Юрий отметит юбилейную дату своих песен, которые уже 25 лет без перерыва находятся в репертуаре Б. П. Это песни — «Кировский Завод», «Милое Дело», «Соловьи», «Прогулка», «Баден-Баден», «Кобзон» и многие другие!
Состав
Нынешний состав
Александр «Сантёр» Лукьянов — гитара (с 1986 года, с перерывами в 90-х)
Анатолий «Толян» Скляренко — гитара (с 2003 года), основной вокал (с сентября 2009 года)
Кирилл Поляков — бас-гитара (с 2001 года)
Герман «Гера» Иоффе — барабаны (с 2010 года)
Илья «ШЕФ» Золотухин — саунд-продюсер, директор (с сентября 2009 года)
Денис Неволин — звукорежиссёр
Бывшие участники
Александр Конвисер — вокал, музыка (1992—2009)
Николай Михайлов — вокал, тексты, музыка (1986—1997, умер в 2006) †
Игорь «Саид» Сайкин — барабаны (умер в 1999) †
Дмитрий Бабич — бас-гитара (погиб в автомобильной аварии в 2004) †
Максим Васильев — гитара, тексты (с 1986 года, до сих пор пишет тексты для группы, например, большая часть альбома «Никакой правды»)
Юрий Соболев — гитара, бас-гитара, тексты, музыка, автор двух альбомов «Реаниматоры» и «Насилие и Секс», автор музыки «Про это», Попса", соавтор ряда других песен (1987—2002)
Антон «Тося» Соя — автор текстов 20 песен (Долой гопоту, Попса, Иван Факов, Про это, Пивные моря, Фанат и т. д.)
Фёдор Лавров — гитара
Валерий Трушин — барабаны
Александр «Коньяк» Муравьёв — бас-гитара (умер в 2008) †
Владимир Люлюкин — барабаны
Дмитрий Петров — бас
Игорь Мосин — барабаны
Екатерина Тукколка — вокал (1998)
Надежда Мошек — вокал (1998)
Игорь «Мотя» Мотовилов — гитара
Александр «Блэкмор» Троицкий — барабаны (умер в 2006 году) †
Сергей Яневский — саксофон
Роман Добрынин — труба
Павел Лобачевский — барабаны
Дмитрий Бухтояров — барабаны (2005—2010)
Время раздачи: 24/7 - круглосуточно
Other forum [Profile] [PM]

Dracula

Longevity: 5 years 8 months

Posts: 10392

Торрент-статистика

Post 09-Jun-2013 06:08 (after 1 hour 52 minutes)

Топик был перенесен из форума Rock в форум Russian Rock


p2000s
 
Display posts from previous:    
Reply to topic

The time now is: Today 22:07

All times are GMT + 3 Hours



You cannot post new topics in this forum
You cannot reply to topics in this forum
You cannot edit your posts in this forum
You cannot delete your posts in this forum
You cannot vote in polls in this forum
You cannot attach files in this forum
You cannot download files in this forum