Today is a free download without charge Download

Смешарики: Караоке со Смешариками (2011) DVD5

Reply to topic
 
Author
Message

sashau ®

Gender:

Longevity: 7 years 6 months

Posts: 3497

Торрент-статистика

Post 22-May-2013 17:22

[Quote]

Смешарики: Караоке со Смешариками - Русское название: Смешарики: Караоке со Смешариками
Год выпуска: 2011
Жанр: Детский, Музыкальный, Развивающий
Режиссер: Алексей Горбунов
Описание фильма:
Что может быть забавнее и увлекательнее, чем Караоке!? Конечно, караоке со Смешариками! С Кар-Карычем можно исполнить гимн старого города, песенкой Бараша поднять настроение друзьям, а остальными песнями с диска дополнить и разнообразить любой детский (и не только) праздник! Смешарики предлагают окунуться в волшебный мир музыки, которая несет тепло и любовь в каждый дом!
Продолжительность: 01:40:00
Качество видео: DVD5
Видео: PAL 16:9 720x576@1024x576, ~9000 Kbps
Аудио: Русский (Dolby AC3, 2 ch), 48000 Hz, 384 Kbps

Содержание:

Караоке со Смешариками
01. От винта
02. Марафонец
03. Бедненький больной
04. Право на одиночество
05. Куда уходит старый год?
06. Славный город Кострома
07. Песенка о моде
08. Вести-бу-би-лю-би-бу
09. Новогодняя колыбельная
10. Мнём мы мнём
11. Круглая песня
Песни из мультфильма
01. От винта (А. Виноградов)
02. Марафонец (М. Черняк)
03. Бедненький больной (В. Бочанов)
04. Право на одиночество (С. Васильев)
05. Куда уходит старый год? (С. Мардарь)
06. Славный город Кострома (С. Васильев)
07. Песенка о моде (В. Маслаков)
08. Вести-бу-би-лю-би-бу (С. Мардарь)
09. Новогодняя колыбельная (М. Ланда)
10. Мнём мы мнём ("Пластилиновая история")
11. Круглая песня (Музыкальный театр детей)

МедиаИнфо:

Видео
Идентификатор : 224 (0xE0)
Формат : MPEG Video
Версия формата : Version 2
Профиль формата : Main@Main
Параметр BVOP формата : Да
Параметр матрицы формата : Выборочная
Параметр GOP формата : M=3, N=15
Вид битрейта : Переменный
Битрейт : 1768 Мбит/сек
Максимальный битрейт : 8000 Кбит/сек
Ширина : 720 пикселей
Высота : 576 пикселей
Соотношение сторон : 16:9
Частота кадров : 25,000 кадров/сек
Стандарт вещания : PAL
Цветовое пространство : YUV
Субдискретизация насыщенности : 4:2:0
Битовая глубина : 8 бит
Тип развёртки : Чересстрочная
Порядок развёртки : Верхнее поле первое
Метод сжатия : С потерями
Бит/(Пиксели*Кадры) : 170.548
Размер потока : 1003 Мбайт (98%)
Аудио
Идентификатор : 189 (0xBD)-128 (0x80)
Формат : AC-3
Формат/Информация : Audio Coding 3
Расширение режима : CM (complete main)
Параметр Endianness формата : Big
Режим смешивания : DVD-Video
Продолжительность : 4 с. 760 мс.
Вид битрейта : Постоянный
Битрейт : 448 Кбит/сек
Каналы : 2 канала
Расположение каналов : Front: L R
Частота : 48,0 КГц
Битовая глубина : 16 бит
Метод сжатия : С потерями
Задержка видео : -696 мс.
Размер потока : 260 Кбайт (0%)
Меню

Скриншоты Меню:

     
Скриншоты:
         
         
Other forum [Profile] [PM]
Display posts from previous:    
Reply to topic

The time now is: Today 18:57

All times are GMT + 3 Hours



You cannot post new topics in this forum
You cannot reply to topics in this forum
You cannot edit your posts in this forum
You cannot delete your posts in this forum
You cannot vote in polls in this forum
You cannot attach files in this forum
You cannot download files in this forum