Today is a free download without charge Download

Территория хитов – Караоке (2012) DVDRip

Reply to topic
 
Author
Message

sashau ®

Gender:

Longevity: 7 years 6 months

Posts: 3497

Торрент-статистика

Post 22-May-2013 17:19

[Quote]

Территория хитов – Караоке - Русское название: Территория хитов – Караоке
Год выпуска: 2012
Жанр: Музыкальное видео, Караоке
Треклист:
01 Аллегрова - Не обернусь уходя
02 Боярский - Большая медведица
03 Борисенки - Звездный берег
04 Из Мультфильма - В синем море, белой пене
05 Короли ночной Вероны
06 Петлюра - Дембеля
07 Ёлка - Прованс
08 ИньЯн - Пофиг
09 Королев - Базар-вокзал
10 Королева - В зале ожидания
11 Чайка - Куда ты денешься
12 Лобода - Революция
13 Лорак - Для тебя
14 Шуфутинский - Наколка
15 Лорак, Меладзе - Верни мою любовь
16 Мираж - Новый герой
17 Газманов - Морячка
18 Потап, Каменских - На районе
19 Потап, Каменских - Село
20 Ранетки - Зима

читать дальше...

21 Ранетки - Кадеты
22 Реал О - Платья
23 Из к/ф "Мы из будущего" - Романс
24 Рыбак - Сказка
25 Казанова - 7/8
26 Сердючка - Дольче Габбана
27 Из к/ф "Мы из будущего" - Ты и я
28 Шуфутинский - Марджанджа
29 Фабрика - Али Баба
30 Стас Пьеха, Слава - Я и ты
31 Фролов - Все бабы как бабы...
32 Queen - Всесможет он (на русском)
33 Мурзилки - С новым годом
34 Потап Каменских - Чумачечная весна
36 ВиаГра - Сумасшедший
37 Время и стекло - Любви точка net
Продолжительность: 02:26:32
Видеокодек: Xvid
Битрейт видео: ~1008 kbps avg, 0.131 bit/pixel
Размер кадра: 720x480 (4:3), 25,0 fps
Качество видео: DVDRip
Аудиокодек: MP3, 2 ch
Битрейт аудио: 128.00 kbps avg, 48,0 kHz

MediaInfo

Код:
Общее
Полное имя                               : TerritoriyaHitov-Karaoke.avi
Формат                                   : AVI
Формат/Информация                        : Audio Video Interleave
Размер файла                             : 19,3 Мбайт
Продолжительность                        : 02:26:32
Общий поток                              : 11500 Кбит/сек
Видео
Идентификатор                            : 0
Формат                                   : MPEG-4 Visual
Профиль формата                          : Advanced Simple@L5
Параметр BVOP формата                    : 2
Параметр QPel формата                    : Нет
Параметр GMC формата                     : Без точки перехода
Параметр матрицы формата                 : Default (H.263)
Идентификатор кодека                     : XVID
Идентификатор кодека/Подсказка           : XviD
Продолжительность                        : 02:26:32
Битрейт                                  : 1008 Кбит/сек
Ширина                                   : 640 пикселей
Высота                                   : 480 пикселей
Соотношение сторон                       : 4:3
Частота кадров                           : 25,000 кадров/сек
Цветовое пространство                    : YUV
Субдискретизация насыщенности            : 4:2:0
Битовая глубина                          : 8 бит
Тип развёртки                            : Прогрессивная
Метод сжатия                             : С потерями
Бит/(Пиксели*Кадры)                      : 0.131
Размер потока                            : 25,0 Мбайт (88%)
Библиотека кодирования                   : XviD 1.2.1 (UTC 2008-12-04)
Аудио
Идентификатор                            : 1
Формат                                   : MPEG Audio
Версия формата                           : Version 1
Профиль формата                          : Layer 3
Режим                                    : Joint stereo
Расширение режима                        : MS Stereo
Идентификатор кодека                     : 55
Идентификатор кодека/Подсказка           : MP3
Продолжительность                        : 02:26:32
Вид битрейта                             : Постоянный
Битрейт                                  : 128 Кбит/сек
Каналы                                   : 2 канала
Частота                                  : 48,0 КГц
Метод сжатия                             : С потерями
Задержка видео                           : 40 мс.
Размер потока                            : 3,17 Мбайт (11%)
Выравнивание                             : Соединение по промежуткам
Продолжительность промежутка             : 24  мс. (0,60 видеокадр)
Время предзагрузки промежутка            : 504  мс.
Скриншоты:
           
Other forum [Profile] [PM]
Display posts from previous:    
Reply to topic

The time now is: Today 22:08

All times are GMT + 3 Hours



You cannot post new topics in this forum
You cannot reply to topics in this forum
You cannot edit your posts in this forum
You cannot delete your posts in this forum
You cannot vote in polls in this forum
You cannot attach files in this forum
You cannot download files in this forum