Сегодня идет свободное скачивание без начисления Download

The Doors - Classic Album [2008, Rock, HDTV 1080i]

Ответить на тему
 
Автор
Сообщение

Omen ®

Стаж: 6 лет 1 месяц

Сообщений: 184308

Торрент-статистика

Пост 03-Дек-2012 06:26

[Цитировать]

The Doors - Classic Album
Жанр: Rock
Продолжительность: 00:50:08
Год выпуска: 2008
Описание: This documentary in the Classic Albums series takes an in-depth look at the album, with commentary from Bruce Botnick, who worked on the album, and the three remaining Doors--guitarist Robbie Krieger, keyboard player Ray Manzarek, and drummer John Densmore. The three band members also play some of their instrumental parts from the album, offering invaluable insight into how the songs were constructed.
Tracklist:
1. Introduction
2. Break On Through (to the Other Side)
3. The Crystal Ship
4. Back Door Man
5. Soul Kitchen
6. Alabama Song
7. Light My Fire
8. End of the Night
9. The End
Качество: HDTV 1080i
Контейнер: TS
Видео кодек: H.264
Аудио кодек: AC3
Видео: H.264 1920x1080 16:9 10.4Mbps 29.970fps
Аудио: AC3 384kbps 48kHz 6ch.

Отчёт MediaInfo / BDInfo

ОбщееИдентификатор : 56 (0x38)Полное имя : E:\The Doors - Classic Albums.tsФормат : MPEG-TSРазмер файла : 3,66 ГбайтПродолжительность : 50 м.Общий поток : 10,4 Мбит/секНазвание сети : EmbratelОригинальное название сети : Astra Satellite Network 19,2'E
ВидеоИдентификатор : 4163 (0x1043)Идентификатор меню : 542 (0x21E)Формат : AVC / AVCВерсия формата : Version 2Профиль формата : High@L4.0 / Main@L4.1Параметр CABAC формата : Да / ДаПараметр ReFrames формата : 4 кадра / 2 кадраИдентификатор кодека : 27Продолжительность : 50 м.Битрейт : 9545 Кбит/секМаксимальный битрейт : 12,0 Мбит/секШирина : 1920 пикселей / 1920 пикселейВысота : 1080 пикселей / 1080 пикселейСоотношение сторон : 16:9Частота кадров : 29,970 кадров/сек / 29,970 кадров/секЦветовое пространство : YUV / YUVСубдискретизация насыщенности : 4:2:0 / 4:2:0Битовая глубина : 8 бит / 8 битТип развёртки : Чересстрочная / MBAFFПорядок развёртки : Верхнее поле первое / TFFБит/(Пиксели*Кадры) : 0.154Размер потока : 3,34 Гбайт (91%)Основные цвета : BT.709-5, BT.1361, IEC 61966-2-4, SMPTE RP177Характеристики трансфера : BT.709-5, BT.1361Коэффициенты матрицы : BT.709-5, BT.1361, IEC 61966-2-4 709, SMPTE RP177
АудиоИдентификатор : 4161 (0x1041)Идентификатор меню : 542 (0x21E)Формат : AC-3Формат/Информация : Audio Coding 3Профиль формата : Layer 2Расширение режима : CM (complete main)Параметр Endianness формата : BigИдентификатор кодека : 129Продолжительность : 50 м.Вид битрейта : ПостоянныйБитрейт : 384 Кбит/секМаксимальный битрейт : 432 Кбит/секКаналы : 6 каналовРасположение каналов : Front: L C R, Side: L R, LFEЧастота : 48,0 КГцБитовая глубина : 16 битМетод сжатия : С потерямиЗадержка видео : -30 мс.Размер потока : 138 Мбайт (4%)Язык : d.d
МенюИдентификатор : 4160 (0x1040)Идентификатор меню : 542 (0x21E)Продолжительность : 50 м.Список : 4161 (0x1041) (AC-3, d.d) / 4163 (0x1043) (AVC / AVC)Язык : d.dНазвание сервиса : Multishow HDТип сервиса : advanced codec HD digital televisionМаксимальный битрейт : 12436800

Скриншоты



Вне форума [Профиль] [ЛС]
Показать сообщения:    
Ответить на тему

Текущее время: Сегодня 09:53

Часовой пояс: GMT + 3



Вы не можете начинать темы
Вы не можете отвечать на сообщения
Вы не можете редактировать свои сообщения
Вы не можете удалять свои сообщения
Вы не можете голосовать в опросах
Вы не можете прикреплять файлы к сообщениям
Вы не можете скачивать файлы