Сегодня идет свободное скачивание без начисления Download

Pearl Jam - Live At Isle of Wight Festival 2012 [2012 г., Alternative Rock, HDTV (Feed)]

Ответить на тему
 
Автор
Сообщение

Omen ®

Стаж: 6 лет 1 месяц

Сообщений: 184308

Торрент-статистика

Пост 03-Дек-2012 06:26

[Цитировать]

Pearl Jam - Live At Isle of Wight Festival 2012- Год выпуска: 2012
Жанр: Alternative Rock
Продолжительность: 00:16:22-Описание: Выступление группы Pearl Jam 23 июня на Isle of Wight Festival 2012.-Треклист:
01. Blood
02. Alive
03. Little Wing-Качество: HDTV (Feed)
Формат: TS
Видео кодек: H.264
Аудио кодек: FLAC
Видео: 1920x1080 (16:9) at 25.000 fps, ~32 Mbps avg
Аудио: DTS-HD MA 5.1 (48 kHz / 3379 / 24-bit)-

MediaInfo

GeneralID : 1 (0x1)Complete name : Pearl Jam (Isle of Wight 2012 - 1080i - H264 - 30Mbps - DTS-HD MA - 120623)-MelC4Eva.tsFormat : MPEG-TSFile size : 4.21 GiBDuration : 16mn 22sOverall bit rate mode : VariableOverall bit rate : 36.8 MbpsMaximum Overall bit rate : 35.5 Mbps
VideoID : 4113 (0x1011)Menu ID : 1 (0x1)Format : AVCFormat/Info : Advanced Video CodecFormat profile : High@L4.1Format settings, CABAC : YesFormat settings, ReFrames : 4 framesFormat settings, GOP : M=1, N=12Codec ID : 27Duration : 16mn 22sBit rate mode : VariableBit rate : 31.3 MbpsMaximum bit rate : 40.0 MbpsWidth : 1 920 pixelsHeight : 1 080 pixelsDisplay aspect ratio : 16:9Frame rate : 25.000 fpsColor space : YUVChroma subsampling : 4:2:0Bit depth : 8 bitsScan type : InterlacedScan order : Top Field FirstBits/(Pixel*Frame) : 0.604Stream size : 3.58 GiB (85%)Color primaries : BT.709-5, BT.1361, IEC 61966-2-4, SMPTE RP177Transfer characteristics : BT.709-5, BT.1361Matrix coefficients : BT.709-5, BT.1361, IEC 61966-2-4 709, SMPTE RP177
Audio #1ID : 4352 (0x1100)Menu ID : 1 (0x1)Format : DTSFormat/Info : Digital Theater SystemsFormat profile : MA / CoreMuxing mode : Stream extensionCodec ID : 134Duration : 16mn 15sBit rate mode : VariableBit rate : 3 379 Kbps / 1 510 KbpsChannel(s) : 6 channelsChannel positions : Front: L C R, Side: L R, LFESampling rate : 48.0 KHzBit depth : 24 bitsCompression mode : Lossless / LossyDelay relative to video : -36ms
Audio #2ID : 4353 (0x1101)Menu ID : 1 (0x1)Format : MPEG AudioFormat version : Version 1Format profile : Layer 2Mode : Joint stereoMode extension : Intensity Stereo + MS StereoCodec ID : 4Duration : 16mn 22sBit rate mode : ConstantBit rate : 256 KbpsChannel(s) : 2 channelsSampling rate : 48.0 KHzCompression mode : LossyDelay relative to video : -33msStream size : 30.0 MiB (1%)

Скриншоты

Вне форума [Профиль] [ЛС]
Показать сообщения:    
Ответить на тему

Текущее время: Сегодня 08:39

Часовой пояс: GMT + 3



Вы не можете начинать темы
Вы не можете отвечать на сообщения
Вы не можете редактировать свои сообщения
Вы не можете удалять свои сообщения
Вы не можете голосовать в опросах
Вы не можете прикреплять файлы к сообщениям
Вы не можете скачивать файлы