Сегодня идет свободное скачивание без начисления Download

Bachman & Turner: Live at the Roseland Ballroom, NYC [2010, Rock, Hard Rock, BDRip 1080p]

Ответить на тему
 
Автор
Сообщение

Omen ®

Стаж: 6 лет 1 месяц

Сообщений: 184308

Торрент-статистика

Пост 03-Дек-2012 06:26

[Цитировать]

Bachman & Turner: Live at the Roseland Ballroom, NYC
Жанр: Rock, Hard Rock
Продолжительность: 1:33:49
Год выпуска: 2010/2012
Описание: • Randy Bachman and C.F. Fred Turner were the core members of Bachman-Turner Overdrive throughout their commercial heyday in the seventies, sharing duties on the lead vocals with Bachman contributing lead guitar and Turner the bass. Between them they also composed the vast majority of the band s many hit singles. Reuniting at the end of 2009 they released an eponymous album in 2010 and in November of that year they performed at the famous Roseland Ballroom in New York City as part of their North American tour.
Треклист:
01. Let It Ride
02. Rock is My Life
03. Not Fragile
04. Hey You
05. Hold Back the Water
06. Waiting Game
07. Moonlight Rider
08. Lookin' Out For #1
09. Stayed Awake All Night
10. American Woman
11. Four Wheel Drive
12. Slave to the Rhythm
13. Blue Collar
14. That's What It Is
15. Sledgehammer
16. Rollin' Along
17. You Ain't Seen Nothin' Yet
18. Shakin' All Over
19. Roll On Down the Highway
20. Takin' Care of Business
Чаптеры присутствуютТоррент-файл перезалит! Пересобран согласно рекомендации без сжатия заголовков.Качество: BDRip 1080p
Контейнер: MKV
Видео кодек: H.264
Аудио кодек: AC3
Видео: AVC, 1920x1080, 12.9 Mbps, 29.97 fps
Аудио: AC3, 448 Kbps, 48 KHz, 6 ch

Отчёт MediaInfo

GeneralUnique ID : 237088012376515769212697918286126425558 (0xB25D7D80F75A1EE192D11CDEC740A5D6)Complete name : E:\Bachman.And.Turner.Live.At.The.Roseland.Ballroom.2011.1080p.MBluRay.x264-LOUNGE\Bachman.And.Turner.Live.At.The.Roseland.Ballroom.2011.1080p.mkvFormat : MatroskaFormat version : Version 2File size : 8.75 GiBDuration : 1h 33mnOverall bit rate : 13.3 MbpsEncoded date : UTC 2012-07-23 20:04:36Writing application : mkvmerge v5.3.0 ('I could have danced') built on Feb 9 2012 10:38:07Writing library : libebml v1.2.3 + libmatroska v1.3.0
VideoID : 1Format : AVCFormat/Info : Advanced Video CodecFormat profile : High@L4.1Format settings, CABAC : YesFormat settings, ReFrames : 4 framesCodec ID : V_MPEG4/ISO/AVCDuration : 1h 33mnBit rate : 12.9 MbpsWidth : 1 920 pixelsHeight : 1 080 pixelsDisplay aspect ratio : 16:9Frame rate : 29.970 fpsColor space : YUVChroma subsampling : 4:2:0Bit depth : 8 bitsScan type : ProgressiveBits/(Pixel*Frame) : 0.208Stream size : 8.28 GiB (95%)Writing library : x264 core 125 r2200 999b753Encoding settings : cabac=1 / ref=4 / deblock=1:0:0 / analyse=0x3:0x133 / me=umh / subme=8 / psy=1 / psy_rd=1.00:0.00 / mixed_ref=1 / me_range=16 / chroma_me=1 / trellis=1 / 8x8dct=1 / cqm=0 / deadzone=21,11 / fast_pskip=0 / chroma_qp_offset=-2 / threads=6 / lookahead_threads=1 / sliced_threads=0 / nr=0 / decimate=1 / interlaced=0 / bluray_compat=0 / constrained_intra=0 / bframes=3 / b_pyramid=2 / b_adapt=1 / b_bias=0 / direct=1 / weightb=1 / open_gop=0 / weightp=2 / keyint=250 / keyint_min=25 / scenecut=40 / intra_refresh=0 / rc_lookahead=40 / rc=2pass / mbtree=1 / bitrate=12899 / ratetol=1.0 / qcomp=0.60 / qpmin=0 / qpmax=69 / qpstep=4 / cplxblur=20.0 / qblur=0.5 / ip_ratio=1.40 / aq=1:1.00Language : EnglishDefault : YesForced : No
AudioID : 2Format : AC-3Format/Info : Audio Coding 3Mode extension : CM (complete main)Format settings, Endianness : BigCodec ID : A_AC3Duration : 1h 33mnBit rate mode : ConstantBit rate : 448 KbpsChannel(s) : 6 channelsChannel positions : Front: L C R, Side: L R, LFESampling rate : 48.0 KHzBit depth : 16 bitsCompression mode : LossyStream size : 301 MiB (3%)Default : YesForced : No
Menu00:00:00.000 : en:00:00:00.00000:01:20.147 : en:00:01:20.14700:05:48.014 : en:00:05:48.01400:10:45.912 : en:00:10:45.91200:15:14.580 : en:00:15:14.58000:19:01.607 : en:00:19:01.60700:23:49.094 : en:00:23:49.09400:28:29.374 : en:00:28:29.37400:32:50.435 : en:00:32:50.43500:37:20.705 : en:00:37:20.70500:41:30.955 : en:00:41:30.95500:44:09.113 : en:00:44:09.11300:49:03.407 : en:00:49:03.40700:53:22.066 : en:00:53:22.06601:00:28.091 : en:01:00:28.09101:04:15.919 : en:01:04:15.91901:09:05.008 : en:01:09:05.00801:12:57.240 : en:01:12:57.24001:19:00.402 : en:01:19:00.40201:22:29.411 : en:01:22:29.41101:26:58.480 : en:01:26:58.48001:32:55.236 : en:01:32:55.236

Скриншоты


Вне форума [Профиль] [ЛС]
Показать сообщения:    
Ответить на тему

Текущее время: Сегодня 08:41

Часовой пояс: GMT + 3



Вы не можете начинать темы
Вы не можете отвечать на сообщения
Вы не можете редактировать свои сообщения
Вы не можете удалять свои сообщения
Вы не можете голосовать в опросах
Вы не можете прикреплять файлы к сообщениям
Вы не можете скачивать файлы