Today is a free download without charge Download

HDlife: Путешествия / Европа / HDlife: Smart Travels / Europe (2012) HDTV [H.264/1080i] (Часть 2, 14 фильмов)

Reply to topic
 
Author
Message

Clavik ®

Gender:

Longevity: 6 years

Posts: 2189

Location: Украина

Торрент-статистика

Post 06-Oct-2019 22:57

[Quote]

Путешествия / Европа / HDlife: Smart Travels / Europe (2012) HDTV [H.264/1080i] (Часть 2, 14 фильмов) - Производство: США, Small World Productions Inc., Seattle
Жанр: Документальный, история, путешествия
Участники: ведущий: Руди Макса
Описание:
Smart Travels: Европа - от города знаменитой статуи Давида, работы Микеланджело, до неоновых ночных клубов Парижа и уютных деревенских церквей, предлагает лучшие сюжеты о Европе от Руди Максы.
Релиз от: BLUEBIRD
Продолжительность: серии x ~00:26:38
Качество видео: HDTV
Перевод: Одноголосый закадровый, профессиональный (Видеопродакшн)
Субтитры: отсутствуют
Видео: AVC/H.264, 1920x1080, ~6961 Kbps
Аудио: MP2, 2 ch, 192 Kbps

Mediainfo: (тех. данные всех серий идентичны)

Общее
Уникальный идентификатор : 189500215071171598475697112180300249449 (0x8E9069F335BE35AFB9601115E6B0F969)
Полное имя : F:\КИНО\HDLIFE_PART_2_HDTV_BLUEBIRD\Florence.mkv
Формат : Matroska
Версия формата : Version 2
Размер файла : 1,36 Гбайт
Продолжительность : 26 м. 38 с.
Общий поток : 7298 Кбит/сек
Дата кодирования : UTC 2012-05-02 13:11:52
Программа кодирования : mkvmerge v5.5.0 ('Healer') built on Apr 6 2012 21:43:24
Библиотека кодирования : libebml v1.2.3 + libmatroska v1.3.0
Видео
Идентификатор : 1
Формат : AVC
Формат/Информация : Advanced Video Codec
Профиль формата : Main@L4
Настройки формата : CABAC / 4 Ref Frames
Параметр CABAC формата : Да
Параметр RefFrames формата : 4 кадра
Идентификатор кодека : V_MPEG4/ISO/AVC
Продолжительность : 26 м. 38 с.
Битрейт : 6961 Кбит/сек
Ширина : 1920 пикселей
Высота : 1080 пикселей
Соотношение сторон : 16:9
Режим частоты кадров : Постоянный
Частота кадров : 25,000 кадров/сек
Стандарт вещания : Component
Цветовое пространство : YUV
Субдискретизация насыщенности : 4:2:0
Битовая глубина : 8 бит
Тип развёртки : Чересстрочная
Метод сохранения типа развёртки : Раздельные поля
Порядок развёртки : Верхнее поле первое
Бит/(Пиксели*Кадры) : 0.134
Размер потока : 1,30 Гбайт (95%)
Default : Да
Forced : Нет
Цветовой диапазон : Limited
Основные цвета : BT.709
Характеристики трансфера : BT.709
Коэффициенты матрицы : BT.709
Аудио
Идентификатор : 2
Формат : MPEG Audio
Версия формата : Version 1
Профиль формата : Layer 2
Идентификатор кодека : A_MPEG/L2
Идентификатор кодека/Подсказка : MP2
Продолжительность : 26 м. 38 с.
Вид битрейта : Постоянный
Битрейт : 192 Кбит/сек
Каналы : 2 канала
Частота : 48,0 КГц
Метод сжатия : С потерями
Размер потока : 36,6 Мбайт (3%)
Язык : Russian
Default : Да
Forced : Нет

Содержание:

Английская глубинка
Барселона и Коста-Браво
Бельгия
Европа эпохи возрождения
Флоренция
Лондон
Голландия и Амстердам
Копенгаген и Дания
Мадрид
Мюнхен и Бавария
Париж
Рим
Прованс
Города-крепости Тосканы и Умбрии
Скриншоты:
       

_________________


Other forum [Profile] [PM]
Display posts from previous:    
Reply to topic

The time now is: Today 03:53

All times are GMT + 3 Hours



You cannot post new topics in this forum
You cannot reply to topics in this forum
You cannot edit your posts in this forum
You cannot delete your posts in this forum
You cannot vote in polls in this forum
You cannot attach files in this forum
You cannot download files in this forum