Today is a free download without charge Download

Мистериум. Охотники на фазанов / Fasandraeberne (2014) BDRip [H.264/720p]

Reply to topic
DL-List and Torrent activity
Size:  4.26 GB   |    Registered:  12 days   |    Completed:  0 times

Seeder not seen: Never

 
 
 
 
 
Author
Message

Clavik ®

Gender:

Longevity: 6 years

Posts: 2189

Location: Украина

Торрент-статистика

Post 06-Oct-2019 20:22

[Quote]

Мистериум. Охотники на фазанов / Fasandraeberne (2014) BDRip [H.264/720p] - Производство: Дания, Германия, Швеция / Film i Väst, Zentropa Entertainments
Жанр: триллер, детектив, криминал
Режиссер: Миккель Нёргор
Актеры: Николай Ли Каас, Фарес Фарес, Йохан Филип Асбек, Давид Денсик, Даница Чурчич, Сара-Софи Бусснина, Джохэнн Луиз Шмидт, Марко Ильсё, Беате Билле, Питер Кристофферсен
Описание:
В 1994 году двое подростков-близнецов были найдены зверски убитыми в летнем загородном доме. Ряд фактов указывал на причастность к делу группы студентов, но расследование было прекращено, после того как местный отшельник признал себя виновным.
20 лет спустя это дело попадает на стол Карла Мёрка, который начинает подозревать, что в нём что-то не сходится.

Возраст: 18+ (зрителям, достигшим 18 лет. запрещено для детей)
Продолжительность: 01:59:40
Качество видео: BDRip
Перевод: Многоголосый профессиональный, одноголосый авторский
Субтитры: русские (полные), английские (полные), датские (полные)
Видео: AVC/H.264, 1280х544, ~3,5 Mbps
Аудио #1: AC3, 2 ch, 192 kbps - русский (MVO, Позитив)
Аудио #2: AC3, 6 ch, 640 kbps - русский (AVO, А. Алексеев)
Аудио #3: DTS, 6 ch, 768 kbps - датский

MediaInfo:

x264 info: frame I:1446  Avg QP:11.02  size:104758
x264 info: frame P:36345 Avg QP:12.81 size: 37636
x264 info: frame B:134563 Avg QP:14.49 size: 11954
Unique ID : 142026644364059275218286438753802280705 (0x6AD95633D1099125B7D66F9D16525F01)
Complete name : D:\Temp\NNM\Мистериум. Охотники на фазанов.2014.720p.mkv
Format : Matroska
Format version : Version 4 / Version 2
File size : 4.26 GiB
Duration : 1h 59mn
Overall bit rate : 5 095 Kbps
Movie name : Fasandraeberne (2014)
Writing library : Lavf57.71.100
Video
ID : 1
Format : AVC
Format/Info : Advanced Video Codec
Format profile : [url=mailto:High@L4.1]High@L4.1[/url]
Format settings, CABAC : Yes
Format settings, ReFrames : 12 frames
Codec ID : V_MPEG4/ISO/AVC
Duration : 1h 59mn
Bit rate : 3 500 Kbps
Width : 1 280 pixels
Height : 544 pixels
Display aspect ratio : 2.35:1
Frame rate mode : Constant
Frame rate : 24.000 fps
Color space : YUV
Chroma subsampling : 4:2:0
Bit depth : 8 bits
Scan type : Progressive
Bits/(Pixel*Frame) : 0.209
Stream size : 2.84 GiB (67%)
Writing library : x264 core 157 r2935 545de2f
Encoding settings : cabac=1 / ref=12 / deblock=1:-3:-3 / analyse=0x3:0x133 / me=umh / subme=9 / psy=1 / psy_rd=1.05:0.10 / mixed_ref=1 / me_range=24 / chroma_me=1 / trellis=2 / 8x8dct=1 / cqm=0 / deadzone=21,11 / fast_pskip=0 / chroma_qp_offset=-3 / threads=5 / lookahead_threads=1 / sliced_threads=0 / nr=0 / decimate=0 / interlaced=0 / bluray_compat=0 / constrained_intra=0 / bframes=9 / b_pyramid=2 / b_adapt=2 / b_bias=0 / direct=1 / weightb=1 / open_gop=0 / weightp=2 / keyint=240 / keyint_min=24 / scenecut=40 / intra_refresh=0 / rc=2pass / mbtree=0 / bitrate=3500 / ratetol=1.0 / qcomp=0.70 / qpmin=3 / qpmax=69 / qpstep=4 / cplxblur=20.0 / qblur=0.5 / ip_ratio=1.40 / pb_ratio=1.30 / aq=2:1.00
Language : Danish
Default : Yes
Forced : No
Audio #1
ID : 2
Format : AC-3
Format/Info : Audio Coding 3
Mode extension : CM (complete main)
Format settings, Endianness : Big
Codec ID : A_AC3
Duration : 1h 59mn
Bit rate mode : Constant
Bit rate : 192 Kbps
Channel(s) : 2 channels
Channel positions : Front: L R
Sampling rate : 48.0 KHz
Bit depth : 16 bits
Compression mode : Lossy
Stream size : 164 MiB (4%)
Title : MVO
Language : Russian
Default : Yes
Forced : No
Audio #2
ID : 3
Format : AC-3
Format/Info : Audio Coding 3
Mode extension : CM (complete main)
Format settings, Endianness : Big
Codec ID : A_AC3
Duration : 1h 59mn
Bit rate mode : Constant
Bit rate : 640 Kbps
Channel(s) : 6 channels
Channel positions : Front: L C R, Side: L R, LFE
Sampling rate : 48.0 KHz
Bit depth : 16 bits
Compression mode : Lossy
Stream size : 548 MiB (13%)
Title : AVO
Language : Russian
Default : No
Forced : No
Audio #3
ID : 4
Format : DTS
Format/Info : Digital Theater Systems
Mode : 16
Format settings, Endianness : Big
Codec ID : A_DTS
Duration : 1h 59mn
Bit rate mode : Constant
Bit rate : 768 Kbps
Channel(s) : 6 channels
Channel positions : Front: L C R, Side: L R, LFE
Sampling rate : 48.0 KHz
Bit depth : 16 bits
Compression mode : Lossy
Stream size : 657 MiB (15%)
Title : original
Language : Danish
Default : No
Forced : No
Text #1
ID : 5
Format : UTF-8
Codec ID : S_TEXT/UTF8
Codec ID/Info : UTF-8 Plain Text
Title : full
Language : Russian
Default : Yes
Forced : No
Text #2
ID : 6
Format : UTF-8
Codec ID : S_TEXT/UTF8
Codec ID/Info : UTF-8 Plain Text
Title : full
Language : English
Default : No
Forced : No
Text #3
ID : 7
Format : UTF-8
Codec ID : S_TEXT/UTF8
Codec ID/Info : UTF-8 Plain Text
Title : full
Language : Danish
Default : No
Forced : No
Menu
00:00:00.000 : :Chapter 01
00:10:00.000 : :Chapter 02
00:19:59.625 : :Chapter 03
00:29:59.790 : :Chapter 04
00:39:59.625 : :Chapter 05
00:49:59.791 : :Chapter 06
00:59:59.583 : :Chapter 07
01:09:59.916 : :Chapter 08
01:20:00.000 : :Chapter 09
01:30:00.000 : :Chapter 10
01:39:59.541 : :Chapter 11
01:49:59.791 : :Chapter 12
01:59:40.416 : :Chapter 13
Скриншоты:
       
[darkos.club].t337794.torrent 
Torrent: Registered   [ 2019-10-06 20:22 ]

Download

22 KB

Воспроизвести онлайн

Status: checked
Completed: 0 times
Size: 4.26 GB, InfoHash (Google it!)
Score:  - (vote: 0)
Default: 0  Thank you
 

_________________


Other forum [Profile] [PM]
Display posts from previous:    
Reply to topic

The time now is: Today 03:54

All times are GMT + 3 Hours



You cannot post new topics in this forum
You cannot reply to topics in this forum
You cannot edit your posts in this forum
You cannot delete your posts in this forum
You cannot vote in polls in this forum
You cannot attach files in this forum
You can download files in this forum