Today is a free download without charge Download

Знахарь (2018) HDTVRip [H.264/720p-LQ] (сезон 1, серии 1-16 из 16)

Reply to topic
 
Author
Message

Clavik ®

Gender:

Longevity: 6 years

Posts: 2189

Location: Украина

Торрент-статистика

Post 04-Oct-2019 10:23

[Quote]

Знахарь (2018) HDTVRip [H.264/720p-LQ] (сезон 1, серии 1-16 из 16)- Производство: Россия | Кинокомпания «Shark»,"ПРО-СИНЕМА продакшн"
Жанр: драма, мелодрама
Режиссер: Ярослав Мочалов
Актеры: Даниил Страхов, Екатерина Кузнецова, Николай Иванов, Владимир Матвеев, Сергей Колос, Павел Чинарёв, Светлана Смирнова-Марцинкевич, Андрей Ташков, Юрий Ицков, Валерий Гришко и др.
Описание:
Талантливый нейрохирург Павел Андреев возвращается в Петербург после учебы зарубежом и устраивается работать в отделение больницы, начальник которого — его бывший учитель. Не все в больнице рады внезапному появлению Павла — его главным конкурентом становится бывший однокурсник Сергей Стрельников. Вне работы жизнь Павла также складывается непросто. Начальник, Николай Семенов, просит его провести сложную операцию и удалить запущенную опухоль. В это же время у Андреева начинается роман с дочерью Семенова. Всю жизнь Андреева переворачивает несчастный случай, в результате которого он теряет память, но не способность помогать людям.

Возраст: 16+ (зрителям, достигшим 16 лет)
Дата российской премьеры: 23 сентября 2019
Продолжительность: ~00:50:00 серия
Качество видео: HDTVRip
Видео: AVC/H.264, 1280x720 (16:9), ~3500 Kbps
Аудио: AC3, 2 ch, 192 kbps

MediaInfo:

General
Unique ID : 203449359386900910133743063374448361475 (0x990EEBDD0059C40BB471C5E0A74D0003)
Complete name : D:\Знахарь_S01_2018_HDTVRip_720p\Знахарь_S01_2018_HDTVRip_720p_01.mkv
Format : Matroska
Format version : Version 2
File size : 1.31 GiB
Duration : 50 min 36 s
Overall bit rate : 3 693 kb/s
Encoded date : UTC 2019-09-23 16:53:19
Writing application : mkvmerge v7.8.0 ('River Man') 32bit built on Apr 3 2015 12:11:22
Writing library : libebml v1.3.1 + libmatroska v1.4.2
Video
ID : 1
Format : AVC
Format/Info : Advanced Video Codec
Format profile : [url=mailto:High@L4.1]High@L4.1[/url]
Format settings : CABAC / 9 Ref Frames
Format settings, CABAC : Yes
Format settings, ReFrames : 9 frames
Codec ID : V_MPEG4/ISO/AVC
Duration : 50 min 36 s
Bit rate : 3 500 kb/s
Width : 1 280 pixels
Height : 720 pixels
Display aspect ratio : 16:9
Frame rate mode : Constant
Frame rate : 25.000 FPS
Color space : YUV
Chroma subsampling : 4:2:0
Bit depth : 8 bits
Scan type : Progressive
Bits/(Pixel*Frame) : 0.152
Stream size : 1.21 GiB (93%)
Writing library : x264 core 146 r2538 121396c
Encoding settings : cabac=1 / ref=9 / deblock=1:-2:-1 / analyse=0x3:0x113 / me=umh / subme=9 / psy=1 / psy_rd=1.00:0.15 / mixed_ref=1 / me_range=32 / chroma_me=1 / trellis=2 / 8x8dct=1 / cqm=0 / deadzone=21,11 / fast_pskip=0 / chroma_qp_offset=-3 / threads=18 / lookahead_threads=3 / sliced_threads=0 / nr=0 / decimate=1 / interlaced=0 / bluray_compat=0 / constrained_intra=0 / bframes=9 / b_pyramid=2 / b_adapt=2 / b_bias=0 / direct=1 / weightb=1 / open_gop=0 / weightp=2 / keyint=250 / keyint_min=25 / scenecut=40 / intra_refresh=0 / rc_lookahead=40 / rc=2pass / mbtree=0 / bitrate=3500 / ratetol=1.0 / qcomp=0.60 / qpmin=0 / qpmax=69 / qpstep=4 / cplxblur=20.0 / qblur=0.5 / vbv_maxrate=14000 / vbv_bufsize=14000 / nal_hrd=none / filler=0 / ip_ratio=1.40 / pb_ratio=1.30 / aq=2:1.00
Default : Yes
Forced : No
Color range : Limited
Color primaries : BT.709
Transfer characteristics : BT.709
Matrix coefficients : BT.709
Audio
ID : 2
Format : AC-3
Format/Info : Audio Coding 3
Commercial name : Dolby Digital
Codec ID : A_AC3
Duration : 50 min 36 s
Bit rate mode : Constant
Bit rate : 192 kb/s
Channel(s) : 2 channels
Channel layout : L R
Sampling rate : 48.0 kHz
Frame rate : 31.250 FPS (1536 SPF)
Bit depth : 16 bits
Compression mode : Lossy
Stream size : 69.5 MiB (5%)
Service kind : Complete Main
Default : Yes
Forced : No
Скриншоты:
       

_________________


Other forum [Profile] [PM]
Display posts from previous:    
Reply to topic

The time now is: Today 03:54

All times are GMT + 3 Hours



You cannot post new topics in this forum
You cannot reply to topics in this forum
You cannot edit your posts in this forum
You cannot delete your posts in this forum
You cannot vote in polls in this forum
You cannot attach files in this forum
You cannot download files in this forum