Today is a free download without charge Download

Тёмный кристалл: Эпоха сопротивления / The Dark Crystal: Age of Resistance (2019) WEB-DLRip [H.264/720p-LQ] (сезон 1, серии 1-10 из 10) Пифагор

Reply to topic
 
Author
Message

Clavik ®

Gender:

Longevity: 5 years 11 months

Posts: 1957

Location: Украина

Торрент-статистика

Post 01-Sep-2019 23:34

[Quote]

Тёмный кристалл: Эпоха сопротивления / The Dark Crystal: Age of Resistance (2019) WEB-DLRip - Производство: Великобритания, США / Jim Henson Company, The, NetFlix
Жанр: Фэнтези, Приключения
Режиссер: Луи Летерье
Актеры: Аквафина, Катрина Балф, Хелена Бонем Картер, Уоррик Броунлоу-Пайк, Дэйв Чэпман, Чарли Кондо, Харрис Дикинсон, Элис Диннеан, Натали Дормер, Тэрон Эджертон и др.
Описание:
Гелфлинги Райан, Бриа и Дит выясняют, что зловещие скексисы повредили волшебный кристалл, подпитывающий жизнь в мире. Именно благодаря им начинается восстание, способное уничтожить жестоких захватчиков.
Действие сериала разворачивается за несколько лет до событий фильма 1982 года «Тёмный кристалл».

Продолжительность: ~ 01:00:00 серия
Качество видео: WEB-DLRip
Перевод: Дублированный (Пифагор)
Субтитры: русские, английские
Реклама: отсутствует
Видео: AVC/H.264, 1280x576, ~4230 kbps
Аудио 1: AC3, 6 ch, 640 kbps - русский
Аудио 2: AC3, 6 ch, 640 kbps - английский

MediaInfo:

General
Unique ID : 237303084369359213353334041915291501677 (0xB286E95F28595C738B119140600E846D)
Complete name : 01. Конец. Начало. Всё равно.mkv
Format : Matroska
Format version : Version 4
File size : 2.37 GiB
Duration : 1 h 1 min
Overall bit rate : 5 541 kb/s
Movie name : End. Begin. All the Same
Encoded date : UTC 2019-09-01 09:46:11
Writing application : mkvmerge v8.3.0 ('Over the Horizon') 32bit
Writing library : libebml v1.3.1 + libmatroska v1.4.2
Video
ID : 1
Format : AVC
Format/Info : Advanced Video Codec
Format profile : [url=mailto:High@L3.1]High@L3.1[/url]
Format settings : CABAC / 2 Ref Frames
Format settings, CABAC : Yes
Format settings, Reference : 2 frames
Format settings, GOP : M=3, N=46
Codec ID : V_MPEG4/ISO/AVC
Duration : 1 h 1 min
Bit rate mode : Constant
Bit rate : 4 230 kb/s
Width : 1 280 pixels
Height : 576 pixels
Display aspect ratio : 2.222
Frame rate mode : Constant
Frame rate : 23.976 (23976/1000) FPS
Original frame rate : 23.000 FPS
Color space : YUV
Chroma subsampling : 4:2:0
Bit depth : 8 bits
Scan type : Progressive
Bits/(Pixel*Frame) : 0.239
Stream size : 1.82 GiB (77%)
Default : Yes
Forced : No
Audio #1
ID : 2
Format : AC-3
Format/Info : Audio Coding 3
Commercial name : Dolby Digital
Codec ID : A_AC3
Duration : 1 h 1 min
Bit rate mode : Constant
Bit rate : 640 kb/s
Channel(s) : 6 channels
Channel layout : L R C LFE Ls Rs
Sampling rate : 48.0 kHz
Frame rate : 31.250 FPS (1536 SPF)
Bit depth : 16 bits
Compression mode : Lossy
Stream size : 280 MiB (12%)
Title : Dub
Language : Russian
Service kind : Complete Main
Default : Yes
Forced : No
Audio #2
ID : 3
Format : AC-3
Format/Info : Audio Coding 3
Commercial name : Dolby Digital
Codec ID : A_AC3
Duration : 1 h 1 min
Bit rate mode : Constant
Bit rate : 640 kb/s
Channel(s) : 6 channels
Channel layout : L R C LFE Ls Rs
Sampling rate : 48.0 kHz
Frame rate : 31.250 FPS (1536 SPF)
Bit depth : 16 bits
Compression mode : Lossy
Stream size : 280 MiB (12%)
Language : English
Service kind : Complete Main
Default : No
Forced : No
Text #1
ID : 4
Format : UTF-8
Codec ID : S_TEXT/UTF8
Codec ID/Info : UTF-8 Plain Text
Duration : 59 min 42 s
Bit rate : 74 b/s
Count of elements : 746
Stream size : 32.5 KiB (0%)
Language : Russian
Default : No
Forced : No
Text #2
ID : 5
Format : UTF-8
Codec ID : S_TEXT/UTF8
Codec ID/Info : UTF-8 Plain Text
Duration : 58 min 27 s
Bit rate : 68 b/s
Count of elements : 1049
Stream size : 29.2 KiB (0%)
Language : English
Default : No
Forced : No
Скриншоты:
       

_________________


Other forum [Profile] [PM]
Display posts from previous:    
Reply to topic

The time now is: Today 06:52

All times are GMT + 3 Hours



You cannot post new topics in this forum
You cannot reply to topics in this forum
You cannot edit your posts in this forum
You cannot delete your posts in this forum
You cannot vote in polls in this forum
You cannot attach files in this forum
You cannot download files in this forum