Today is a free download without charge Download

Королевский корги / The Queen's Corgi (Винсент Кестелут, Бен Стассен) [2019 г., мультфильм, комедия, семейный, BDRip 1080p] [HEVC] | DUB (iTunes)

Reply to topic
 
Author
Message

Theseus ®

Gender:

Longevity: 8 years 4 months

Posts: 2053

Торрент-статистика

Post 07-Aug-2019 21:22

[Quote]

Королевский корги / The Queen's Corgi- Год выхода: 2019
Страна: Бельгия
Жанр: мультфильм, комедия, семейный
Продолжительность: 01:25:17
Перевод Профессиональный (дублированный) | iTunes
Субтитры: Русские, Английские-Режиссер: Винсент Кестелут, Бен Стассен-В ролях: Расти Шэклфорд, Джо Уайатт, Leo Barakat, Джейн Алан, Дино Андраде, Джои Камен, Николь Шерман, Кирк Торнтон, Мэдисон Браун, Камила Родс-О фильме: Любимая порода собак у очень богатых и влиятельных людей — это корги. Маленькие собачки полностью погружены в жизнь своих больших хозяев. Спасаясь от политических интриг, любимец Британской Королевы вынужден покинуть Букингемский дворец. Теперь ему предстоит не только познакомиться с тайной жизнью улиц Лондона, но и доказать, что он настоящий Королевский Корги…- -Качество: BDRip 1080p
Формат: MKV
Видео кодек: H.265
Аудио кодек: AC3, DTS
Видео: HEVC, 1920x1080 (16:9), 24.000 fps, 6 734 kb/s, 10 bit
Аудио 1: AC3, 48.0 kHz, 6 ch, 384 Kbps | RUS (iTunes)
Аудио 2: AC3, 48.0 kHz, 6 ch, 384 Kbps | UKR (iTunes)
Аудио 3: DTS, 48.0 kHz, 6 ch, 1509 Kbps | ENG (Оригинал)-

MI

Код:
General
Unique ID                                : 248758910947048098503879604387663494447 (0xBB25393ABE634ECE806CA7ECC44ABD2F)
Complete name                            : The Queens Corgi.(2019).BDRip.1080p.HEVC.mkv
Format                                   : Matroska
Format version                           : Version 4
File size                                : 5.37 GiB
Duration                                 : 1 h 25 min
Overall bit rate                         : 9 013 kb/s
Encoded date                             : UTC 2019-08-07 12:53:01
Writing application                      : mkvmerge v8.3.0 ('Over the Horizon') 64bit
Writing library                          : libebml v1.3.1 + libmatroska v1.4.2
Video
ID                                       : 1
Format                                   : HEVC
Format/Info                              : High Efficiency Video Coding
Format profile                           : Main 10@L4.1@High
Codec ID                                 : V_MPEGH/ISO/HEVC
Duration                                 : 1 h 25 min
Bit rate                                 : 6 734 kb/s
Width                                    : 1 920 pixels
Height                                   : 1 080 pixels
Display aspect ratio                     : 16:9
Frame rate mode                          : Constant
Frame rate                               : 24.000 FPS
Color space                              : YUV
Chroma subsampling                       : 4:2:0
Bit depth                                : 10 bits
Bits/(Pixel*Frame)                       : 0.135
Stream size                              : 4.01 GiB (75%)
Language                                 : English
Default                                  : Yes
Forced                                   : No
Color range                              : Limited
Color primaries                          : BT.709
Transfer characteristics                 : BT.709
Matrix coefficients                      : BT.709
Audio #1
ID                                       : 2
Format                                   : AC-3
Format/Info                              : Audio Coding 3
Commercial name                          : Dolby Digital
Codec ID                                 : A_AC3
Duration                                 : 1 h 25 min
Bit rate mode                            : Constant
Bit rate                                 : 384 kb/s
Channel(s)                               : 6 channels
Channel layout                           : L R C LFE Ls Rs
Sampling rate                            : 48.0 kHz
Frame rate                               : 31.250 FPS (1536 SPF)
Bit depth                                : 16 bits
Compression mode                         : Lossy
Stream size                              : 234 MiB (4%)
Title                                    : DUB (iTunes)
Language                                 : Russian
Default                                  : Yes
Forced                                   : No
Audio #2
ID                                       : 3
Format                                   : AC-3
Format/Info                              : Audio Coding 3
Commercial name                          : Dolby Digital
Codec ID                                 : A_AC3
Duration                                 : 1 h 25 min
Bit rate mode                            : Constant
Bit rate                                 : 384 kb/s
Channel(s)                               : 6 channels
Channel layout                           : L R C LFE Ls Rs
Sampling rate                            : 48.0 kHz
Frame rate                               : 31.250 FPS (1536 SPF)
Bit depth                                : 16 bits
Compression mode                         : Lossy
Stream size                              : 234 MiB (4%)
Title                                    : DUB  (iTunes)
Language                                 : Ukrainian
Default                                  : No
Forced                                   : No
Audio #3
ID                                       : 4
Format                                   : DTS
Format/Info                              : Digital Theater Systems
Codec ID                                 : A_DTS
Duration                                 : 1 h 25 min
Bit rate mode                            : Constant
Bit rate                                 : 1 509 kb/s
Channel(s)                               : 6 channels
Channel layout                           : C L R Ls Rs LFE
Sampling rate                            : 48.0 kHz
Frame rate                               : 93.750 FPS (512 SPF)
Bit depth                                : 16 bits
Compression mode                         : Lossy
Stream size                              : 920 MiB (17%)
Language                                 : English
Default                                  : No
Forced                                   : No
Text #1
ID                                       : 5
Format                                   : UTF-8
Codec ID                                 : S_TEXT/UTF8
Codec ID/Info                            : UTF-8 Plain Text
Duration                                 : 1 h 20 min
Bit rate                                 : 90 b/s
Count of elements                        : 953
Stream size                              : 53.4 KiB (0%)
Title                                    : Full
Language                                 : Russian
Default                                  : No
Forced                                   : No
Text #2
ID                                       : 6
Format                                   : UTF-8
Codec ID                                 : S_TEXT/UTF8
Codec ID/Info                            : UTF-8 Plain Text
Duration                                 : 1 h 18 min
Bit rate                                 : 56 b/s
Count of elements                        : 999
Stream size                              : 32.6 KiB (0%)
Title                                    : Full
Language                                 : English
Default                                  : No
Forced                                   : No
Menu
00:00:00.000                             : en:Chapter 01
00:07:42.333                             : en:Chapter 02
00:14:50.708                             : en:Chapter 03
00:22:13.375                             : en:Chapter 04
00:29:44.458                             : en:Chapter 05
00:35:05.458                             : en:Chapter 06
00:40:40.000                             : en:Chapter 07
00:48:05.000                             : en:Chapter 08
00:55:05.667                             : en:Chapter 09
01:03:00.542                             : en:Chapter 10
01:10:06.083                             : en:Chapter 11
01:16:11.792                             : en:Chapter 12

Трейлер

-     - -

_________________
Other forum [Profile] [PM]
Similar theme
Forum Topic Author Torrent Replies Last Post
./templates/default/images/folder_dl.gif Новинки (HD|DVD|BD|WEB|TV|SAT|PDTV|-Rip) Годзилла 2: Король монстров / Godzilla: King of the Monsters (Майкл Догерти) [2019 г., Фантастика, фэнтези, боевик, приключения, WEBRip] | DUB (Чистый звук) Theseus
1 | 0

0 | 1400

0

2019-07-27 22:07
Theseus Latest
./templates/default/images/folder_dl.gif RPG The Witcher 2: Assassins of Kings / Ведьмак 2: Убийцы королей (2012) [Ru/Multi] (3.5.0.26a) License GOG [Enhanced Edition] Clavik
1 | 0

0 | 486

0

2019-09-27 17:36
Clavik Latest
Display posts from previous:    
Reply to topic

The time now is: Today 10:13

All times are GMT + 3 Hours



You cannot post new topics in this forum
You cannot reply to topics in this forum
You cannot edit your posts in this forum
You cannot delete your posts in this forum
You cannot vote in polls in this forum
You cannot attach files in this forum
You cannot download files in this forum