Today is a free download without charge Download

Оверлорд / Overlord (Джулиус Эйвери) [2018, ужасы, фантастика, боевик, детектив, приключения, военный, WEB-DL 1080p] | DUB (Чистый звук)

Reply to topic
 
Author
Message

Theseus ®

Gender:

Longevity: 8 years

Posts: 2019

Торрент-статистика

Post 03-Feb-2019 21:35

[Quote]

Оверлорд / Overlord- Год выхода: 2018
Страна: США, Канада
Жанр: ужасы, фантастика, боевик, детектив, приключения, военный
Продолжительность: 01:50:19
Перевод: Профессиональный (полное дублирование) [Чистый звук]
Субтитры: Отсутствуют-Режиссер: Джулиус Эйвери-В ролях: Джован Адепо, Уайатт Рассел, Матильда Олливье, Йохан Филип Асбек, Джон Магаро, Йен де Кестекер, Джейкоб Андерсон, Доминик Эпплуайт, Джанни Тофер, Джозеф Куинн-О фильме: Накануне высадки союзников в Нормандии два американских десантника проникают в оккупированный немцами посёлок, чтобы разрушить их радиомачту. Лазутчикам предстоит столкнуться не только с фашистскими военными, но и с паранормальными последствиями нацистских экспериментов.- -Качество: WEB-DL 1080p
Формат: MKV
Видео кодек: x.264
Аудио кодек: AC3
Видео: AVC, 1912x792 (2.40:1), 23.976 fps, 6 095 kb/s
Аудио: AC-3, 48.0 kHz, 2 ch, 384 kb/s-Сэмпл-Видео реклама вырезана , присутствует звуковая и тестовая реклама-

MediaInfo

General
Unique ID : 216408425951062915205898013881969648668 (0xA2CEBF2CB0FCC0BC88F91618FD1FA41C)
Complete name : Overlord.2O18.D.WEB-DL.1O8Op.mkv
Format : Matroska
Format version : Version 4
File size : 4.99 GiB
Duration : 1 h 50 min
Overall bit rate mode : Variable
Overall bit rate : 6 481 kb/s
Encoded date : UTC 2019-02-03 17:04:19
Writing application : mkvmerge v8.3.0 ('Over the Horizon') 64bit
Writing library : libebml v1.3.1 + libmatroska v1.4.2
Video
ID : 1
Format : AVC
Format/Info : Advanced Video Codec
Format profile : High@L4.1
Format settings : CABAC / 4 Ref Frames
Format settings, CABAC : Yes
Format settings, ReFrames : 4 frames
Codec ID : V_MPEG4/ISO/AVC
Duration : 1 h 50 min
Bit rate mode : Variable
Bit rate : 6 095 kb/s
Maximum bit rate : 6 800 kb/s
Width : 1 912 pixels
Height : 792 pixels
Display aspect ratio : 2.40:1
Frame rate mode : Constant
Frame rate : 23.976 (24000/1001) FPS
Standard : Component
Color space : YUV
Chroma subsampling : 4:2:0
Bit depth : 8 bits
Scan type : Progressive
Bits/(Pixel*Frame) : 0.168
Stream size : 4.70 GiB (94%)
Default : Yes
Forced : No
Color range : Limited
Color primaries : BT.709
Transfer characteristics : BT.709
Matrix coefficients : BT.709
Audio
ID : 2
Format : AC-3
Format/Info : Audio Coding 3
Commercial name : Dolby Digital
Codec ID : A_AC3
Duration : 1 h 50 min
Bit rate mode : Constant
Bit rate : 384 kb/s
Channel(s) : 2 channels
Channel layout : L R
Sampling rate : 48.0 kHz
Frame rate : 31.250 FPS (1536 SPF)
Bit depth : 16 bits
Compression mode : Lossy
Stream size : 303 MiB (6%)
Service kind : Complete Main
Default : Yes
Forced : No

Трейлер

-     - -

_________________
Other forum [Profile] [PM]
Display posts from previous:    
Reply to topic

The time now is: Today 19:00

All times are GMT + 3 Hours



You cannot post new topics in this forum
You cannot reply to topics in this forum
You cannot edit your posts in this forum
You cannot delete your posts in this forum
You cannot vote in polls in this forum
You cannot attach files in this forum
You cannot download files in this forum