Today is a free download without charge Download

Веном / Venom (Рубен Фляйшер) [2018 г., ужасы, фантастика, боевик, триллер, BDRip 1080p] 3D | halfOU | DUB

Reply to topic
 
Author
Message

Theseus ®

Gender:

Longevity: 7 years 11 months

Posts: 2019

Торрент-статистика

Post 10-Jan-2019 18:59

[Quote]

Веном / Venom- Год выхода: 2018
Страна: США, Китай
Жанр: ужасы, фантастика, боевик, триллер
Продолжительность: 01:52:08
Перевод 1: Профессиональный (полное дублирование) [Лицензия Blu-ray EUR/RUS]
Перевод 2: Профессиональный (полное дублирование) [Лицензия Blu-ray EUR/UKR]
Субтитры: Русские, украинские, английские (+ внешние)-Режиссер: Рубен Фляйшер-В ролях: Том Харди, Мишель Уильямс, Марчелла Браджио, Вуди Харрельсон, Дженни Слейт, Риз Ахмед, Мак Брандт, Рон Сепас Джонс, Мишель Ли, Мелора Уолтерс-О фильме: Что если в один прекрасный день в тебя вселяется существо-симбиот, которое наделяет тебя сверхчеловеческими способностями? Вот только Веном — симбиот совсем недобрый, и договориться с ним невозможно. Хотя нужно ли договариваться?.. Ведь в какой-то момент ты понимаешь, что быть плохим вовсе не так уж и плохо. Так даже веселее. В мире и так слишком много супергероев! Мы — Веном!- -Качество: BDRip 1080p
Формат: MKV
Видео кодек: H.264
Аудио кодек: AC3
Видео: MPEG-4 AVC, 1920x1080, 23.976 fps, 10 Mbps
Аудио 1: 48 kHz, AC3, 6 ch, 640 kbps | RUS [DUB]
Аудио 2: 48 kHz, AC3, 6 ch, 640 kbps | UKR [DUB]
Аудио 3: 48 kHz, AC3, 6 ch, 640 kbps | ENG
Формат 3D: Half OverUnder / Вертикальная анаморфная стереопара
Порядок ракурсов: левый ракурс первый-

MediaInfo

General
Unique ID : 242818508797739516436324723320593424760 (0xB6AD24CA793EE9AA8B2D42729A11A178)
Complete name : Venom(2018)3D-halfOU(Ash61).mkv
Format : Matroska
Format version : Version 2
File size : 9.36 GiB
Duration : 1h 52mn
Overall bit rate : 11.9 Mbps
Movie name : Веном / Venom (2018) in 3D
Encoded date : UTC 2019-01-05 15:53:33
Writing application : mkvmerge v5.8.0 ('No Sleep / Pillow') built on Sep 2 2012 15:37:04
Writing library : libebml v1.2.3 + libmatroska v1.3.0
Video
ID : 1
Format : AVC
Format/Info : Advanced Video Codec
Format profile : High@L4.1
Format settings, CABAC : Yes
Format settings, ReFrames : 4 frames
Codec ID : V_MPEG4/ISO/AVC
Duration : 1h 52mn
Bit rate : 10 000 Kbps
Width : 1 920 pixels
Height : 1 080 pixels
Display aspect ratio : 16:9
Frame rate mode : Constant
Frame rate : 23.976 (24000/1001) fps
Color space : YUV
Chroma subsampling : 4:2:0
Bit depth : 8 bits
Scan type : Progressive
Bits/(Pixel*Frame) : 0.201
Stream size : 7.66 GiB (82%)
Title : BDRip by Ash61
Writing library : x264 core 146 r2538 121396c
Encoding settings : cabac=1 / ref=4 / deblock=1:-3:-3 / analyse=0x3:0x113 / me=umh / subme=10 / psy=1 / psy_rd=1.00:0.00 / mixed_ref=1 / me_range=32 / chroma_me=1 / trellis=2 / 8x8dct=1 / cqm=0 / deadzone=21,11 / fast_pskip=0 / chroma_qp_offset=-2 / threads=12 / lookahead_threads=2 / sliced_threads=0 / nr=0 / decimate=0 / interlaced=0 / bluray_compat=0 / constrained_intra=0 / bframes=9 / b_pyramid=2 / b_adapt=2 / b_bias=0 / direct=3 / weightb=1 / open_gop=0 / weightp=2 / keyint=250 / keyint_min=23 / scenecut=40 / intra_refresh=0 / rc_lookahead=60 / rc=2pass / mbtree=0 / bitrate=10000 / ratetol=1.0 / qcomp=0.70 / qpmin=0 / qpmax=69 / qpstep=4 / cplxblur=20.0 / qblur=0.5 / vbv_maxrate=40000 / vbv_bufsize=30000 / nal_hrd=none / filler=0 / frame-packing=4 / ip_ratio=1.40 / pb_ratio=1.30 / aq=1:0.70
Language : English
Default : Yes
Forced : No
Audio #1
ID : 2
Format : AC-3
Format/Info : Audio Coding 3
Mode extension : CM (complete main)
Format settings, Endianness : Big
Codec ID : A_AC3
Duration : 1h 52mn
Bit rate mode : Constant
Bit rate : 640 Kbps
Channel(s) : 6 channels
Channel positions : Front: L C R, Side: L R, LFE
Sampling rate : 48.0 KHz
Frame rate : 31.250 fps (1536 spf)
Compression mode : Lossy
Stream size : 514 MiB (5%)
Title : Дубляж (BD CEE)
Language : Russian
Default : Yes
Forced : No
Audio #2
ID : 3
Format : AC-3
Format/Info : Audio Coding 3
Mode extension : CM (complete main)
Format settings, Endianness : Big
Codec ID : A_AC3
Duration : 1h 52mn
Bit rate mode : Constant
Bit rate : 640 Kbps
Channel(s) : 6 channels
Channel positions : Front: L C R, Side: L R, LFE
Sampling rate : 48.0 KHz
Frame rate : 31.250 fps (1536 spf)
Compression mode : Lossy
Stream size : 514 MiB (5%)
Title : Дубляж (BD CEE)
Language : Ukrainian
Default : No
Forced : No
Audio #3
ID : 4
Format : AC-3
Format/Info : Audio Coding 3
Mode extension : CM (complete main)
Format settings, Endianness : Big
Codec ID : A_AC3
Duration : 1h 52mn
Bit rate mode : Constant
Bit rate : 640 Kbps
Channel(s) : 6 channels
Channel positions : Front: L C R, Side: L R, LFE
Sampling rate : 48.0 KHz
Frame rate : 31.250 fps (1536 spf)
Compression mode : Lossy
Stream size : 514 MiB (5%)
Title : Original
Language : English
Default : No
Forced : No
Text #1
ID : 5
Format : UTF-8
Codec ID : S_TEXT/UTF8
Codec ID/Info : UTF-8 Plain Text
Title : Форсированные [ver.Ash61]
Language : Russian
Default : Yes
Forced : No
Text #2
ID : 6
Format : UTF-8
Codec ID : S_TEXT/UTF8
Codec ID/Info : UTF-8 Plain Text
Title : Полные (BD 3D CEE)
Language : Russian
Default : No
Forced : No
Text #3
ID : 7
Format : UTF-8
Codec ID : S_TEXT/UTF8
Codec ID/Info : UTF-8 Plain Text
Title : Форсированные [ver.Ash61]
Language : Ukrainian
Default : No
Forced : No
Text #4
ID : 8
Format : UTF-8
Codec ID : S_TEXT/UTF8
Codec ID/Info : UTF-8 Plain Text
Title : Полные
Language : Ukrainian
Default : No
Forced : No
Text #5
ID : 9
Format : UTF-8
Codec ID : S_TEXT/UTF8
Codec ID/Info : UTF-8 Plain Text
Title : Full
Language : English
Default : No
Forced : No
Text #6
ID : 10
Format : UTF-8
Codec ID : S_TEXT/UTF8
Codec ID/Info : UTF-8 Plain Text
Title : SDH (BD 3D CEE)
Language : English
Default : No
Forced : No
Menu
00:00:00.000 : :1
00:04:55.127 : :2
00:11:10.043 : :3
00:17:47.316 : :4
00:24:17.454 : :5
00:32:30.781 : :6
00:40:19.416 : :7
00:47:03.945 : :8
00:53:38.172 : :9
01:01:09.039 : :10
01:04:13.766 : :11
01:08:48.414 : :12
01:11:24.822 : :13
01:14:27.712 : :14
01:21:30.719 : :15
01:27:26.990 : :16

Для оценки 3D - анимированные скриншоты

      
      

Трейлер

-     - -

_________________
Other forum [Profile] [PM]
Display posts from previous:    
Reply to topic

The time now is: Today 03:00

All times are GMT + 3 Hours



You cannot post new topics in this forum
You cannot reply to topics in this forum
You cannot edit your posts in this forum
You cannot delete your posts in this forum
You cannot vote in polls in this forum
You cannot attach files in this forum
You cannot download files in this forum