Сегодня идет свободное скачивание без начисления Download

Владыка времени (Александр Баршак) [2015 г., фэнтези, приключения, WEB-DL 1080p]

Ответить на тему
 
Автор
Сообщение

Theseus ®

Пол:

Стаж: 7 лет 6 месяцев

Сообщений: 1995

Торрент-статистика

Пост 28-Окт-2018 18:44

[Цитировать]

Владыка времени -Год выхода: 2015
Страна: Россия
Жанр: фэнтези, приключения
Продолжительность: 01:32:15
Перевод: Не требуется
Субтитры: Отсутствуют-Режиссер: Александр Баршак-В ролях: Андрей Смоляков, Кирилл Ермичёв, Станислав Тикунов, Виктория Заболотная, Сергей Сосновский, Рина Гришина, Виталий Вашедский, Максим Юдин, Александр Числов-О фильме: В секретной Школе на протяжении нескольких лет готовят четверых «универсальных солдат» в возрасте от 18 до 20 лет. Они должны переместиться в эпоху Царя Ивана Грозного и предотвратить трагическую смерть его старшего сына Ивана, случившуюся 16-го ноября 1581 года. Таким образом, будет нарушен ход исторических событий. Царевич станет следующим Царём. Не будет Великой смуты, польской интервенции, не придут к власти Романовы, а следовательно удастся избежать революции 1917 года и Россия станет совершенно иным государством.- -Качество: WEB-DL 1080p
Формат: MKV
Видео кодек: x.264
Аудио кодек: AC3
Видео: AVC, 1920x802 (2.40:1), 25.000 fps, 5 110 Kbps
Аудио: AC-3, 48.0 KHz, 6 ch, 384 Kbps-Сэмпл-

MediaInfo

Общее
Уникальный идентификатор : 250050415180987547417821703835023906314 (0xBC1DF54DEDD42B818E743F07C1F1160A)
Полное имя : Vladyka.vremenie.2015.WEB-DL.(1080p).Getty.mkv
Формат : Matroska
Версия формата : Version 4 / Version 2
Размер файла : 3,54 Гбайт
Продолжительность : 1 ч. 32 м.
Общий поток : 5496 Кбит/сек
Название фильма : Vladyka.vremenie.2015.WEB-DL.(1080p).Getty
Дата кодирования : UTC 2018-10-18 08:58:07
Программа кодирования : mkvmerge v7.8.0 ('River Man') 32bit built on Mar 27 2015 16:18:02
Библиотека кодирования : libebml v1.3.1 + libmatroska v1.4.2
Видео
Идентификатор : 1
Формат : AVC
Формат/Информация : Advanced Video Codec
Профиль формата : High@L4
Параметр CABAC формата : Да
Параметр ReFrames формата : 4 кадра
Идентификатор кодека : V_MPEG4/ISO/AVC
Продолжительность : 1 ч. 32 м.
Битрейт : 5110 Кбит/сек
Ширина : 1920 пикселей
Высота : 802 пикселя
Соотношение сторон : 2,40:1
Режим частоты кадров : Переменный
Частота кадров : 25,000 кадров/сек
Цветовое пространство : YUV
Субдискретизация насыщенности : 4:2:0
Битовая глубина : 8 бит
Тип развёртки : Прогрессивная
Бит/(Пиксели*Кадры) : 0.133
Размер потока : 3,29 Гбайт (93%)
Default : Да
Forced : Нет
Аудио
Идентификатор : 2
Формат : AC-3
Формат/Информация : Audio Coding 3
Расширение режима : CM (complete main)
Параметр Endianness формата : Big
Идентификатор кодека : A_AC3
Продолжительность : 1 ч. 32 м.
Вид битрейта : Постоянный
Битрейт : 384 Кбит/сек
Каналы : 6 каналов
Расположение каналов : Front: L C R, Side: L R, LFE
Частота : 48,0 КГц
Частота кадров : 31,250 кадров/сек (1536 spf)
Битовая глубина : 16 бит
Метод сжатия : С потерями
Размер потока : 253 Мбайт (7%)
Default : Да
Forced : Нет

Трейлер

-     - -

_________________
Вне форума [Профиль] [ЛС]
Похожие темы
Форум Тема Автор Торрент Отв. Посл. сообщение
./templates/default/images/folder_dl.gif Фильмы 2011-2016 Владыка времени (Александр Баршак) [2015 г., фэнтези, приключения, WEB-DLRip] Theseus
1 | 0

0 | 1278

4

2018-10-28 18:42
Theseus Последнее
Показать сообщения:    
Ответить на тему

Текущее время: Сегодня 09:53

Часовой пояс: GMT + 3



Вы не можете начинать темы
Вы не можете отвечать на сообщения
Вы не можете редактировать свои сообщения
Вы не можете удалять свои сообщения
Вы не можете голосовать в опросах
Вы не можете прикреплять файлы к сообщениям
Вы не можете скачивать файлы