Сегодня идет свободное скачивание без начисления Download

Pluralsight.com | Advanced Python (2017) PCRec [H.264/720p-LQ] [RU/EN]

Ответить на тему
 
Автор
Сообщение

}{@R0N ®

Стаж: 3 года 1 месяц

Сообщений: 7007

Торрент-статистика

Пост 08-Окт-2018 18:25

[Цитировать]

Pluralsight.com | Advanced Python - Автор (режиссер): Robert Smallshire
Производство: Pluralsight.com
Жанр: Программирование
Описание:
Продвинутый Python
Со временем Python превратился из незаметного языка для программирования в один из самых популярных и широко используемых языков в мире. В этом курсе вы изучите темы, знание которых позволит отличить вас от большинства разработчиков Python.
Продолжительность: 03:53:22
Качество видео: PCRec
Перевод: Дублированный (Helluvallyric)
Язык озвучки: Русский, Английский
Видео: AVC/H.264, 1280x720, ~74-495 Kbps
Аудио 1: AAC, 1 ch, 160 Kbps - Русский, дублированный (Helluvallyric)
Аудио 2: AAC, 2 ch, 50-95 Kbps - Английский, оригинал

Mediainfo:

General
Complete name : 00_01. Course Overview.mp4
Format : MPEG-4
Format profile : Base Media
Codec ID : isom
File size : 7.78 MiB
Duration : 2mn 10s
Overall bit rate : 498 Kbps
Video
ID : 1
Format : AVC
Format/Info : Advanced Video Codec
Format profile : [url=mailto:High@L4.0]High@L4.0[/url]
Format settings, CABAC : Yes
Format settings, ReFrames : 8 frames
Codec ID : avc1
Codec ID/Info : Advanced Video Coding
Duration : 2mn 10s
Bit rate : 233 Kbps
Width : 1 280 pixels
Height : 720 pixels
Display aspect ratio : 16:9
Frame rate mode : Constant
Frame rate : 30.000 fps
Color space : YUV
Chroma subsampling : 4:2:0
Bit depth : 8 bits
Scan type : Progressive
Bits/(Pixel*Frame) : 0.008
Stream size : 3.64 MiB (47%)
Writing library : x264 core 136
Language : English
Audio #1
ID : 2
Format : AAC
Format/Info : Advanced Audio Codec
Format profile : LC
Codec ID : 40
Duration : 2mn 10s
Duration_LastFrame : 35ms
Bit rate mode : Constant
Bit rate : 160 Kbps
Channel(s) : 2 channels
Channel(s)_Original : 1 channel
Channel positions : Front: C
Sampling rate : 44.1 KHz
Compression mode : Lossy
Stream size : 2.50 MiB (32%)
Language : Russian
Audio #2
ID : 3
Format : AAC
Format/Info : Advanced Audio Codec
Format profile : LC
Codec ID : 40
Duration : 2mn 10s
Bit rate mode : Constant
Bit rate : 96.0 Kbps
Channel(s) : 2 channels
Channel positions : Front: L R
Sampling rate : 44.1 KHz
Compression mode : Lossy
Stream size : 1.50 MiB (19%)
Language : English

Дополнительная информация:

Во-первых, вы узнаете, как получить средства детального контроля доступа. Затем вы узнаете, как использовать конструкторы классов при создании объектов. В конце вы познакомитесь с деликатными, но мощными элементами управления Python.
К концу этого курса вы достаточно хорошо изучите Python, чтобы понять продвинутые методы, используемые для реализации сложных структур, а также многое другое.
Примечание. На сайте Pluralsight.com данный курс логически завершает трилогию учебных курсов:
Python Fundamentals
Python – Beyond the Basics
Advanced Python
Файлы упражнений прилагаются к курсу.
Дополнительная информация на офсайте.
Как выбрать звуковую дорожку по умолчанию (ссылка).
Скриншоты:
       
Вне форума [Профиль] [ЛС]
Показать сообщения:    
Ответить на тему

Текущее время: Сегодня 05:20

Часовой пояс: GMT + 3



Вы не можете начинать темы
Вы не можете отвечать на сообщения
Вы не можете редактировать свои сообщения
Вы не можете удалять свои сообщения
Вы не можете голосовать в опросах
Вы не можете прикреплять файлы к сообщениям
Вы не можете скачивать файлы