Today is a free download without charge Download

Монстры на каникулах 3: Море зовёт / Hotel Transylvania 3: Summer Vacation (Генндий Тартаковский) [2018 г., мультфильм, фэнтези, комедия, приключения, семейный, BDRip 720p] [Android] | DUB [iTunes]

Reply to topic
 
Author
Message

Theseus ®

Gender:

Longevity: 7 years 11 months

Posts: 2019

Торрент-статистика

Post 28-Sep-2018 08:20

[Quote]

Монстры на каникулах 3: Море зовёт / Hotel Transylvania 3: Summer Vacation -Год выхода: 2018
Страна: США
Жанр: мультфильм, фэнтези, комедия, приключения, семейный
Продолжительность: 01:37:23
Перевод: Профессиональный (полное дублирование) | iTunes
Субтитры: Русские (forced, full)-Режиссер: Генндий Тартаковский-В ролях: Мэл Брукс, Адам Сэндлер, Селена Гомес, Энди Сэмберг, Кэтрин Хан, Фрэн Дрешер, Стив Бушеми, Дэвид Спейд, Тара Стронг, Кигэн-Майкл Ки-О фильме: На этот раз Дракула вместе со своими друзьями отправляется в круиз на шикарном лайнере. Развлечения там на любой вкус: от монстробаскетбола и экзотических экскурсий, до лунных ванн. Неожиданно Дракула влюбляется в капитана корабля — загадочную и прекрасную Эрику, и его дочка Мэвис понимает, что поездка может превратиться в кошмар: ведь Эрика хранит ужасный секрет, который ставит под угрозу существование всех монстров!- -Качество: BDRip 720p
Формат: MP4
Видео кодек: x.264
Аудио кодек: HE-AAC
Видео: AVC, 1280x682 (1,85:1), 23.976 fps, 1050 Kbps
Аудио: HE-AAC / LC, 48.0 KHz, 2 ch, 128 Kbps-Сэмпл-

MediaInfo

Код:
Общее
Полное имя                               : Hotel.Transylvania.3.Summer.Vacation.2018.720p.BDRip.mp4
Формат                                   : MPEG-4
Профиль формата                          : Base Media
Идентификатор кодека                     : isom (isom/iso2/avc1/mp41)
Размер файла                             : 823 Мбайт
Продолжительность                        : 1 ч. 37 м.
Режим общего битрейта                    : Переменный
Общий поток                              : 1182 Кбит/сек
HDVideo                                  : Yes
Видео
Идентификатор                            : 1
Формат                                   : AVC
Формат/Информация                        : Advanced Video Codec
Профиль формата                          : High@L4.1
Настройки формата                        : CABAC / 4 Ref Frames
Параметр CABAC формата                   : Да
Параметр RefFrames формата               : 4 кадра
Идентификатор кодека                     : avc1
Идентификатор кодека/Информация          : Advanced Video Coding
Продолжительность                        : 1 ч. 37 м.
Битрейт                                  : 1050 Кбит/сек
Ширина                                   : 1280 пикселей
Высота                                   : 682 пикселя
Соотношение сторон                       : 1,85:1
Соотношение сторон в оригинале           : 1,85:1
Режим частоты кадров                     : Постоянный
Частота кадров                           : 23,976 (24000/1001) кадра/сек
Цветовое пространство                    : YUV
Субдискретизация насыщенности            : 4:2:0
Битовая глубина                          : 8 бит
Тип развёртки                            : Прогрессивная
Бит/(Пиксели*Кадры)                      : 0.050
Размер потока                            : 731 Мбайт (89%)
Библиотека кодирования                   : x264 core 152
Настройки программы                      : cabac=1 / ref=4 / deblock=1:-1:-1 / analyse=0x3:0x133 / me=umh / subme=9 / psy=1 / psy_rd=1.00:0.15 / mixed_ref=1 / me_range=24 / chroma_me=1 / trellis=2 / 8x8dct=1 / cqm=0 / deadzone=21,11 / fast_pskip=0 / chroma_qp_offset=-3 / threads=12 / lookahead_threads=1 / sliced_threads=0 / nr=0 / decimate=1 / interlaced=0 / bluray_compat=0 / constrained_intra=0 / bframes=3 / b_pyramid=2 / b_adapt=2 / b_bias=0 / direct=3 / weightb=1 / open_gop=0 / weightp=2 / keyint=250 / keyint_min=23 / scenecut=40 / intra_refresh=0 / rc_lookahead=60 / rc=2pass / mbtree=1 / bitrate=1050 / ratetol=1.0 / qcomp=0.60 / qpmin=0 / qpmax=69 / qpstep=4 / cplxblur=20.0 / qblur=0.5 / vbv_maxrate=31250 / vbv_bufsize=31250 / nal_hrd=none / filler=0 / ip_ratio=1.40 / aq=1:1.00
Аудио
Идентификатор                            : 2
Формат                                   : AAC
Формат/Информация                        : Advanced Audio Codec
Профиль формата                          : HE-AAC / LC
Настройки формата                        : Implicit
Идентификатор кодека                     : mp4a-40-2
Продолжительность                        : 1 ч. 37 м.
Вид битрейта                             : Постоянный
Битрейт                                  : 128 Кбит/сек
Каналы                                   : 2 канала
Расположение каналов                     : Front: L R
Частота                                  : 48,0 КГц / 24,0 КГц
Частота кадров                           : 23,438 кадра/сек (1024 SPF)
Метод сжатия                             : С потерями
Размер потока                            : 89,1 Мбайт (11%)
Заголовок                                : iTunes
Язык                                     : Russian
Default                                  : Да
AlternateGroup/String                    : 1
Текст #1
Идентификатор                            : 3
Формат                                   : Timed Text
Режим смешивания                         : sbtl
Идентификатор кодека                     : tx3g
Продолжительность                        : 1 ч. 37 м.
Вид битрейта                             : Переменный
Битрейт                                  : 0 бит/сек
Размер потока                            : 193 байт (0%)
Заголовок                                : Forced
Язык                                     : Russian
Default                                  : Да
Forced                                   : Нет
AlternateGroup/String                    : 2
Текст #2
Идентификатор                            : 4
Формат                                   : Timed Text
Режим смешивания                         : sbtl
Идентификатор кодека                     : tx3g
Продолжительность                        : 1 ч. 37 м.
Вид битрейта                             : Переменный
Битрейт                                  : 84 бит/сек
Размер потока                            : 59,6 Кбайт (0%)
Заголовок                                : Full
Язык                                     : Russian
Default                                  : Да
Forced                                   : Нет
AlternateGroup/String                    : 3

Трейлер

-     - -

_________________
Other forum [Profile] [PM]
Similar theme
Forum Topic Author Torrent Replies Last Post
./templates/default/images/folder_dl.gif Компьютерная литература Dr.Max | SEO-Гуру 2018 + SEO-Монстр 2018 [2 книги] (2018) [PDF] }{@R0N
1 | 0

0 | 400

4

2018-08-23 22:09
}{@R0N Latest
Display posts from previous:    
Reply to topic

The time now is: Today 02:45

All times are GMT + 3 Hours



You cannot post new topics in this forum
You cannot reply to topics in this forum
You cannot edit your posts in this forum
You cannot delete your posts in this forum
You cannot vote in polls in this forum
You cannot attach files in this forum
You cannot download files in this forum