Сегодня идет свободное скачивание без начисления Download

loftschool | Разработка под Android Базовый курс (2018) PCRec

Ответить на тему
 
Автор
Сообщение

}{@R0N ®

Стаж: 3 года 1 месяц

Сообщений: 6971

Торрент-статистика

Пост 14-Сен-2018 11:03

[Цитировать]

loftschool | Разработка под Android Базовый курс - Автор (режиссер): loftschool
Жанр: Программирование, Android
Описание:
Если вы уже научились писать весь ваш код внутри Activity, но понимаете, что со временем его становится сложно читать и поддерживать, то этот курс именно для вас. Мы уделим много времени архитектуре приложения и поймем, как писать код так, чтобы за него не было стыдно. Также углубим ваши знания в Android OS.
Вы сможете лучше понимать что происходит с вашим приложением “под капотом” и будете готовы к подобным вопросам на собеседованиях. Мы стараемся объяснить все сложные вещи простым языком и добиться понимания от каждого ученика, так что ваш рост неизебежен.
Продолжительность: 19:28:23
Качество видео: PCRec
Видео: VP8, 1280x720, ~122-147 Kbps
Аудио: Vorbis, 2 ch, 112 Kbps

Mediainfo:

Общее
Уникальный идентификатор : 227757657990008408296248812749828150279 (0xAB5887840C5A2212516151DB83B85407)
Полное имя : .\01_HelloWorld\001 Hello, world!.webm
Формат : WebM
Версия формата : Version 2
Размер файла : 195 Мбайт
Продолжительность : 1 ч. 38 м.
Режим общего битрейта : Переменный
Общий поток : 278 Кбит/сек
Программа кодирования : Lavf55.0.100
Библиотека кодирования : Lavf55.0.100
Видео
Идентификатор : 1
Формат : VP8
Идентификатор кодека : V_VP8
Продолжительность : 1 ч. 38 м.
Битрейт : 147 Кбит/сек
Ширина : 1280 пикселей
Высота : 720 пикселей
Соотношение сторон : 16:9
Режим частоты кадров : Постоянный
Частота кадров : 24,000 кадра/сек
Метод сжатия : С потерями
Бит/(Пиксели*Кадры) : 0.007
Размер потока : 103 Мбайт (53%)
Default : Да
Forced : Нет
Аудио
Идентификатор : 2
Формат : Vorbis
Параметр Floor формата : 1
Идентификатор кодека : A_VORBIS
Продолжительность : 1 ч. 38 м.
Вид битрейта : Переменный
Битрейт : 112 Кбит/сек
Каналы : 2 канала
Частота : 48,0 КГц
Метод сжатия : С потерями
Задержка видео : -3 мс.
Размер потока : 78,6 Мбайт (40%)
Программа кодирования : Lavc55.0.100
Библиотека кодирования : libVorbis (Omnipresent) (20120203 (Omnipresent))
Default : Нет
Forced : Нет

Дополнительная информация:

В раздаче имеются архивы! В них содержится дополнительные материалы.
Скриншоты:
       
Вне форума [Профиль] [ЛС]
Показать сообщения:    
Ответить на тему

Текущее время: Сегодня 11:15

Часовой пояс: GMT + 3



Вы не можете начинать темы
Вы не можете отвечать на сообщения
Вы не можете редактировать свои сообщения
Вы не можете удалять свои сообщения
Вы не можете голосовать в опросах
Вы не можете прикреплять файлы к сообщениям
Вы не можете скачивать файлы